#TITLE:B.Y.O.B.;
#ARTIST:System of a Down;
#BANNER:B.Y.O.B..png;
#BACKGROUND:B.Y.O.B.-bg.png;
#JACKET:B.Y.O.B.-jacket.png;
#CDTITLE:./CDTITLES/NONE.PNG;
#MUSIC:B.Y.O.B..ogg;
#SAMPLESTART:44.291;
#SAMPLELENGTH:15;
#DISPLAYBPM:153:205;
#BPMS:0=153,37=205,69=200,97=180,101=201,125=205,133=200,139=195,141=200,165=203,197=200,229=210,233=200,237=210,243=200,245=170,249=165,253=162,261=160,273=158,285=150,289=159;
#STOPS:36=1.1764705882352941176470588235294;

//---------------dance-single - t7r----------------
#NOTES:
     dance-single:
     t7r:
     Beginner:
     3:
     :
0000
0000
0000
0000
,
0000
0000
0000
0000
,
0000
0000
0000
0000
,
0000
0000
0000
0000
,
0000
0000
0000
0000
,
0010
0000
0100
0000
,
0010
0000
1001
0000
,
0100
0000
0010
0000
,
0100
0000
1001
0000
,
1000
0000
0001
0000
,
0001
0000
0001
0000
,
0000
0000
1000
0000
,
1000
1000
0000
0000
,
0000
0000
0010
0000
,
0010
0000
0100
0000
,
0000
0100
0000
0010
,
0000
1001
0000
0000
,
0000
1000
0000
1000
,
0000
1000
0000
1000
,
0000
0001
0000
0001
,
0000
0001
0000
0001
,
0000
0010
0000
0010
,
0000
0100
0000
0100
,
0000
1000
0000
0000
,
0000
0010
0000
0000
,
0000
0100
0000
0000
,
0000
0000
0000
0010
,
0000
0010
0000
0000
,
0000
0000
0000
1000
,
0000
0100
0000
0000
,
0000
0000
0000
1000
,
0000
0001
0000
0000
,
0000
0100
0000
0010
,
0000
1001
0000
0000
,
0000
0001
0000
0000
,
0000
0100
0000
0000
,
0000
0010
0000
0000
,
0000
0100
0100
0000
,
0100
0000
0000
0000
,
0000
0010
0010
0000
,
0000
0010
0000
0000
,
0000
1001
0000
0000
,
0000
1000
0000
0000
,
0000
0001
0000
0000
,
0000
0100
0000
0000
,
0000
0001
0001
0000
,
0001
0000
0000
0000
,
0000
1000
1000
0000
,
0000
0000
0000
1000
,
0000
1001
0000
0000
,
0000
0010
0000
0000
,
0000
0100
0000
0000
,
0000
0001
0000
0000
,
0000
0100
0100
0000
,
0010
0000
0000
0000
,
0000
1000
1000
0000
,
0000
0000
0000
0001
,
0000
1001
0000
0000
,
0000
0001
0000
0000
,
0000
0010
0000
0000
,
0000
0100
0000
0000
,
0000
0100
0000
0000
,
0000
0000
0000
0000
,
0000
0010
0000
0000
,
0000
0000
0000
0001
,
0001
0001
0000
0000
,
0000
1000
0000
0010
,
0000
1000
0000
0000
,
0000
0110
0000
0000
,
0000
0010
0000
0000
,
0000
0010
0000
0000
,
0000
0100
0000
0000
,
0000
0100
0000
0100
,
0000
0100
0100
0100
,
0000
0010
0000
0010
,
0000
0010
0010
0010
,
0000
1001
0000
1000
,
0000
1000
1000
1000
,
0000
0001
0001
0001
,
0000
1000
1000
1000
;

//---------------dance-single - t7r----------------
#NOTES:
     dance-single:
     t7r:
     Easy:
     6:
     :
0000
0000
0000
0000
,
0000
0000
0000
0000
,
0000
0000
0000
0000
,
0000
0000
0000
0000
,
0000
0000
0000
0000
,
0010
1000
0001
0100
,
0001
0100
0020
0030
,
1000
0100
0010
0001
,
1000
0100
2000
3000
,
1001
0010
0010
0100
,
0100
0010
0100
1001
,
0000
1000
1000
0100
,
0100
0110
0000
1000
,
1001
0001
0001
0100
,
0100
0010
0100
0101
,
0000
1000
1000
0010
,
1000
1001
0000
1000
,
0100
1000
1000
1000
,
1000
0001
0001
0001
,
0001
0100
0100
0100
,
0100
0010
0100
0220
,
0330
0010
0000
1000
,
0000
0001
0000
0100
,
0000
0001
0000
1000
,
0000
0200
0300
0020
,
0030
0100
0100
0000
,
1000
0000
0001
0001
,
0001
0100
0001
0000
,
0001
0000
0001
0100
,
0010
1000
1000
0000
,
0010
0000
0010
0100
,
0001
1000
0100
0000
,
0010
0002
0000
0000
,
0003
2000
3000
0200
,
0300
0020
0030
0002
,
0003
2000
3000
0200
,
0300
2000
3000
0002
,
0003
0100
0001
0000
,
0001
0000
0001
0100
,
0010
1000
0010
0000
,
1000
0001
1000
0001
,
0000
0200
0300
0020
,
0030
2000
3000
0200
,
0300
0002
0003
0200
,
0300
2000
3000
0002
,
0003
1000
1000
0000
,
0001
0000
0010
0100
,
0010
1000
0100
0000
,
1000
0001
1000
0002
,
0003
2000
3000
0002
,
0003
0200
0300
0020
,
0030
2000
3000
0200
,
0300
0020
0030
0002
,
0003
1000
0100
0000
,
0001
0000
0001
0100
,
1000
0010
0100
0000
,
0010
1000
0001
0200
,
0300
0020
0030
2000
,
3000
0002
0003
0200
,
0300
0002
0003
2000
,
3000
0200
0300
0010
,
0000
0010
0010
0010
,
0010
0220
0000
0000
,
0330
1000
1000
1000
,
1000
2002
0000
0000
,
3003
0001
0100
0001
,
0001
1000
0100
1000
,
1000
0010
1000
0001
,
0100
1001
0000
0000
,
0000
1001
0000
0000
,
0000
1001
0000
0000
,
0000
0020
0000
0000
,
0030
0100
0100
0010
,
1000
0001
1000
0200
,
0300
0010
0010
0001
,
1000
0100
0100
2000
,
3000
0001
0001
0100
,
0010
1000
1000
0020
,
0030
0100
0001
2000
,
3000
1000
0001
0200
,
0300
0000
0000
0000
;

//---------------dance-single - t7r----------------
#NOTES:
     dance-single:
     t7r:
     Medium:
     8:
     :
0000
0000
0000
0000
,
0000
0000
0000
0000
,
0000
0000
0000
0000
,
0000
0000
0000
0000
,
0000
0000
0000
0000
,
0010
0000
1000
0000
0001
0000
0000
0000
0100
0000
0000
0100
0000
0000
0100
0000
,
0010
0000
0100
0000
0001
0000
0000
0000
1000
0000
0000
1000
0000
0000
1000
0000
,
0100
0000
0010
0000
0001
0000
0000
0000
0010
0000
0000
0010
0000
0000
0010
0000
,
0001
0000
0010
0000
0100
0000
0000
0000
1000
0000
0000
0001
0000
0000
1000
0000
,
1001
1000
0100
0001
,
0100
1000
0001
1001
,
0000
0001
0100
1000
,
0100
1001
0000
1000
,
0001
1000
0010
0001
,
0010
1000
0100
1100
,
0000
0001
0010
1000
,
0010
0011
0000
1100
,
0101
1000
1000
1000
,
1001
0001
0001
0001
,
1001
0010
0110
0001
,
1001
1000
1100
0202
,
0303
0010
0010
0100
,
0110
0001
0001
1000
,
1001
1000
0100
0010
,
0001
2020
3030
0202
,
0303
1000
2000
0000
,
3001
0000
0001
0100
,
0001
1000
0020
0000
,
0130
0000
0000
0000
0010
0000
0100
0001
,
1000
0001
0010
0100
,
1001
0000
1000
0010
,
0100
0010
0200
0000
,
0301
2000
3002
2003
,
3000
1001
0000
0010
,
0000
0100
0000
0001
,
0000
1000
0000
0100
,
0000
0010
0000
0100
,
0000
1000
0100
0000
,
1001
0000
0000
0000
1000
0000
0010
0100
,
0001
0000
1000
0001
0100
0000
0000
0000
,
0001
1000
0002
0000
2003
0000
3002
0000
,
0003
1001
0000
0010
,
0000
1000
0000
0001
,
0000
1000
0000
0100
,
0000
0010
0000
0001
,
0000
1000
0100
0000
,
0011
0000
0000
0000
0001
0000
0010
0001
,
0100
0000
0010
1000
0100
0000
0000
0000
,
1000
0001
0200
0000
0320
0000
0230
0000
,
0300
0110
0000
1000
,
0000
0001
0000
0100
,
0000
0001
0000
0010
,
0000
0100
0000
1000
,
0000
0100
0010
0000
,
1001
0000
0000
0000
1000
0000
0010
1000
,
0100
0000
1000
0001
1000
0000
0000
0000
,
0001
0100
0020
0000
0230
0000
0320
0000
,
0030
0101
0000
1000
,
0000
0010
0000
1000
,
0000
0001
0000
0100
,
0000
0010
0000
1001
,
0000
0000
1000
0000
1000
0000
1000
0001
,
1000
0020
0000
0130
,
0000
0000
0001
0000
0001
0000
1000
0001
,
1000
0200
0000
0310
,
0000
0000
0001
0010
0000
0100
1000
0001
,
0000
1000
0001
0100
0000
0010
0100
0001
,
0000
1000
0100
0010
0000
0001
0010
1000
,
0000
0010
0001
0000
0000
0000
0000
0000
,
0000
1001
0000
0000
,
0000
0110
0000
0000
,
0000
2002
0000
0000
,
3003
1000
1100
0010
,
0011
0000
0001
0100
1000
0100
0001
0000
,
1001
0010
1010
0001
,
0101
0000
1000
0010
0001
0010
1000
0000
,
0110
1001
1100
0010
,
0101
0000
0001
1000
0100
1000
0001
0000
,
0000
1000
0001
0100
0010
1000
0010
0000
,
0000
0100
0001
1000
0100
0010
0001
0000
,
1000
1000
0000
0000
0000
0000
0000
0000
;

//---------------dance-single - t7r----------------
#NOTES:
     dance-single:
     t7r:
     Hard:
     13:
     :
0000
0000
0000
0000
,
0000
0000
0000
0000
,
0000
0000
0000
0000
,
0000
0000
0000
0000
,
0000
0000
0000
0000
,
0010
0000
1000
0000
0001
0000
0100
0000
0001
0000
0010
0001
0000
0000
1000
0000
,
0010
0000
0100
0000
0001
0000
1000
0000
0001
0000
0000
1001
0000
0000
1001
0000
,
0100
0000
0010
0000
1000
0000
0100
0000
0010
0000
0100
1000
0000
0000
0010
0000
,
0100
0000
0001
0000
1000
0000
0010
0000
0100
0000
0000
0110
0000
0000
1001
0000
,
0020
1030
1001
0001
,
1001
0010
0110
2001
,
3100
0001
0101
0010
,
1100
2002
3003
0110
,
1001
1000
1100
1000
,
1100
0001
0101
1002
,
0103
0010
0100
0001
,
0100
0220
0330
1001
,
0110
1000
1100
1000
,
1100
0001
0101
0001
,
0101
0001
0011
0100
,
0110
0011
0110
2001
,
3010
0100
0110
0001
,
1001
1000
1100
0010
,
0011
1000
1100
0101
,
1100
2002
3003
0110
,
0000
0010
0100
0001
0100
0000
0010
0000
,
0110
0000
0000
0010
1000
0100
1000
0010
,
1000
0001
0100
0001
1000
0000
0001
0000
,
1001
0000
0000
0001
0010
0100
1000
0100
,
0020
0000
0031
0010
0100
0000
0010
0000
,
1001
0000
0000
1000
0010
0100
0001
0100
,
0010
1000
0001
1000
0100
0000
0010
0000
,
0001
1000
0001
0010
0100
0000
1000
0010
,
0100
0000
0001
0010
0001
0000
1000
0000
,
1001
0000
0000
1000
0020
0000
0000
1030
,
0200
0000
1300
0001
0100
0000
0010
0000
,
0110
0000
0000
0010
2000
0000
0000
3001
,
0020
0000
0031
1000
0001
0000
1000
0000
,
1001
0000
0000
1000
0010
0100
0010
1000
,
0010
0100
0001
0100
0001
0000
0000
0000
,
1000
0100
2000
0000
3200
0000
2300
0000
,
3000
0000
0001
0010
0100
0000
0010
0000
,
0011
0000
0000
0010
0002
0000
0000
1003
,
0020
0000
1030
0010
0100
0000
0010
0000
,
1010
0000
0000
1000
0200
0000
0000
1300
,
0002
0000
0103
0010
0100
0000
0010
0000
,
1010
0000
0000
0010
0100
0001
0100
0010
,
0100
0001
1000
0001
0100
0000
0000
0000
,
0010
0100
0002
0000
0023
0000
0230
0000
,
0300
0000
1000
0100
0010
0000
0100
0000
,
1100
0000
0000
0001
0020
0000
0000
0031
,
2000
0000
3010
0100
0001
0000
0100
0000
,
0110
0000
0000
1000
0002
0000
0000
0013
,
0200
0000
1300
0001
0010
0000
0001
0000
,
0101
0000
0000
0010
0001
1000
0001
0100
,
0001
1000
0010
1000
0100
0000
0000
0000
,
0010
0001
0200
0000
0302
0000
2003
0000
,
3000
0000
0001
0100
0010
0000
0100
0000
,
0110
0000
0000
0100
0002
0000
0000
1003
,
0020
0000
1030
0100
0010
0000
0001
0000
,
1001
0000
0000
0010
0100
0000
0220
0000
,
0330
0000
1000
0100
0010
0001
1000
0100
,
0010
0001
1000
1000
0100
0100
0001
0001
,
0100
0100
1000
0010
0100
0001
1000
0010
,
0100
0001
1000
1000
0010
0010
0001
0001
,
0010
0000
0010
0000
1000
0000
0100
0000
0000
1000
0001
0000
0100
0000
0001
1000
,
0000
1000
0001
0000
0100
0000
0010
0000
0000
1000
0010
0000
0100
0000
0010
1000
,
0000
1000
0010
0000
1000
0000
0100
0000
0000
0010
0001
0000
1000
0000
0100
1000
,
0000
1000
0001
0000
2001
0000
0000
0000
0000
0000
0000
0000
0010
0000
0000
0000
,
3100
1002
0000
1000
,
0013
0210
0000
0001
,
1300
2020
0000
0000
,
3030
0000
0000
0000
0101
0000
0000
0000
1001
0000
0000
0001
0100
0000
0001
0000
,
1000
0100
0000
0010
0100
0000
0000
0000
1001
0000
0000
1000
0010
0000
0100
0000
,
0001
0100
0000
0001
1000
0000
0000
0000
1001
0000
0000
0010
1000
0000
0010
0000
,
0100
0001
0000
1000
0001
0000
0000
0000
1100
0000
0000
1000
0100
0000
1000
0000
,
0001
0100
0000
0000
1010
0000
0000
0000
0110
0000
0000
0010
0100
0000
0001
0000
,
1000
0001
0000
1000
0100
0000
0000
0000
0011
0000
0000
0001
0100
0000
0001
0000
,
1000
0001
0000
0100
0010
0000
1000
0000
0001
0000
0100
0000
0001
0000
0000
0000
,
1000
0000
0001
0000
1000
0000
0100
0000
0010
0000
0001
0000
0100
0010
0100
0000
,
0010
0010
0000
0000
0000
0000
0000
0000
;

//---------------dance-single - t7r----------------
#NOTES:
     dance-single:
     t7r:
     Challenge:
     16:
     :
0000
0000
0000
0000
,
0000
0000
0000
0000
,
0000
0000
0000
0000
,
0000
0000
0000
0000
,
0000
0000
0000
0000
,
0001
0000
0010
0000
0100
0010
0100
0000
0010
0000
0001
0100
0000
0100
0001
0000
,
1000
0000
0010
0000
0100
0010
0100
0000
1010
0000
0000
1001
0000
0000
1100
0000
,
1000
0000
0100
0000
0010
0100
0010
0000
0100
0000
1000
0010
0000
0010
1000
0000
,
0001
0000
0100
0000
0001
0010
0001
0000
0011
0000
0000
1001
0000
0000
0110
0000
,
2020
0000
0000
3030
0000
0000
0000
0000
0000
0000
0000
0000
1000
0000
0000
0000
0100
0000
0000
0000
1000
0000
0000
0000
0001
0000
0000
0000
0000
0000
0000
0000
0001
0000
0000
0000
0100
0000
0000
0000
0001
0000
0000
0000
1000
0000
0000
0000
,
0010
0000
0010
1000
0100
0010
0100
0000
0100
1000
0000
0000
,
0210
0000
0000
0301
0100
0001
0010
0000
0010
0001
1000
0010
,
1000
0000
1000
0002
0000
0000
0003
0000
0000
1001
0000
0000
,
0110
0000
0000
0010
1000
0100
1000
0000
1000
0001
0010
0001
,
1000
0000
1000
0001
0100
0010
0100
0000
0100
0001
0000
0000
,
0210
0000
0000
0310
1000
0001
0010
0000
0010
0001
1000
0100
,
1000
0000
1000
0002
0000
0000
0003
0000
0000
1001
0000
0000
,
0110
0000
0000
0010
1000
0010
0100
0001
0100
0001
0010
0001
,
1000
0100
1000
0001
0010
0100
1000
0010
0100
0001
0010
0001
,
1000
0010
1000
0001
0010
1000
0001
0100
1000
0001
0010
0100
,
0010
0001
1000
0010
0100
0001
0100
0010
1000
0001
0000
0000
,
0120
0000
0000
1030
0010
0001
1000
0100
0001
1000
0010
0100
,
0001
0010
0100
1000
0010
0001
0010
1000
0001
1000
0100
0001
,
0100
1000
0010
0100
0010
0100
0001
0100
0001
0010
0001
1000
,
0010
1000
0001
2000
0000
0000
3000
0000
0000
2002
0000
0000
,
3003
0010
0100
0001
0100
0000
0001
0000
,
0011
0000
1000
0100
0010
0001
0010
0100
,
1000
0100
1000
0010
0100
0000
0010
0000
,
1010
0000
0010
1000
0001
0100
0001
0010
,
0002
0000
1003
0001
0100
0000
0010
0000
,
1010
0000
1000
0001
0100
0010
1000
0100
,
0001
0100
1000
0001
0100
0000
0010
0000
,
1010
0000
0000
0000
1001
0000
1000
0001
1000
0000
0001
0000
0010
0000
0100
0000
,
1000
0000
1001
0001
0001
0000
0100
0000
,
0110
0000
0010
1000
0200
0000
0310
0001
,
2000
0000
3001
0001
0001
0000
0100
0000
,
0110
0000
0010
1000
0002
0000
0013
0001
,
2000
0000
3100
0100
0100
0000
0010
0000
,
1100
0000
0001
1000
0010
0001
0010
1000
,
0100
0001
0100
1000
0001
0000
1000
0000
,
0010
1000
0100
1000
0001
0100
0010
0100
,
0001
0010
0110
0010
0010
0000
0001
0000
,
1001
0000
0001
0100
0020
0000
1030
0001
,
0200
0000
0301
0001
0001
0000
1000
0000
,
1001
0000
1000
0010
0200
0000
0310
1000
,
0002
0000
1003
1000
1000
0000
0100
0000
,
0110
0000
1000
0100
0001
0100
1000
0010
,
0001
0010
1000
0010
0100
0000
0001
0000
,
1000
0001
1000
0010
0100
0001
0010
0100
,
1000
0000
1010
0010
0010
0000
1000
0000
,
1001
0000
1000
0001
0020
0000
0031
1000
,
0200
0000
1300
1000
1000
0000
0001
0000
,
0101
0000
0001
0100
0020
0000
0130
0001
,
2000
0000
3001
0001
0001
0000
0010
0000
,
0110
0000
0010
0001
0100
1000
0100
0001
,
0010
1000
0010
0001
1000
0000
0001
0000
,
1000
0100
0010
0100
1000
0001
0100
0010
,
0100
0001
1001
0001
0001
0000
1000
0000
,
1010
0000
0010
1000
0200
0000
0310
0001
,
2000
0000
3010
0010
0010
0000
0100
0000
,
0110
0000
0010
1000
0200
0000
0310
0001
,
0200
0000
0000
0000
0310
0100
0010
0100
0010
0000
0100
0000
0001
0010
0001
0010
,
0001
0000
1000
0000
0100
1000
0100
1000
0100
0000
1000
0000
0010
0000
0100
0010
,
0000
0010
1000
0000
0010
1000
0001
1000
0100
0000
1000
0000
0001
1000
0010
1000
,
0001
0000
1000
0000
0100
0010
0001
0010
0100
0000
1000
0000
0010
0000
0100
0001
,
0000
0001
0100
0000
0010
0000
1000
0000
0100
1000
0100
0000
1000
0000
0001
0010
,
0000
0010
0001
0000
0100
0000
0001
0000
0100
0010
0100
0000
0001
0000
0010
0001
,
0000
0001
1000
0000
0010
0000
1000
0000
0100
0010
0100
0000
1000
0000
0010
0100
,
0000
0100
0001
0000
1001
0000
0010
0000
0100
0000
1000
0000
0010
0100
0000
0001
,
1000
0100
1000
0001
0010
0000
0001
0000
0100
0000
0010
0000
0100
0001
0000
1000
,
0000
0010
1000
0001
0100
0000
0010
0000
1000
0000
0001
0000
0010
0100
0000
0010
,
0000
0001
1000
0001
0020
0000
0031
0020
0000
0031
2000
0000
3010
0200
0000
0301
,
2000
0000
3001
0000
1001
0000
0001
0100
0010
0000
0100
0001
1000
0000
0001
0010
,
0100
0010
0000
0010
0001
0000
1000
0100
0010
0000
0100
1000
0010
0000
0100
0000
,
0001
0010
0000
0010
0001
0000
1000
0010
0100
0000
0001
0100
0010
0000
0100
0000
,
0001
1000
0000
1000
0010
0000
1000
0100
0010
0000
0001
0100
0010
0000
0100
0001
,
1000
0001
0100
0000
1001
0000
0010
1000
0001
0000
0100
0001
0010
0000
0001
1000
,
0100
1000
0000
1000
0010
0000
0100
0001
0010
0000
0100
1000
0010
0000
0100
0010
,
1000
0010
0000
0010
1000
0000
0001
1000
0100
0000
1000
0001
0010
0000
0001
0100
,
0010
1000
0000
1000
0001
0000
1000
0100
0010
0000
0001
0100
0010
0000
1000
0001
,
0100
0110
0000
0000
0000
0000
0000
0000
;
