#TITLE:Anisakis -somatic mutation type"Forza"-;
#ARTIST:朱雀;
#ARTISTTRANSLIT:SUZAKU;
#BANNER:Anisakis -somatic mutation type''Forza''-.png;
#BACKGROUND:Anisakis -somatic mutation type''Forza''--bg.png;
#JACKET:Anisakis -somatic mutation type''Forza''--jacket.png;
#CDTITLE:./CDTITLES/BEATMANIA IIDX.PNG;
#MUSIC:Anisakis -somatic mutation type''Forza''-.ogg;
#SAMPLESTART:35.027;
#SAMPLELENGTH:15;
#BPMS:0=185;

//---------------dance-single - t7r----------------
#NOTES:
     dance-single:
     t7r:
     Beginner:
     3:
     :
0000
0000
0000
0000
,
0000
0000
0000
0000
,
0000
0000
0000
0000
,
0000
0000
0000
0000
,
0000
0000
0000
0000
,
1000
0000
0000
0000
,
0001
0000
0000
0000
,
0100
0000
0000
0000
,
0010
0000
0000
0000
,
0100
0000
0000
0000
,
0000
0000
0000
0000
,
0010
0000
0000
0000
,
0100
0000
0000
0000
,
0010
0000
0000
0000
,
1000
0000
0000
0000
,
0001
0000
0000
1000
,
1000
0000
0000
0000
,
0001
0000
0000
1000
,
1000
0000
0100
0000
,
0000
0010
0000
0010
,
0000
0010
0000
0100
,
0000
0010
0000
0010
,
0010
0000
0100
0000
,
0000
0010
0000
1000
,
0000
0001
0000
0100
,
0000
0010
0000
0100
,
0100
0000
0010
0000
,
1000
0000
0010
0000
,
0100
0000
0001
0000
,
1000
0000
0010
0000
,
1000
0000
1000
0000
,
1000
0000
0010
0000
,
0100
0000
0001
0000
,
1000
0000
0010
0000
,
0100
0000
0100
0000
,
0010
0000
0100
0000
,
0001
0000
0001
0000
,
0100
0000
0010
0000
,
1000
0000
1000
0000
,
0100
0000
0010
0000
,
0001
0000
0010
0000
,
0100
0000
1000
0000
,
0100
0000
0010
0000
,
1001
0000
0000
0000
,
0000
0000
0000
0000
,
0000
0000
0000
0000
,
0000
0000
0000
0000
,
0100
0000
0000
0000
,
0010
0000
0000
0000
,
0100
0000
0000
0000
,
0010
0000
0010
0000
,
0100
0000
0000
0000
,
0010
0000
0000
0000
,
1000
0000
0000
0000
,
0001
0000
1000
0000
,
0001
0000
0000
1000
,
1000
0000
0000
0001
,
0001
0000
0000
1000
,
1000
0000
0000
0001
,
0001
0000
1000
0000
,
0001
0000
1000
0000
,
0001
0000
0001
0000
,
1000
0000
1000
0000
,
0001
0001
0000
0000
,
0000
0000
0000
0000
,
0001
0000
1000
0000
,
1000
0000
0001
0000
,
1001
0000
0000
0000
,
0010
0000
0000
0000
,
0110
0000
0000
0000
,
0001
0000
0000
0000
,
1000
0000
0000
0000
,
0010
0000
0100
0000
,
0100
0000
0000
0000
,
0001
0000
0000
0000
,
1000
0000
0000
0000
,
0100
0000
0010
0000
,
0100
0000
0000
0000
,
0010
0000
0000
0000
,
0001
0000
0000
0000
,
1000
0000
0010
0000
,
1000
0000
0000
0000
,
0001
0000
0000
0000
,
1000
0000
0000
0000
,
1001
0000
0000
0000
,
0010
0000
0000
0000
,
0000
0000
0000
0000
,
0110
0000
0000
0000
,
1000
0000
0000
0000
,
1001
0000
0000
0000
,
1001
0000
0000
0000
,
1001
0000
0010
0000
,
0100
0000
0000
0000
,
0001
0000
0000
0000
,
0001
0000
0000
0000
,
1000
0000
1000
0000
,
1000
0000
0000
0000
,
0010
0000
0000
0000
,
0100
0000
0000
0000
,
0001
0000
1000
0000
,
0001
0000
1000
0000
,
0000
1001
0000
0000
;

//---------------dance-single - t7r----------------
#NOTES:
     dance-single:
     t7r:
     Easy:
     7:
     :
0000
0000
0000
0000
,
0000
0000
0000
0000
,
0000
0000
0000
0000
,
0000
0000
0000
0000
,
0000
0000
0000
0000
,
0020
0000
0000
0030
,
0200
0000
0000
0300
,
0002
0000
0000
0003
,
2000
0000
0000
3000
,
2002
0000
0000
0000
,
0000
0000
0000
3003
,
1000
1000
1000
0100
,
0100
0010
0010
0001
,
0010
0010
0010
0100
,
0100
1000
1000
0001
,
1000
1000
1000
0001
,
0001
0100
0100
0010
,
1000
1000
1000
0001
,
1001
0000
0010
0100
,
0001
0001
0001
0010
,
0010
0000
0220
0330
,
1000
1000
1000
0010
,
0010
0000
0022
0033
,
0001
0001
0001
0100
,
0100
0010
0010
1000
,
0001
0001
1000
0001
,
0001
0000
1001
0000
,
1000
0100
0001
0100
,
1000
0100
0001
0100
,
1000
0100
0001
0100
,
1000
0000
0110
0000
,
0001
0010
1000
0010
,
0001
0010
1000
0010
,
0001
0010
1000
0010
,
0001
0000
1001
0000
,
0001
0001
0001
0100
,
0100
0010
0020
0030
,
1000
1000
1000
0010
,
0010
0100
0002
0003
,
1001
0010
0010
0100
,
0110
0001
0001
1000
,
1001
0010
1001
0100
,
0001
1000
0100
1000
,
2002
0000
0000
0000
,
0000
0000
0000
0000
,
3003
0000
0000
0000
,
0000
0000
0000
0000
,
0010
0000
0010
0100
,
0100
0000
0000
0000
,
0001
0000
0001
1000
,
1000
0001
2000
3000
,
0001
0000
1000
0001
,
1000
0000
0000
0000
,
0010
0000
0100
0000
,
0001
0010
0220
0330
,
1000
0010
2000
3000
,
0001
0010
0002
0003
,
1000
0010
2000
3000
,
0001
0010
0002
0003
,
1000
0001
0100
0110
,
0001
1000
0100
0110
,
1000
0000
0001
0000
,
1000
1001
0001
1001
,
2002
0000
0000
0000
,
0000
0000
0000
3003
,
0000
0110
0000
1001
,
1000
1000
0001
0001
,
0220
0000
0000
0330
,
0020
0000
0000
0030
,
0100
0100
0100
0001
,
0001
1000
1000
0010
,
0010
1000
1000
0001
,
0001
0000
1000
0100
,
1000
0000
0001
0000
,
0100
0000
0010
0000
,
1000
0001
0100
0001
,
1001
0000
0010
0100
,
1001
0010
0010
0100
,
0100
0000
1000
0100
,
1000
0010
0010
0100
,
0001
0000
1000
0001
,
0100
0001
1000
0001
,
0010
0001
1000
0001
,
1000
0000
1001
0000
,
0010
0100
0001
1000
,
2001
0000
0000
0000
,
3020
0000
0000
0130
,
0200
0000
0000
0000
,
0302
0000
1003
0001
,
1002
0000
0000
1003
,
2001
0000
0000
3010
,
0110
0000
1001
0000
,
0001
0010
0100
1000
,
0001
1000
0000
0001
,
0100
0001
0000
1000
,
0010
0000
1000
0000
,
0100
0000
0110
0000
,
0001
0010
1000
0000
,
0001
0100
1000
0000
,
0010
1000
0001
0100
,
0010
1000
0001
1000
,
0001
2002
0000
0000
,
0000
0000
0000
0000
,
0000
0000
0000
0000
,
0000
0000
0000
0000
,
0000
0000
3003
0000
;

//---------------dance-single - t7r----------------
#NOTES:
     dance-single:
     t7r:
     Medium:
     10:
     :
0000
0000
0000
0000
,
0000
0000
0000
0000
,
0000
0000
0000
0000
,
0000
0000
0000
0000
,
0000
0000
0000
0000
,
2001
0010
0100
3001
,
1002
0010
0100
1003
,
0210
0000
0001
1300
,
0002
0023
0230
1300
,
2002
0000
0000
0000
,
0000
0000
0000
3003
,
0010
0000
0010
1000
0100
0000
1000
0000
,
0002
0100
0010
1003
,
0010
0000
0010
0001
0100
0000
0001
0000
,
2000
0010
0100
3001
,
1001
0000
0100
0001
1000
0000
0001
0000
,
0200
0010
1000
0301
,
0010
0000
0001
1000
0100
0000
1000
0000
,
0020
0000
0100
0031
,
0110
0000
0001
0010
0100
0000
1000
0100
,
0020
0000
0032
0000
,
1003
0000
0010
0100
0001
0000
0100
0010
,
2000
0000
0020
3030
,
1001
0000
0010
0100
0001
0000
1000
0000
,
1001
0000
0001
0010
0100
0000
1000
0000
,
0110
0000
0001
1000
0001
0000
1000
0000
,
0220
0000
0000
0330
,
0001
0000
0100
0001
0000
1000
0100
0000
,
0001
0100
0000
1000
0100
0000
1000
0000
,
0010
0000
1000
0010
0000
0001
0010
0000
,
0001
0010
0100
1000
,
1001
0000
0010
0100
0000
0001
0100
0000
,
0010
0100
0000
1000
0010
0000
0100
0000
,
1000
0000
0010
0100
0000
0001
0010
0000
,
0100
1000
0000
1000
0001
0000
1001
0000
,
0010
0000
1000
0010
0100
0000
0001
1000
,
0002
0000
2003
0000
,
3001
0000
0010
0100
1000
0000
0100
0010
,
0200
0000
0020
0330
,
1001
0000
0010
0100
0001
0000
1000
0001
,
1000
0010
0100
0001
,
1001
0000
0010
0100
1000
0000
0100
0010
,
0001
1000
0100
1000
,
2002
0000
0000
0000
,
0000
0000
0000
0000
,
3003
0000
0000
0000
,
0000
0000
0000
0000
,
0010
0000
0010
0100
0001
0000
2000
0000
,
3001
0000
0000
0000
,
0010
0000
0010
0100
0001
0000
2000
0000
,
3001
0010
0200
0300
,
0010
0000
0100
0010
0001
0000
2000
0000
,
3100
0000
0000
0000
,
0210
0301
1000
0001
,
0010
0100
1000
0100
0010
0000
0002
0000
,
1003
0010
0110
0002
,
1003
0010
0100
0210
,
0301
0010
0110
1000
,
0001
0010
0100
0120
,
1030
0010
0110
0002
,
1003
0010
0110
0002
,
0013
0110
1000
1001
,
0001
0100
0010
1000
,
2002
0000
0000
0000
,
0000
0000
0000
3003
,
1000
1001
0001
1001
,
0010
0000
0010
0100
0000
0100
0001
0000
0001
1000
0000
1000
,
0020
0000
0000
0030
,
0220
0000
0000
0330
,
1000
0100
0010
0000
0001
0010
0100
0000
,
0010
0001
1000
0010
,
0100
0001
1000
0000
0001
1000
0100
0000
,
1000
0000
0001
0000
0100
0000
0010
1000
,
0100
1000
0001
0100
,
0010
1000
0001
1000
,
0001
0010
0100
1000
,
2001
0010
0100
3001
,
0001
1000
0100
0000
1000
0001
0100
0000
,
0001
1000
0010
0100
,
0010
1000
0100
0000
0010
0001
0100
0001
,
1000
0001
0010
0100
,
1000
0100
0010
0001
0010
0100
1000
0100
,
0010
0001
0010
0100
1000
0100
0010
0001
,
1000
0001
0100
0010
,
1001
0010
0100
0010
,
2001
0010
0001
3100
,
0002
0010
1000
0103
,
2001
0010
0100
3010
,
0002
0013
0100
0110
,
2001
0100
3001
0010
,
0210
0001
1000
0310
,
0120
0000
0130
0000
,
0010
0000
0010
0000
0100
0001
1000
0001
,
0100
0000
0110
0000
0001
0100
0000
0100
,
0001
0000
0110
0000
0001
0010
0000
0010
,
0001
0000
1000
0000
0100
0000
0010
0100
,
1000
0000
0001
0000
1000
0001
0100
0001
,
1000
0001
0000
0001
1000
0000
1001
0000
,
0001
1000
0000
1000
0001
0000
1001
0000
,
0010
0110
0001
1001
,
0001
0000
0001
0010
0000
0010
0100
0000
0100
1000
0000
1000
,
0001
2002
0000
0000
,
0000
0000
0000
0000
,
0000
0000
0000
0000
,
0000
0000
0000
0000
,
0000
0000
3003
0000
;

//---------------dance-single - t7r----------------
#NOTES:
     dance-single:
     t7r:
     Hard:
     14:
     :
0000
0000
0000
0000
,
0000
0000
0000
0000
,
0000
0000
0000
0000
,
0000
0000
0000
0000
,
0000
0000
0000
0000
,
2001
0010
0100
3001
,
1020
0100
0001
1030
,
0012
0000
0000
0000
1003
0100
0010
0000
,
0011
1001
0101
1100
,
2002
0000
0000
0000
,
0000
0000
0000
3003
,
0110
0001
1000
0001
0010
0100
1000
0100
,
0020
0000
0031
1000
0010
0100
0001
1000
,
0010
1000
0001
0010
0100
1000
0100
0010
,
0002
0000
1003
0100
1000
0001
0110
0000
,
1001
0010
0100
0001
1000
0010
1000
0100
,
2000
0000
3100
0010
0001
0100
0010
1000
,
0010
0100
0001
1000
0001
0010
0100
0010
,
0001
1001
0000
0010
0100
0001
0110
0000
,
1001
0100
0010
0001
1000
0100
0010
0001
,
2000
0001
0100
3001
,
0001
0100
0010
1000
0001
0100
0010
1000
,
0002
0010
0200
0303
,
1001
0010
0100
1000
0001
0010
0100
1000
,
0001
0010
1000
0010
0001
0100
1000
0100
,
0001
0010
0100
1000
0020
0000
0130
0001
,
1001
0010
0100
0010
1000
0010
0100
0001
,
1001
0100
0001
1000
0100
0001
1000
0100
,
0001
1000
0100
0001
1000
0100
0001
0100
,
1000
0010
0001
1000
0010
0001
1000
0010
,
1000
0100
0001
0010
0001
0100
1000
0010
,
1001
0100
1000
0001
0100
1000
0001
0100
,
1000
0001
0100
1000
0001
0100
1000
0100
,
0001
0010
1000
0001
0010
1000
0001
0010
,
0100
0110
0000
0100
0001
1000
1001
0000
,
0110
1000
0010
0100
0001
1000
0001
0010
,
0200
0010
0001
1300
,
0010
0100
0001
0010
1000
0010
0001
1000
,
0200
1000
0020
0330
,
1001
0100
0010
0001
1000
0100
0001
0100
,
1001
0010
0100
1000
0001
0010
1000
0010
,
0001
0100
1000
0001
0100
1000
0001
0010
,
0001
0001
0001
1000
1000
0010
0010
0100
,
2002
0000
0000
0000
,
0000
0000
0000
0000
,
3003
0000
0000
0000
,
0000
0000
0000
0000
,
0010
1000
0001
0100
0001
0000
2001
0000
,
3010
0000
0000
0000
,
0010
0100
0001
1000
0001
0000
1002
0000
,
0103
0010
2020
3030
,
0001
0100
0010
1000
0100
0000
0210
0000
,
0301
0000
0000
0000
,
2100
3010
0110
1002
,
0103
0010
1000
0001
0200
0000
0301
0000
,
2001
0000
0000
3010
0000
0000
0110
0000
0001
0200
0000
0000
,
0302
0000
0000
0013
0000
0000
0110
0000
1000
0200
0000
0000
,
2300
0000
0000
3010
0000
0000
0110
0000
0001
0200
0000
0000
,
0302
0000
0000
0013
0000
0000
0110
0000
1000
0200
0000
0000
,
1300
0000
0000
1001
0000
0010
0100
0000
0000
2001
0000
0000
,
3001
0000
0000
1001
0000
0010
0100
0000
0000
1002
0000
0000
,
1003
0100
1000
0001
0100
0001
1000
0010
1000
0001
0010
0001
,
1000
0010
0100
0001
0010
0100
1000
0100
0010
0001
0100
0010
,
2000
0000
0000
0000
,
0000
0000
0000
3000
,
0001
1001
0010
0110
,
0010
0100
0001
1000
0100
0010
0001
0100
0010
1000
0010
0100
,
0220
0000
0000
0330
,
0020
0000
0000
0130
,
1001
0010
1010
0100
1100
0001
1001
0001
,
0101
0010
1000
0100
0010
0001
0100
0010
,
1001
0010
0011
1000
1100
0010
1010
0100
,
0110
0100
0010
1000
0001
0100
0001
1000
,
0001
0000
0010
0100
1000
0100
0010
0001
,
0100
0000
0010
0100
0001
0010
0100
1000
,
0001
0000
0000
0001
1000
0000
0000
1000
0001
0000
0000
0001
0100
0000
0000
0100
,
0010
1000
0001
0100
0010
1000
0001
0100
,
1001
0010
0110
0100
0101
0010
1010
1000
,
1100
0100
1000
0001
0100
0010
1000
0001
,
1001
0010
0011
0001
0101
0010
0110
1000
,
1010
0010
1000
0001
0100
0001
1000
0001
,
1000
1000
0100
0100
0010
0010
0001
0001
,
0100
0100
0010
0010
1000
1000
0001
0001
,
1001
0000
0000
0001
0100
0000
0000
0100
0010
0000
0000
0010
1000
0000
0000
1000
,
0100
0010
0001
1000
0100
0010
0001
0100
,
0210
0001
1000
0310
,
2100
0010
3100
1001
,
0120
1000
0001
0130
,
0201
0000
0301
0000
1010
0010
1000
0000
,
2100
0001
3100
1001
,
0012
1000
0103
0110
,
2002
0003
0002
3003
,
0001
0010
0100
1000
0001
0010
0100
1000
,
1001
0100
2000
0000
3010
0100
0001
1000
,
0001
0100
2000
0000
3100
0001
0010
1000
,
0010
0001
1000
0100
0010
0001
0100
0010
,
0110
0110
0000
0001
1000
0001
1000
0100
,
0011
0011
1000
0001
0100
0010
1000
0001
,
1001
1001
0010
0100
0010
1000
0001
1000
,
1001
0000
0000
0001
0010
0000
0000
0010
0100
0000
0000
0100
1000
0000
0000
1000
,
0100
1000
0100
0010
0001
0010
0001
0100
0001
1000
0010
1000
,
0001
2002
0000
0000
,
0000
0000
0000
0000
,
0000
0000
0000
0000
,
0000
0000
0000
0000
,
0000
0000
3003
0000
;

//---------------dance-single - t7r----------------
#NOTES:
     dance-single:
     t7r:
     Challenge:
     17:
     :
0000
0000
0000
0000
,
0000
0000
0000
0000
,
0000
0000
0000
0000
,
0000
0000
0000
0000
,
0000
0000
0000
0000
,
2001
3020
0230
0301
,
1002
0023
0230
1300
,
0210
0000
0000
0000
0301
1000
0100
0000
,
1001
1010
0110
0101
,
2002
0000
0000
0000
,
0000
0000
0000
3003
,
0110
0001
0010
0100
1000
0100
0010
0001
,
1000
0010
1000
0001
0010
0001
1000
0100
,
1000
0010
0100
0001
1000
0100
1000
0001
,
0100
0001
0100
0010
1000
0010
0110
0001
,
1001
0010
0100
1000
0100
0010
0001
0010
,
0001
1000
0010
1000
0010
0100
0001
1000
,
0010
1000
0001
0100
0001
1000
0010
0100
,
0001
1001
0000
0001
0010
0100
0110
0001
,
1001
0010
0100
0001
1000
0010
1000
0100
,
2000
0000
0000
0000
3010
0000
0000
0001
0100
0001
0000
0000
1001
0000
0000
0001
,
0010
0100
1000
0100
0010
0001
1000
0010
,
0210
0000
0001
0000
0301
0000
0000
1000
0001
0100
0000
0000
1001
0000
0110
0000
,
1001
0010
1000
0001
0100
0001
0010
0100
,
1100
0000
0010
0000
0001
0000
1000
0100
0010
0001
0000
0001
0010
0000
0001
1000
,
0100
1000
0001
0100
1001
0000
0010
0100
,
0001
0000
0010
0100
1000
0000
0100
0000
0010
0000
0001
0000
1000
0000
0001
0000
,
1000
0010
1000
0001
1000
0000
1000
0010
1000
0001
1000
0000
1000
0010
1000
0001
,
1000
0000
1000
0010
1000
0001
1000
0000
0001
0010
0100
1000
0100
0000
0010
0000
,
0001
0010
0001
1000
0001
0000
0001
0010
0001
1000
0001
0000
0001
0010
0001
1000
,
0001
0000
0100
0010
1000
0000
0010
0000
0100
0000
0001
1000
0100
0000
1000
0000
,
1001
0000
0010
0100
0001
0000
0100
0010
0100
0001
0100
0000
0100
0010
0100
0001
,
0100
0000
0100
0010
0100
0001
0100
0000
0001
0000
1000
0001
0100
0000
0001
0000
,
1000
0001
0100
0001
1000
0000
0001
1000
0100
1000
0001
0000
1000
0001
0100
0010
,
1000
1001
0000
0010
0110
1000
1001
0010
,
1001
0000
0010
0100
1000
0000
0100
0010
0001
1000
0001
0000
0100
0010
1000
0001
,
1000
0000
0010
0100
0001
1000
0001
0000
1000
0010
0100
0001
0100
0000
0001
0000
,
0010
0100
1000
0100
0010
0000
0001
0100
0010
0100
0001
0000
1000
0010
0100
0010
,
1000
0000
0010
0000
0100
0000
0001
0000
1000
0001
0000
0000
1001
0000
0110
0000
,
1001
0000
0010
0100
1000
0000
0010
0100
1000
0100
0010
0000
0001
0100
0010
0100
,
0001
0000
1000
0100
0010
0100
1000
0000
0001
0100
0010
1000
0001
0000
1000
0000
,
0001
1000
0100
1000
0001
0000
0010
1000
0001
1000
0010
0000
0100
0001
1000
0001
,
1000
0000
1001
0000
1000
0000
1000
0000
0001
0000
1000
0001
0100
0000
0001
1000
,
0001
2002
0000
0000
,
0000
0000
0000
0000
,
3003
0000
0000
0000
,
0000
0000
0000
0000
,
0110
0001
1000
0100
1000
0000
1002
0000
,
0013
0000
0000
0000
,
0110
1000
0001
0010
0001
0000
1002
0000
,
0103
0010
2020
3030
,
0110
0001
0010
0100
1000
0000
1002
0000
,
0103
0000
0000
0000
,
0120
1030
1100
2001
,
3001
0100
0001
0010
0002
0000
1003
0000
,
1002
0000
0000
0013
0000
0000
0110
0000
1000
0200
0000
0000
,
2300
0000
0000
3010
0000
0000
0110
0000
0001
0200
0000
0000
,
0302
0000
0000
0013
0000
0000
0110
0000
1000
0200
0000
0000
,
1300
0000
0000
0010
0000
0000
0110
0000
0001
0200
0000
0000
,
0301
0000
0000
1001
0000
0001
2000
0000
0000
3001
0000
1000
,
0002
0000
0000
1003
0000
0001
2000
0000
0000
3001
0000
1000
,
0100
0010
0001
0010
0100
1000
0001
0100
0010
1000
0001
1000
,
1001
0010
0100
0001
0010
0100
1000
0010
0100
0001
0100
0010
,
0210
0010
0010
0010
,
0010
0000
0000
0010
0000
0000
0010
0000
0000
0310
0000
0010
,
0100
1001
0010
1001
,
0001
0001
0001
1000
1000
1000
0010
0010
0010
0100
0100
0100
,
2001
0000
0001
0001
0001
0001
3001
0001
,
1001
0000
0010
0100
1000
0000
0100
0000
0010
0000
0001
0000
1000
0000
0001
0000
,
1001
0010
1010
0001
0101
0001
1001
1000
,
1001
0000
0100
0010
1000
0000
0010
0000
0100
0000
0001
1000
0001
0000
1000
0000
,
0011
0001
0101
0100
1010
0010
1100
0100
,
1001
0000
1000
0001
0100
0000
0001
0000
1000
0001
0100
0001
1000
0000
0001
0000
,
0010
0000
0010
0100
1000
0000
0100
0000
0010
0000
0010
0001
0100
0000
0001
0000
,
1000
0000
0001
1000
0100
0000
1000
0000
0001
0000
1000
0001
0100
0000
0001
1000
,
0001
0000
1000
0100
1000
0000
0001
0100
0001
0000
1000
0010
1000
0000
0010
0100
,
0001
0000
0100
0010
1000
0000
0001
0000
1000
0000
0100
0000
0010
0000
0100
0000
,
1001
0010
1010
0010
0011
0100
1100
0001
,
0011
0000
0001
0010
0100
0000
1000
0100
0010
0001
1000
0000
0001
0000
1000
0000
,
1001
0100
0101
0010
1010
0001
0011
1000
,
1001
0000
0010
0001
0100
0000
0001
1000
0100
1000
0001
0000
1000
0000
0001
0000
,
1001
0000
0010
1000
0100
1000
0010
1000
0100
1000
0010
1000
0100
1000
0010
1000
,
0001
0000
0100
0010
0001
0010
0100
0010
0001
0010
0100
0010
0001
0010
0100
0010
,
1000
0000
1000
0001
0100
0000
0001
1000
0100
0000
1000
0001
0010
0000
0001
1000
,
0001
0000
0100
0010
1000
0000
0010
0000
0100
0000
0100
0000
0001
0000
0001
0000
,
1002
0010
0100
1003
,
0210
0001
1000
0310
,
2001
0100
0001
3100
,
1002
0000
0013
0000
0100
0010
1010
0000
,
2100
0000
0000
0000
0001
0000
0000
0000
3100
0000
0000
0000
1001
0000
0001
1000
,
0002
0010
0103
1000
,
2001
0000
0000
0000
3010
0100
0002
0000
,
1003
0000
0010
1000
0001
0000
0100
0000
0001
0000
1000
0000
0001
0000
0010
0000
,
0100
0010
0001
0010
0100
0000
0001
0000
1000
0001
0100
0000
0001
0000
1000
0000
,
0001
0010
0100
0010
0001
0000
1000
0000
0001
1000
0100
0000
1000
0000
0001
1000
,
0010
0000
0100
0010
1000
0000
0010
0100
0001
0000
1000
0100
0010
0000
0001
0010
,
0100
0000
1000
0001
1000
0000
0001
0000
0100
0000
0110
0000
0001
0000
1001
0000
,
1010
1010
0001
0100
0011
0011
0100
1000
,
0110
0000
0110
0000
1000
0000
0001
0000
1001
0000
1001
0000
0100
0000
0010
0100
,
0001
0000
1000
0100
0001
0000
0001
0100
1000
0000
1000
0010
0001
0000
0001
0010
,
1000
0010
0001
1000
0100
0001
1000
0010
0100
0001
0001
1000
,
0001
2002
0000
0000
,
0000
0000
0000
0000
,
0000
0000
0000
0000
,
0000
0000
0000
0000
,
0000
0000
3003
0000
;

//---------------dance-double - t7r----------------
#NOTES:
     dance-double:
     t7r:
     Easy:
     7:
     :
00000000
00000000
00000000
00000000
,
00000000
00000000
00000000
00000000
,
00000000
00000000
00000000
00000000
,
00000000
00000000
00000000
00000000
,
00000000
00000000
00000000
00000000
,
00020000
00000000
00000000
00000000
,
00032000
00000000
00000000
00000000
,
02003000
00000000
00000000
00000000
,
03200000
00000000
00000000
00300000
,
10010000
00000000
00000000
00000000
,
00000000
00000000
00000000
00000000
,
00100000
00100000
00100000
01000000
,
01000000
00010000
00010000
00010000
,
01000000
01000000
01000000
00001000
,
00001000
00100000
00100000
00100000
,
00011000
00010000
00010000
00000100
,
00000100
00010000
00010000
00010000
,
00000010
00000010
00000010
00000100
,
00000110
00000000
00000001
00001000
,
00001001
00000001
00000001
00000010
,
00000020
00000000
00000130
00000000
,
00000010
00001000
00001000
00000100
,
00000100
00000000
00020000
00000000
,
00031000
00010000
00010000
00001000
,
00011000
00100000
00100000
01000000
,
01100000
00000000
00101000
00000000
,
20020000
00000000
00000000
30030000
,
10000000
01000000
00010000
01000000
,
10000000
01000000
00010000
01000000
,
10000000
01000000
00010000
01000000
,
10000000
00000000
00010000
00000000
,
00011000
00000100
00000001
00000100
,
00001000
00000100
00000001
00000100
,
00001000
00000100
00000001
00000100
,
00000110
00000000
00001010
00000000
,
00011000
00001000
00001000
00100000
,
00100000
00000000
00011000
00000000
,
01000000
00010000
00010000
01000000
,
00100000
00000000
01100000
00000000
,
00011000
00001000
00001000
00000100
,
00001001
00000001
00000001
00001000
,
00010100
00000000
00101000
00000000
,
01100000
00000000
01010000
00000000
,
00022000
00000000
00000000
00000000
,
00000000
00000000
00000000
00000000
,
00033000
00000000
00000000
00000000
,
00000000
00000000
00000000
00000000
,
00000100
00000000
00000000
00001000
,
00001000
00000000
00000000
00000000
,
00100000
00000000
00000000
00001000
,
00001000
00000000
00010000
00000000
,
00001000
00000000
00000000
01000000
,
01000000
00000000
00000000
00000000
,
00100000
00000000
01000000
00000000
,
00010000
00000000
01000000
00000000
,
01010000
00000000
00000000
00000000
,
00101000
00000000
00000000
00000000
,
00011000
00000000
00000000
00000000
,
00001100
00000000
00000000
00000000
,
00001010
00000000
00011000
00000000
,
00001010
00000000
00011000
00000000
,
00110000
00000000
00011000
00000000
,
00110000
00000000
01100000
00000000
,
20020000
00000000
00000000
00000000
,
00000000
00000000
00000000
30030000
,
00100000
01100000
01000000
01100000
,
00010000
00000000
00001000
00000000
,
00020200
00000000
00000000
00030300
,
00202000
00000000
00000000
00303000
,
10000000
00100000
01000000
00010000
,
01010000
00000000
10000000
00000000
,
00001000
00100000
00010000
01000000
,
00010000
00000000
10010000
00000000
,
00001000
01000000
01000000
00001000
,
00100000
00001000
00010000
00001000
,
00011000
00000000
00010100
00000000
,
00000110
00000000
00001001
00000000
,
00000001
00000100
00001000
00000100
,
00000001
00000000
00001000
00000000
,
00000001
00000010
00001000
00000010
,
00000001
00000000
00001000
00000000
,
00010100
00000000
00101000
00000000
,
00010100
00000000
00011000
00000000
,
00100000
00100000
00001000
00001000
,
00011000
00000000
01010000
00000000
,
00021000
00000000
00000000
00000000
,
00030200
00000000
00000000
00000000
,
00020300
00000000
00000000
00000000
,
00032000
00000000
00203000
00000000
,
00302000
00000000
00000000
00000000
,
02003000
00000000
00000000
00000000
,
00200000
00000000
00000000
03300000
,
10010000
00000000
00000000
00000000
,
10000000
01000000
00010000
01000000
,
10000000
00100000
00010000
00100000
,
01100000
00000000
00001000
01000000
,
00001000
00000000
00100000
00001000
,
00010000
00000000
00011000
00000000
,
00001100
00000000
00011000
00000000
,
00000010
00000100
00000100
00000100
,
00000001
00001000
00000100
00010000
,
00001000
00022000
00000000
00000000
,
00000000
00000000
00000000
00000000
,
00000000
00000000
00000000
00000000
,
00000000
00000000
00000000
00000000
,
00000000
00000000
00033000
00000000
;

//---------------dance-double - t7r----------------
#NOTES:
     dance-double:
     t7r:
     Medium:
     11:
     :
00000000
00000000
00000000
00000000
,
00000000
00000000
00000000
00000000
,
00000000
00000000
00000000
00000000
,
00000000
00000000
00000000
00000000
,
00000000
00000000
00000000
00000000
,
00012000
01000000
00010000
00103000
,
02100000
00001000
00100000
03010000
,
21000000
00000000
00010000
31000000
,
00010000
01000000
01100000
00110000
,
00022000
00000000
00000000
00000000
,
00000000
00000000
00000000
00033000
,
00100000
00000000
00100000
00010000
01000000
00000000
00001000
01000000
,
00002000
00100000
00010000
01003000
,
00001000
00000000
00100000
00001000
00010000
00000000
00001000
00100000
,
02000000
00100000
00010000
13000000
,
10010000
00000000
01000000
00100000
00010000
00000000
00001000
00000100
,
00000020
00000001
00000100
00000031
,
00000001
00000000
00000010
00000100
00001000
00000000
00010000
00100000
,
01000000
10000000
00000000
10000000
01000000
00000000
10010000
00000000
,
00100000
00000000
00100000
01000000
00010000
00000000
00010000
10000000
,
02000000
00000000
03010000
00000000
,
00110000
00000000
00001000
01000000
00100000
00000000
01000000
00001000
,
00200000
00000000
00301000
00000000
,
01001000
00000000
00100000
01000000
00010000
00000000
00010000
01000000
,
00001000
00000000
00100000
01000000
10000000
00000000
01000000
00000000
,
01100000
00000000
10010000
00000000
,
00001000
00010000
00000000
00010000
00001000
00000000
00011000
00000000
,
00001000
00000000
00001000
00010000
00000000
00001000
00010000
00000000
,
00001000
00100000
00000000
00100000
00001000
00000000
01000000
00000000
,
00100000
00000000
00100000
01000000
00000000
01000000
00010000
00000000
,
10000000
01000000
00100000
00011000
,
00001000
00000000
00001000
00000100
00000000
00000010
00000100
00000000
,
00000001
00000100
00000000
00000010
00000100
00000000
00001001
00000000
,
00000001
00000000
00000010
00000100
00000000
00000010
00000100
00001000
,
00000100
00000100
00000000
00000000
00010000
00000000
00011000
00000000
,
00001000
00000000
00001000
01000000
00100000
00000000
00100000
01000000
,
00002000
00100000
01000000
00013000
,
10000000
00000000
10000000
01000000
00100000
00000000
01000000
10000000
,
02000000
00100000
00010000
13000000
,
10010000
00000000
00010000
01000000
00100000
00000000
00100000
01000000
,
00001000
00100000
01000000
00010000
,
11000000
00000000
00010000
01000000
00010000
00000000
00000100
00001000
,
00010000
00100000
00010000
00011000
,
00020200
00000000
00000000
00000000
,
00000000
00000000
00000000
00000000
,
00030300
00000000
00000000
00000000
,
00000000
00000000
00000000
00000000
,
00000100
00000000
00000100
00010000
00000100
00000000
00020000
00000000
,
00031000
00000000
00000000
00000000
,
00000100
00000000
00000100
00010000
00000100
00000000
00020000
00000000
,
00031000
00100000
00202000
00303000
,
00100000
00000000
00100000
01000000
10000000
00000000
00020000
00000000
,
10030000
00000000
00000000
00000000
,
00020000
01030000
00001000
00010000
,
00001000
00010000
00100000
01000000
00020000
00000000
00130000
00000000
,
00011000
00001000
00010000
00002000
,
00013000
00011000
00010000
00002000
,
00013000
00000100
00010100
00002000
,
00013000
00000100
00010100
00002000
,
00013000
00010100
00010000
00010010
,
00010000
00010100
00010000
00110000
,
01100000
10010000
01010000
00011000
,
00000010
00000100
00010000
00001000
,
00022000
00000000
00000000
00000000
,
00000000
00000000
00000000
00033000
,
00001000
00001100
00010000
00011000
,
00100000
00000000
00001000
00000100
00000000
00000100
00001000
00000000
00001000
00100000
00000000
00100000
,
00002000
00000000
00000000
00003000
,
02200000
00000000
00000000
03300000
,
10000000
01000000
00100000
00010000
,
10000000
01000000
00100000
00010000
00100000
00000000
01000000
00000000
,
10000000
00100000
01000000
00010000
,
10000000
00100000
01000000
00010000
01000000
00000000
00011000
00000000
,
00000010
00000000
00000010
00000100
00000001
00000000
00000001
00000100
,
00000010
00000000
00000010
00001000
00000100
00000000
00011000
00000000
,
00001000
00100000
00001000
00101000
,
01000000
00100000
01000000
10010000
,
10000000
00000000
10000000
01000000
00010000
00000000
00010000
01000000
,
10000000
00100000
00010000
00011000
,
00001000
00000000
00001000
00000100
00000001
00000000
00001000
00000010
,
00000001
00000010
00000100
00000110
,
00001001
00000000
00000001
00001000
00000100
00000000
00000100
00010000
,
00001000
00000000
00001000
00100000
00010000
00000000
10010000
00000000
,
01100000
10010000
10100000
01010000
,
10000000
01000000
00100000
00010000
00001000
00000100
00000010
00000001
,
00000220
00000000
00000000
00000330
,
00000022
00000000
00000033
00000001
,
00002002
00000000
00000000
00003003
,
00002010
00000000
00003100
00001000
,
00022000
00000000
00033000
00100000
,
00022000
00000000
00033000
00100000
,
02200000
03300000
20020000
30030000
,
10000000
01000000
00100000
00010000
00001000
00000100
00000010
00000001
,
00000010
00000000
00000110
00000000
00000010
00000001
00000000
00000001
,
00000010
00000000
00000110
00000000
00000010
00001000
00000000
00001000
,
00010000
00010010
00000100
00010100
,
00010000
00011000
00000000
00000000
01000000
00001000
00100000
00001000
,
01000000
01000000
00000000
01000000
00100000
00000000
01100000
00000000
,
00001000
00100000
00000000
00100000
00001000
00000000
01001000
00000000
,
00010000
00110000
00001000
01001000
,
00100000
00000000
00100000
01000000
00000000
01000000
00001000
00000000
00001000
00100000
00000000
00100000
,
10000000
02200000
00000000
00000000
,
00000000
00000000
00000000
00000000
,
00000000
00000000
00000000
00000000
,
00000000
00000000
00000000
00000000
,
00000000
00000000
03300000
00000000
;

//---------------dance-double - t7r----------------
#NOTES:
     dance-double:
     t7r:
     Hard:
     14:
     :
00000000
00000000
00000000
00000000
,
00000000
00000000
00000000
00000000
,
00000000
00000000
00000000
00000000
,
00000000
00000000
00000000
00000000
,
00000000
00000000
00000000
00000000
,
00200000
01000000
00010000
00301000
,
00000020
00000100
00001000
00010030
,
00000200
00000000
00000000
00000000
00010300
00001000
00010000
00000000
,
00010100
00011000
01001000
01010000
,
00200000
00000000
00000000
00000000
,
00000000
00000000
00000000
00300000
,
01000000
10000000
01000000
00010000
00001000
00000000
00000100
00000010
,
00000001
00000000
00000100
00000010
00001000
00000010
00000100
00000001
,
00000010
00000001
00000010
00001000
00010000
00000000
01000000
00100000
,
00010000
00000000
01000000
00100000
10000000
00100000
01000000
00010000
,
10000000
01000000
00100000
00010000
00001000
00000000
00000010
00000100
,
00000001
00000000
00000010
00000001
00000010
00001000
00000010
00000100
,
00000010
00000001
00000100
00001000
00010000
00000000
01000000
00100000
,
00010000
10010000
00000000
10000000
01000000
00100000
00010000
10000000
,
00010000
01000000
10000000
01000000
00200000
00000000
01300000
00001000
,
00020000
00000010
00000200
00030300
,
00001000
00000100
00000010
00000001
00000200
00000000
00000310
00001000
,
00000200
00010000
00002000
00003300
,
00000001
00000100
00001000
00000100
00000020
00000000
00001030
00010000
,
01000000
00100000
10000000
01000000
00010000
00001000
01000000
00001000
,
00010000
00000100
00000001
00000100
00000020
00000000
00000031
00001000
,
00000001
00000100
00000010
00001000
00010000
01000000
00100000
10000000
,
00010000
01000000
10000000
00010000
01000000
10000000
00010000
01000000
,
10000000
00000000
01000000
00010000
00001000
00000100
00000010
00000001
,
00001000
00000100
00000001
00001000
00000100
00000001
00001000
00000000
,
00000001
00000010
00000100
00001000
00010000
01000000
00100000
10000000
,
00010000
00100000
10000000
00010000
00100000
10000000
00010000
00100000
,
10000000
00000000
00100000
00010000
00001000
00000010
00000100
00000001
,
00001000
00000010
00000001
00001000
00000010
00000001
00001000
00000000
,
00000001
00000100
00000010
00001000
00010000
00100000
01000000
10000000
,
00100000
00000000
01000000
00010000
01000000
00000000
00010000
01000000
00010000
00000000
10000000
00000000
00000000
00000000
00000000
00000000
,
02000000
00000000
03100000
00000000
,
00001000
00000000
01000000
00001000
01000000
00000000
00001000
01000000
00001000
00000000
00010000
00000000
00000000
00000000
00000000
00000000
,
00000020
00000000
00000130
00000000
,
00000001
00000000
00000010
00000001
00000010
00000000
00000100
00001000
00000100
00000000
00001000
00000000
00000000
00000000
00000000
00000000
,
00010000
01000000
10000000
01000000
00010000
00100000
10000000
00100000
,
00010000
00000000
01000000
00010000
01000000
00000000
00100000
10000000
00100000
00000000
10000000
00000000
00000000
00000000
00000000
00000000
,
00010000
00000000
00100000
00000000
01000000
00000000
10000000
00000000
01000000
00000000
00100000
00001000
00010000
00000000
00000010
00000000
,
00000200
00000000
00000000
00000000
,
00000000
00000000
00000000
00000000
,
00000300
00000000
00000000
00000000
,
00000000
00000000
00000000
00000000
,
01000000
00000000
00010000
00100000
00010000
00000000
20000000
00000000
,
30010000
00000000
00000000
00000000
,
01000000
00000000
00001000
00100000
00001000
00000000
00020000
00000000
,
00030100
00001000
00000020
00000030
,
00000100
00000000
00000001
00000010
00000001
00000000
00002000
00000000
,
00003001
00000000
00000000
00000000
,
00000200
00000301
00000010
00001000
,
00010000
01000000
10000000
01000000
00200000
00000000
01300000
00000000
,
20010000
00000000
00000000
00100000
00000000
00000000
31000000
00000000
00100000
00001000
00000000
00000000
,
00021000
00000000
00000000
00000100
00000000
00000000
00031000
00000000
00000010
00000100
00000000
00000000
,
00001002
00000000
00000000
00000010
00000000
00000000
00000103
00000000
00000010
00010000
00000000
00000000
,
00012000
00000000
00000000
01000000
00000000
00000000
00013000
00000000
00100000
01000000
00000000
00000000
,
11000000
00000000
01000000
00100000
00000000
00000000
00011000
00000000
00000000
00010100
00000000
00000000
,
00001100
00000000
00000100
00000010
00000000
00000000
00000110
00000000
00000000
00001001
00000000
00000000
,
00000001
00000100
00000010
00001000
00000000
00001000
00000001
00000100
00000010
00001000
00000000
00000000
,
00010000
00100000
01000000
10000000
00000000
10000000
00010000
00100000
01000000
10000000
00000000
00000000
,
02100000
00100000
00100000
00100000
,
00100000
00000000
00000000
00100000
00000000
00000000
00100000
00000000
00000000
03100000
00000000
00100000
,
01000000
01001000
00001000
00011000
,
00001000
00000100
00000001
00000100
00000000
00000100
00000010
00001000
00010000
00100000
01000000
10000000
,
00020000
00000000
00000000
00030000
,
20020000
00000000
00000000
30030000
,
10010000
01000000
11000000
00000000
10010000
00100000
00110000
00000000
,
00001000
00000000
00010000
00000100
00010000
00000000
00000000
00000000
00001000
00000000
00000100
00000000
00000010
00000000
00001000
00000000
,
00001001
00000010
00000011
00000000
00001001
00000100
00001100
00000000
,
00000001
00000000
00000100
00000001
00000100
00000000
00000000
00000000
00000010
00000000
00001000
00000000
00010000
00000000
00100000
00000000
,
00010000
01000000
10000000
01000000
00010000
00001000
00000001
00000100
,
00000001
00000010
00001000
00000010
00000001
00000100
00001000
00010000
,
00100000
00000000
00000000
00100000
00010000
00000000
00000000
00010000
01000000
00000000
00000000
01000000
00100000
00000000
00000000
00100000
,
10000000
01000000
00010000
00001000
00000010
00000100
00001000
00000001
,
00001001
00000010
00000011
00000000
00001001
00000100
00001100
00000000
,
00010000
00000000
00001000
00100000
00001000
00000000
00000000
00000000
00010000
00000000
00100000
00000000
01000000
00000000
00010000
00000000
,
10010000
01000000
11000000
00000000
10010000
00100000
00110000
00000000
,
10000000
00000000
00100000
10000000
00100000
00000000
00000000
00000000
01000000
00000000
00010000
00000000
00001000
00000000
00000100
00000000
,
00000001
00000100
00001000
00010000
00010000
00100000
00010000
10000000
,
10000000
01000000
00010000
00001000
00001000
00000100
00000001
00000100
,
00000010
00000000
00000000
00000010
00001000
00000000
00000000
00001000
00000100
00000000
00000000
00000100
00000010
00000000
00000000
00000010
,
00000001
00000010
00001000
00000010
00000100
00001000
00010000
01000000
,
02100000
00010000
00100000
13000000
,
00020000
00100000
01030000
10010000
,
21000000
00010000
00100000
30010000
,
02100000
00000000
03001000
00000000
00100000
00010000
00001000
00000000
,
00000210
00000001
00000310
00000001
,
00000120
00001000
00000130
00011000
,
02001000
00100000
00020000
03030000
,
10000000
01000000
00100000
00010000
00001000
00001000
00000100
00000100
,
00000010
00000001
00000200
00000000
00001300
00200000
00000000
00310000
,
01000000
10000000
02000000
00000000
03100000
20000000
00000000
31000000
,
00010000
00001000
00000100
00000001
00000100
00001000
00000100
00000010
,
00000001
00000001
00002000
00000000
00003001
00000100
00001000
00000100
,
00000001
00000001
00000020
00000000
00000130
00001000
00010000
01000000
,
00010000
00010000
20000000
00000000
31000000
00100000
00010000
00001000
,
00011000
00000000
00000000
00010000
00001000
00000000
00000000
00001000
01000000
00000000
00000000
01000000
00100000
00000000
00000000
00100000
,
10000000
01000000
00100000
00010000
00001000
00000100
00000001
00000100
00000010
00000001
00000100
00000010
,
00010000
00022000
00000000
00000000
,
00000000
00000000
00000000
00000000
,
00000000
00000000
00000000
00000000
,
00000000
00000000
00000000
00000000
,
00000000
00033000
00000000
00000000
;

//---------------dance-double - t7r----------------
#NOTES:
     dance-double:
     t7r:
     Challenge:
     17:
     :
00000000
00000000
00000000
00000000
,
00000000
00000000
00000000
00000000
,
00000000
00000000
00000000
00000000
,
00000000
00000000
00000000
00000000
,
00000000
00000000
00000000
00000000
,
00012000
02003000
03200000
00310000
,
00201000
00000000
00302000
00000000
01003000
00001000
00010000
00000000
,
00021000
00000000
00000000
00000000
00030100
00010000
00000100
00000000
,
00011000
00101000
00010100
00000110
,
00022000
00000000
00000000
00000000
,
00000000
00000000
00000000
00033000
,
00101000
00001000
01000000
00100000
10010000
01000000
00100000
10000000
,
00120000
00000000
01030000
00100000
10010000
01000000
00001000
00010000
,
00011000
00000100
00010000
00000010
00000110
00000100
00010000
00000010
,
00020010
00000000
00030010
00010000
00000100
00010000
00011000
00000000
,
00101000
00001000
01000000
00100000
01100000
01000000
00010000
10000000
,
02001000
00000000
03010000
01000000
01100000
00100000
10000000
00010000
,
00011000
00100000
00001000
01000000
01001000
00100000
01000000
00001000
,
00010000
00011000
00000000
00000100
00000110
00000001
00000100
00000010
,
00001001
00000100
00000010
00001000
00000100
00010000
00000010
00000100
,
00001010
00000000
00000001
00000000
00000100
00000000
00000001
00001000
00000001
00000100
00000000
00000100
00000010
00000000
00001000
00000100
,
00000010
00000100
00010000
00000010
00000100
00010000
00000100
00000010
,
00000100
00000000
00011000
00000000
00011000
00000000
00001000
01000000
00001000
00100000
00000000
00100000
00001000
00000000
00011000
00000000
,
00010100
00001000
00010000
00100000
01000000
10000000
01000000
00100000
,
10010000
01000000
00100000
00010000
00001000
00000100
00000010
00000001
,
00001001
00000010
00000100
00000010
00001001
00000100
00000110
00010100
,
00011000
00011000
00000000
00001000
01000000
00100000
10010000
00100000
,
10000000
01000000
00100000
00010000
10000000
00000000
10000000
01000000
00100000
00010000
10000000
00000000
10000000
01000000
00100000
00010000
,
10000000
00000000
10000000
01000000
00100000
00010000
10000000
00000000
00010000
01000000
00100000
01000000
00001000
00000000
01000000
00000000
,
00001000
00000100
00010000
00000100
00001000
00000000
00001000
00000100
00010000
00000100
00001000
00000000
00001000
00000100
00010000
00000100
,
00001000
00000000
00100000
00001000
00100000
00000000
00001000
00000000
01000000
00000000
00001000
00010000
00001000
00000000
01000000
00000000
,
00001000
00100000
00001000
01000000
00001000
00000000
00001000
00100000
00001000
01000000
00001000
00000000
00001000
00100000
00001000
01000000
,
00001000
00000000
00001000
00100000
00001000
01000000
00001000
00000000
00000100
00000000
00000010
00000100
00000001
00000000
00000100
00000000
,
00000001
00000010
00000100
00001000
00000001
00000000
00000001
00000010
00000100
00001000
00000001
00000000
00000001
00000010
00000100
00001000
,
00000001
00000000
00001001
00000000
00000010
00000000
00010000
00000000
00001000
00000000
00100000
00001000
01000000
00000000
00001000
00000000
,
00001000
01000000
00010000
00100000
00010000
00000000
00001000
01000000
00010000
00100000
00010000
00000000
00001000
01000000
00010000
00100000
,
00010000
00000000
00001000
01000000
00010000
00100000
00010000
00000000
01000000
00000000
00100000
10000000
01000000
00000000
10000000
00000000
,
01000000
00100000
00010000
00001000
01000000
00000000
01000000
00100000
00010000
00001000
01000000
00000000
01000000
00100000
00010000
00001000
,
01000000
00000000
00100000
01000000
00010000
00000000
10000000
00000000
00010000
00000000
01000000
00100000
00010000
00000000
01010000
00000000
,
00011000
00000000
00000100
00000010
00000001
00000000
00001000
00000100
00000010
00000001
00001000
00000000
00001000
00000100
00000010
00000001
,
00001000
00000000
00001000
00000100
00000010
00000001
00001000
00000000
00000010
00000000
00000010
00000100
00000001
00000000
00001000
00000000
,
00000001
00000010
00000100
00001000
00000001
00000000
00000001
00000010
00000100
00001000
00000001
00000000
00000001
00000010
00000100
00000010
,
00000001
00000000
00001001
00000000
00000100
00000000
00010000
00000000
00001000
00000000
00100000
00001000
01000000
00000000
00100000
01000000
,
00022000
00000000
00000000
00000000
,
00000000
00000000
00000000
00000000
,
00033000
00000000
00000000
00000000
,
00000000
00000000
00000000
00000000
,
00010000
00000010
00000100
00000010
00010000
00000000
00010200
00000000
,
00020300
00000000
00000000
00030000
,
00010000
00000010
00000100
00000010
00010000
00000000
00010200
00000000
,
00010300
00000100
00000220
00000330
,
00010000
00000010
00000100
00000010
00010000
00000000
02100000
00000000
,
03020000
00000000
00000000
00030000
,
21000000
30100000
01100000
01020000
,
00130000
00001000
00100000
00001000
02000000
00000000
03100000
00000000
,
10010000
00000000
00000000
01100000
00000000
00000000
01010000
00000000
00001000
00200000
00000000
00000000
,
10300000
00000000
00000000
01100000
00000000
00000000
01010000
00000000
00001000
00200000
00000000
00000000
,
00301000
00000000
00000000
00000110
00000000
00000000
00001010
00000000
00000001
00000020
00000000
00000000
,
00001030
00000000
00000000
00000110
00000000
00000000
00001010
00000000
00000001
00000020
00000000
00000000
,
00000031
00000000
00000000
00001001
00000000
00001000
00000010
00000000
00000100
00001020
00000000
00010030
,
00001000
00000000
00000000
00011000
00000000
00010000
00100000
00000000
01000000
01200000
00000000
01300000
,
10000000
00010000
10000000
01000000
00100000
01000000
00100000
01000000
00100000
00010000
10000000
00010000
,
00100000
00001000
00100000
00001000
00010000
00001000
00100000
00001000
01000000
00001000
00010000
00001000
,
00022000
00000000
00000000
00000000
,
00000000
00000000
00000000
00033000
,
00000110
00011000
01100000
00011000
,
00100000
01000000
10000000
01000000
00100000
00010000
00001000
00000100
00000010
00000001
00000100
00000010
,
00022000
00000000
00000000
00033000
,
00202000
00000000
00303000
00001100
,
00001000
00000000
00100000
00001000
00100000
00000000
00001000
00000000
01000000
00100000
01000000
00000000
00001000
00000000
00010000
00100000
,
01000000
00000000
00010000
10000000
01000000
00000000
10000000
00000000
00010000
10000000
01000000
10000000
00010000
00000000
10000000
00000000
,
00100000
00000000
01000000
00001000
00010000
00000000
00001000
00000000
00100000
00001000
01000000
00000000
00001000
00000000
00010000
00000100
,
00001000
00000000
00000100
00000010
00000100
00000000
00001000
00000000
00000001
00000000
00000100
00000010
00000100
00000000
00000001
00000000
,
00001001
00000000
00000010
00000100
00000001
00000000
00001000
00000000
00000001
00000000
00000010
00000100
00001000
00000000
00010000
00000000
,
00001000
00000000
00100000
00001000
01000000
00000000
00100000
00000000
01000000
00000000
00001000
00010000
00001000
00000000
00100000
00001000
,
01000000
00000000
00100000
10000000
01000000
00000000
00100000
01000000
00010000
00000000
10000000
00010000
01000000
00000000
00010000
10000000
,
00010000
01000000
00010000
00001000
01000000
00001000
00010000
00000010
,
00000110
00000000
00000001
00000010
00000100
00000000
00001000
00000000
00000001
00000010
00000100
00000000
00001000
00000000
00000001
00000010
,
00000001
00000000
00001000
00000010
00000100
00000000
00000010
00000000
00010000
00000100
00010000
00001000
00010000
00000000
00000010
00000000
,
00000100
00000000
00000010
00010000
00000100
00000000
00010000
00000000
00001000
00100000
00001000
00000000
01000000
00000000
00100000
01000000
,
00001000
00000000
00100000
00001000
01000000
00000000
00100000
01000000
00001000
00100000
00001000
01000000
00001000
00000000
01000000
00000000
,
00100000
00000000
01000000
00010000
01000000
00000000
00010000
00000000
10000000
00000000
00010000
00100000
01000000
00000000
00100000
00000000
,
00011000
00000000
00000100
00010000
00001000
00000000
00010000
00000000
00001000
00000000
00010000
00000100
00001000
00000000
00000010
00000100
,
00000001
00000000
00000001
00000100
00000010
00000000
00000010
00010000
00000100
00000000
00000100
00010000
00000010
00000000
00000010
00000100
,
00000001
00000010
00000100
00001000
00010000
01100000
10010000
01100000
,
20010000
01000000
00100000
30010000
,
02100000
00001000
03100000
01100000
,
00012000
01000000
00100000
10003000
,
00210000
00000000
00301000
00000000
01000000
00001000
00011000
00000000
,
00201000
00000000
00000000
00000000
00001000
00000000
00000000
00000000
01000000
00000000
00000000
00000000
00301000
00000000
00010000
00001000
,
00021000
00000100
00000010
00030100
,
00002010
00000000
00000000
00000000
00003001
00000100
00000001
00000000
,
00001001
00000010
00000100
00001000
00010000
00100000
01000000
10000000
,
00100000
01000000
00010000
01000000
00100000
00000000
01000000
00010000
10000000
00000000
00010000
00000000
10000000
00010000
01000000
00000000
,
00001000
01000000
00100000
01000000
00001000
00000000
00100000
00001000
01000000
00000000
00001000
00000000
00010000
00000100
00001000
00000000
,
00000001
00000000
00000100
00000010
00001000
00000000
00000001
00000000
00000100
00000010
00001000
00000000
00000001
00000000
00000010
00000100
,
00001000
00000000
00010000
00001000
01000000
00000000
00001000
00000000
00011000
00000000
00101000
00000000
00011000
00000000
01001000
00000000
,
01100000
00000000
01100000
00000000
00010000
10000000
01000000
00000000
01100000
00000000
01100000
00000000
00001000
00010000
00001000
00000000
,
00000110
00000000
00000110
00000000
00000001
00000100
00001000
00000000
00000110
00000000
00000110
00000000
00000001
00000010
00001000
00000000
,
00000011
00000000
00000001
00000010
00000100
00000000
00001000
00000100
00010000
00000000
00001000
01000000
00100000
00000000
01000000
00010000
,
01000000
01000000
01000000
00100000
00100000
00100000
10000000
01000000
00100000
00010000
00001000
00000100
,
00000010
00000220
00000000
00000000
,
00000000
00000000
00000000
00000000
,
00000000
00000000
00000000
00000000
,
00000000
00000000
00000000
00000000
,
00000000
00000000
00000330
00000000
;
