#TITLE:ATOMS;
#ARTIST:Rotten Blotch;
#BANNER:ATOMS.png;
#BACKGROUND:ATOMS-bg.png;
#JACKET:ATOMS-jacket.png;
#CDTITLE:./CDTITLES/GUITAR FREAKS & DRUMMANIA.PNG;
#MUSIC:ATOMS.ogg;
#SAMPLESTART:52.235;
#SAMPLELENGTH:15;
#BPMS:0=170;

//---------------dance-single - t7r----------------
#NOTES:
     dance-single:
     t7r:
     Beginner:
     2:
     :
0000
0000
0000
0000
,
0000
0000
0000
0000
,
0000
0000
0000
0000
,
0000
0000
0000
0000
,
0000
0000
0000
0000
,
0010
0000
0000
0000
,
0000
0000
0000
0000
,
0100
0000
0000
0000
,
0001
0000
1000
0000
,
0001
0000
0000
0000
,
1000
0000
0000
0000
,
0100
0000
0000
0000
,
1000
0000
0100
0000
,
0010
0000
0000
0000
,
0001
0000
0000
0000
,
0010
0000
0000
0000
,
0100
0000
0010
0000
,
1000
0000
0000
0000
,
0000
0000
0000
0000
,
0001
0000
0000
0000
,
0000
0000
0000
0000
,
0100
0000
0010
0000
,
1000
0000
0000
0000
,
0010
0000
0100
0000
,
0001
0000
0000
0000
,
1000
0000
0000
0000
,
0000
0000
0000
0000
,
0100
0000
0000
0000
,
0000
0000
0000
0000
,
0010
0000
0001
0000
,
0100
0000
0000
0000
,
0010
0000
1000
0000
,
0100
0000
0000
0000
,
1000
0000
0000
0000
,
0001
0000
0000
0000
,
1000
0000
0000
0000
,
0001
0000
0000
0000
,
1001
0000
0000
0000
,
0000
0000
0000
0000
,
0010
0000
0000
0000
,
0000
0000
0000
0000
,
0100
0000
0000
0000
,
0000
0000
0000
0000
,
0001
0000
0000
0000
,
1000
0000
0100
0000
,
1000
0000
0000
0000
,
0100
0000
0010
0000
,
0001
0000
0000
0000
,
0001
0000
0100
0000
,
0010
0000
0000
0000
,
0000
0000
0000
0000
,
1001
0000
0000
0000
,
0000
0000
0000
0000
,
0100
0000
0000
0000
,
0000
0000
0000
0000
,
0100
0000
0000
0000
,
0100
0000
0100
0000
,
0010
0000
0000
0000
,
0000
0000
0000
0000
,
0010
0000
0000
0000
,
0001
0000
1000
0000
,
0001
0000
0000
0000
,
0000
0000
0000
0000
,
1000
0000
0000
0000
,
0001
0001
0000
0000
,
1000
0000
0000
0000
,
0010
0000
0000
0000
,
0100
0000
0001
0000
,
1000
0000
0001
0000
,
0100
0000
0000
0000
;

//---------------dance-single - t7r----------------
#NOTES:
     dance-single:
     t7r:
     Easy:
     5:
     :
0000
0000
0000
0000
,
0000
0000
0000
0000
,
0000
0000
0000
0000
,
0000
0000
0000
0000
,
0000
0000
0000
0000
,
0200
0000
0000
0000
,
0000
0000
0000
0300
,
0020
0000
0000
0030
,
0002
0003
2000
3000
,
2002
0000
0000
3003
,
0020
0000
0000
0030
,
0200
0000
0000
0000
,
0020
0000
0000
0330
,
2002
0000
0000
3003
,
0200
0000
0000
0300
,
0002
0000
0000
0000
,
2000
0000
0000
3003
,
0001
0000
0001
0000
,
1000
0000
1000
0000
,
0010
0000
0010
0000
,
0100
0000
0010
0000
,
1001
0000
0000
0000
,
0110
0000
0000
0000
,
1001
0000
0000
0000
,
0110
0000
1000
0000
,
0001
0000
0001
0000
,
0100
0000
0100
0000
,
0010
0000
0010
0000
,
1000
0000
1000
0000
,
0110
0000
0000
0000
,
1001
0000
0000
0000
,
0110
0000
0000
0000
,
1001
0000
0000
0000
,
0000
1000
0000
1000
,
0000
0001
0000
0001
,
0000
0100
0000
0100
,
0100
0000
0010
0000
,
2000
0000
0000
0000
,
0000
0000
0000
3000
,
0002
0000
0000
0000
,
0000
0000
0000
0003
,
0220
0000
0000
0000
,
0000
0000
0000
0330
,
2002
0000
0000
3003
,
2000
3000
0002
0003
,
1000
1000
1000
0000
,
0001
0001
0001
0000
,
0100
0100
0100
0000
,
0010
0010
0010
0000
,
1001
0000
0010
0100
,
1001
0000
0100
0010
,
0110
0000
0010
0100
,
1001
0000
1000
0000
,
0002
0000
0000
0000
,
0200
0000
0000
0303
,
2002
0000
0000
3003
,
0020
0000
0000
0030
,
2000
0000
0000
0000
,
0200
0000
0000
3300
,
2002
0000
0000
3003
,
1000
1000
0001
0001
,
1000
0000
1000
0000
,
0001
0000
0001
0000
,
0100
0000
0100
0000
,
0110
0110
0000
0000
,
1001
1000
1000
1000
,
0001
0001
0001
0001
,
0100
0000
0010
0000
,
1000
0100
0010
0001
,
2000
0000
0000
0000
,
0000
0000
0000
0000
,
0000
0000
0000
0000
,
3000
0000
0000
0000
;

//---------------dance-single - t7r----------------
#NOTES:
     dance-single:
     t7r:
     Medium:
     7:
     :
0000
0000
0000
0000
,
0000
0000
0000
0000
,
0000
0000
0000
0000
,
0000
0000
0000
0000
,
0000
0000
0000
0000
,
2002
0000
0000
0000
,
0000
0000
0000
0000
3003
0000
0000
0100
,
0200
0000
0000
0300
,
0020
0000
0200
0330
,
2002
0000
0000
0000
3003
0000
0000
1000
,
2000
0000
0000
3000
,
0002
0000
0000
0000
0000
0000
0000
0100
,
0200
0000
0303
0010
,
0220
0000
0000
0000
0330
0000
0000
0001
,
0002
0000
0000
0003
,
2002
0000
0000
3003
,
1000
0100
0010
0001
,
1000
0000
0100
0000
,
1000
0000
0010
0000
,
0100
0000
0001
0000
,
1000
0000
0000
0000
0001
0000
0010
0100
,
0000
0100
0010
0000
0001
0000
1000
0001
,
0000
0000
1000
0000
0001
0000
1000
0010
,
0000
0010
1000
0000
0010
0000
0100
0001
,
0000
0100
0001
1000
,
0001
0010
0100
1000
,
0100
0100
1000
1000
,
0010
1000
0001
0100
,
0010
0000
0010
0000
0100
0000
0100
0001
,
0000
0001
0100
0000
0001
0000
0010
0100
,
0000
0000
0010
0000
0001
0000
1000
0100
,
0000
0100
1000
0000
0010
0000
1000
0001
,
0000
0100
0010
1000
,
0001
0001
0001
0001
,
1000
1000
1000
1000
,
0001
0001
0100
0100
,
0010
1000
0001
1000
,
0002
0000
0010
0000
,
0010
0000
0010
0103
,
0020
0000
1000
0000
,
1000
0000
1000
0130
,
2000
0000
0001
0000
,
0001
0000
0000
0000
3001
0000
0001
0100
,
0000
0000
1001
0000
0010
0000
1000
0100
,
0000
1000
0001
1000
,
0002
0003
0200
0300
,
0020
0030
2000
3000
,
0200
0300
0020
0030
,
0002
0000
0003
0000
1000
0000
0100
1000
,
0000
0000
0001
0000
0100
0000
0001
0010
,
0000
0000
0001
0000
1000
1000
0000
1001
,
0000
0000
0010
0000
0100
0000
0001
0001
,
0000
1000
0100
0010
,
0002
0000
0000
0000
,
0020
0000
0000
0033
,
2200
0000
0000
0000
3300
0000
0000
0010
,
0020
0000
0000
0030
,
0200
0000
0000
0000
0000
0000
0000
0001
,
0002
0000
0000
0303
,
2002
0000
0000
3003
,
1000
1000
0001
0001
,
1000
1000
1001
1001
,
0001
0001
1001
1001
,
0010
0010
0110
0110
,
1001
1001
1000
0100
,
0010
0010
0011
0011
,
0100
0100
1100
1100
,
1000
0001
1001
0110
,
0010
0000
1000
0000
0001
0100
0001
0000
,
2002
0000
0000
0000
,
0000
0000
0000
0000
,
0000
0000
0000
0000
,
3003
0000
0000
0000
;

//---------------dance-single - t7r----------------
#NOTES:
     dance-single:
     t7r:
     Hard:
     12:
     :
0000
0000
0000
0000
,
0000
0000
0000
0000
,
0000
0000
0000
0000
,
0000
0000
0000
0000
,
0000
0000
0000
0000
,
2002
0000
0000
0000
,
0000
0000
0000
0000
3003
0000
0010
0100
,
0202
0000
0000
0303
,
2200
3300
2020
3030
,
2001
0000
0001
0000
0001
0000
3001
0100
,
0200
0000
0000
0300
,
0012
0000
1000
0000
1000
0000
1003
0100
,
0200
0300
0220
0330
,
2010
0000
0010
0000
0010
0000
3010
0001
,
0002
0000
0000
1003
,
1100
0000
1001
0000
1000
0001
0100
0000
,
0001
1000
0010
0100
0001
0010
0100
1000
,
0100
0010
0001
1000
0100
0000
1000
0000
,
0100
1000
0010
0010
0200
0000
0310
0000
,
1000
0010
0100
0001
2000
0000
3001
0000
,
0010
0001
0010
0010
0100
0010
0001
1001
,
0000
0000
0110
0000
0010
1000
0001
0101
,
0000
0000
1100
0000
0001
0010
0100
0110
,
0000
0000
0011
0000
1000
0100
0010
1100
,
0000
0000
1001
0000
1000
0001
1000
0001
,
1000
0010
0100
0001
0000
0001
0100
0001
,
1000
0010
0010
0010
0200
0000
0300
0000
,
0001
0010
0100
1000
0000
0100
0010
0001
,
1000
0100
0100
0100
2000
0000
3001
0100
,
0000
0000
1010
0000
0100
0010
1000
1001
,
0000
0000
0101
0000
1000
0100
0010
0011
,
0000
0000
1001
0000
0010
1000
0100
0110
,
0000
0000
1010
0000
1000
0100
0001
0100
,
0210
0010
0010
0310
,
2001
0001
0001
3001
,
0102
1000
0010
1003
,
2100
0000
0000
0000
0010
0000
0000
0000
3001
0000
0000
0000
1000
0001
1000
0001
,
1000
0000
0000
0000
0010
0000
0000
0100
0001
0000
1000
0000
0001
0000
0000
0000
,
0010
0000
0000
0000
0001
0000
0000
0010
0100
0000
1000
0000
0100
0000
0010
0000
,
0001
0000
0000
0000
0010
0000
0000
0001
0100
0000
0001
0000
1000
0000
0000
0000
,
0010
0000
0000
0000
1000
0000
0000
0100
0010
0000
0100
0000
1000
0000
0001
0000
,
1001
0000
0000
0000
0010
0000
0000
0100
0010
0000
1000
0000
0010
0000
0000
0000
,
0100
0000
0000
0000
0001
0000
0000
0100
0001
0000
1000
0000
0001
0000
1001
0000
,
0000
0000
0011
0000
0001
0010
0100
1100
,
0000
0000
0000
0000
1010
0000
0000
0000
1000
0000
0001
0000
0100
0010
0100
0000
,
0010
1000
0100
0000
0010
0001
1000
0000
,
0001
0100
0010
0000
1000
0100
0001
0000
,
1000
0010
0100
0000
0010
0001
1000
0000
,
0100
1000
0010
0100
0010
0010
1000
1001
,
0000
0000
1010
0000
0100
0010
0100
0101
,
0000
0000
0011
0000
1001
1001
0000
0110
,
0000
0000
0011
0000
0010
0001
1000
1100
,
0000
0000
0101
0000
0010
0100
0001
0100
,
0020
0000
1000
0000
1000
0000
1030
0100
,
0200
0000
0010
0000
0010
0000
0310
0001
,
0002
0000
1000
0000
1000
0000
1003
0100
,
0200
0000
0010
0000
0301
0000
1000
0001
,
0020
0000
0100
0000
0100
0000
0130
1000
,
2000
0000
0010
0000
3010
0100
1001
0000
,
0110
1001
1001
1001
,
0010
0000
0100
0000
0001
0000
1000
0000
0100
0000
0010
0000
0001
1000
0001
0000
,
1000
0000
0000
0000
1001
0000
0000
0000
1001
0000
0000
0000
0101
0000
0000
0001
,
0100
0000
0000
0000
0101
0000
0000
0000
1010
0000
0000
0000
1001
0000
0000
1000
,
0100
0000
0000
0000
1100
0000
0000
0000
1100
0000
0000
0000
1100
0000
0000
0010
,
0100
0000
0000
0000
1001
0000
0000
0000
0010
0000
0100
0000
0010
1000
0010
0000
,
0100
0000
0000
0000
0101
0000
0000
0000
0011
0000
0000
0000
1100
0000
0000
1000
,
0001
0000
0000
0000
1001
0000
0000
0000
0110
0000
0000
0000
1001
0000
0000
0010
,
1000
0010
0100
0001
1000
0100
0001
0100
,
1001
0000
0000
0000
0110
0000
0000
0000
1000
0000
0010
0000
0100
0001
0100
0000
,
2002
0000
0000
0000
,
0000
0000
0000
0000
,
0000
0000
0000
0000
,
3003
0000
0000
0000
;

//---------------dance-single - t7r----------------
#NOTES:
     dance-single:
     t7r:
     Challenge:
     17:
     :
0000
0000
0000
0000
,
0000
0000
0000
0000
,
0000
0000
0000
0000
,
0000
0000
0000
0000
,
0000
0000
0000
0000
,
0210
0010
0010
0010
0010
0010
0010
0010
,
0010
0010
0010
0010
0010
0010
0310
0100
,
0102
1000
1000
1000
1000
1000
1000
1003
,
0020
1000
0031
0000
2000
0100
3010
0000
,
2100
0001
0001
0001
0001
0001
0001
0001
,
0001
0001
0001
0001
0001
0001
3001
0010
,
0210
0001
0001
0001
0001
0001
0001
0301
,
2000
0010
3100
0000
0002
0100
0013
0000
,
0210
1000
1000
1000
1000
1000
1000
1000
,
1000
0000
1000
0000
1000
0000
1000
0000
1300
0000
1000
0100
0010
0000
0000
0000
,
0011
0000
0001
0100
0001
0000
1000
0010
1000
0000
0001
1000
0001
0000
0000
0000
,
1000
0100
1000
0100
0010
0100
1000
0000
0001
0100
0001
0100
0010
0100
0001
0000
,
1000
0000
0001
0100
0001
0000
1000
0010
1000
0000
0001
0010
0001
0000
1000
0100
,
1000
0000
0001
0010
0100
0010
0100
0010
0002
0000
1000
0000
0103
0000
0000
0000
,
1000
0000
0010
1000
0010
1000
0010
0100
0020
0000
1000
0000
0130
0000
0000
0000
,
1000
0000
0100
0010
0100
0010
0001
0100
0010
0000
1000
0010
0100
0000
2010
0000
,
0000
0000
3001
0000
0011
0000
1000
0100
0010
0100
1000
0000
0100
0000
0012
0000
,
0000
0000
1003
0010
0100
0000
0010
1000
0001
1000
0001
0100
0010
0000
0102
0000
,
0000
0000
1003
0000
0010
0000
0100
0010
1000
0100
0010
0100
1000
0000
0012
0000
,
0000
0000
1003
0000
0100
0000
0010
0100
1000
0001
1000
0001
0100
0010
1000
0000
,
0101
0000
0001
0100
0001
0010
0001
1000
0001
0000
1000
0100
1000
0001
1000
0010
,
1000
0000
0010
0100
0010
1000
0010
1000
0001
0000
0010
0100
0010
0001
1000
0001
,
1000
0000
0001
0010
0100
0010
0001
0100
0001
0000
1000
0010
0100
0010
1000
0100
,
1000
0000
0100
0010
0001
0100
0001
0010
0100
0000
0010
0001
0010
0000
2001
0000
,
0000
0000
3010
0000
0100
0000
0010
1000
0100
0010
0100
0000
1000
0000
0021
0000
,
0000
0000
0031
0000
0010
0000
0001
0100
0010
0100
0001
0000
0100
0000
2010
0000
,
0000
0000
3010
0000
1000
0000
0100
0010
0001
1000
0010
0000
0100
0000
0210
0000
,
0000
0000
0301
0000
1000
0000
0001
0010
0100
0010
0001
0000
0100
0010
1000
0100
,
1000
0000
0000
0000
0010
0000
0100
0000
0110
0000
0001
0010
0100
0000
1000
0000
,
0001
0000
0000
0000
0010
0000
0100
0000
0110
0000
1000
0010
0100
0000
0001
0000
,
1000
0000
0000
0000
0010
0000
1000
0000
1100
0000
0010
0001
1000
0000
0100
0000
,
1001
0000
0000
0000
0110
0000
0000
0000
0001
1000
0001
1000
0001
1000
0001
1000
,
0001
0000
0000
0000
0100
0000
0010
1000
0010
1000
0001
0000
1000
0000
0001
0010
,
0100
0000
0000
0000
0010
0000
0001
1000
0001
1000
0010
0000
0100
0000
0010
1000
,
0100
0000
0000
0000
0010
0000
0100
1000
0100
1000
0001
0000
1000
0000
0001
0100
,
0010
0000
0000
0000
0100
0000
0001
0010
0100
0010
0001
0000
1000
0000
0100
1000
,
0010
0000
0000
0000
0100
0000
0010
1000
0100
1000
0010
0000
1000
0000
0001
1000
,
0010
0000
0000
0000
0100
0000
0001
0010
0100
0000
0010
0000
0010
0000
0012
0000
,
0000
0000
1003
0000
0010
0000
0100
0010
1000
0100
1000
0001
1000
0000
0120
0000
,
0000
0000
1030
0000
0001
0000
1000
0100
1000
0010
1000
0010
0100
0001
0100
0001
,
1000
0000
0100
0010
0001
0000
0010
0000
0100
0000
1000
0000
0010
0000
0001
0000
,
0010
0000
1000
0001
0100
0000
0001
0000
0010
0000
1000
0000
0010
0000
0001
0000
,
0100
0000
0001
1000
0100
0000
1000
0000
0010
0000
0001
0000
0010
0000
1000
0000
,
0100
0000
0010
0001
0100
0000
0010
1000
0010
0000
0100
0001
0100
0000
2010
0000
,
0000
0000
3100
0000
1000
0000
0001
0010
0001
1000
0001
1000
0001
0000
0201
0000
,
0000
0000
0301
0100
0010
0000
0100
0001
1000
0000
1001
0000
0000
0000
2100
0000
,
0000
0000
3100
0000
1000
0000
0010
0100
0001
0100
0010
1000
0001
0000
0012
0000
,
0000
0000
1003
0000
0100
0000
0010
0100
1000
0100
1000
0100
0010
0001
0100
0001
,
2000
0010
0010
0010
0010
0010
3010
0100
,
1200
0000
1000
0000
1000
0000
1000
0000
1000
0000
1000
0000
1300
0000
0001
1000
,
0002
0100
0100
0100
0100
0100
0103
0010
,
0210
0000
0001
0000
0001
0000
0301
0000
1000
0000
0100
0000
1000
0001
1000
0001
,
0020
0100
0100
0100
0100
0100
0130
0010
,
0012
1000
1000
1000
1003
1010
1001
0000
,
0110
0000
0010
0100
0001
0000
0100
0010
1000
0000
0010
1000
0001
0000
1000
0100
,
0010
0100
1000
0001
1000
0001
0100
0000
0010
0100
0001
1000
0001
1000
0010
0000
,
0210
0000
0000
0000
0301
0000
0010
0000
0011
0000
0001
0100
0010
0000
0100
0000
,
0210
0000
0000
0000
0301
0000
0100
0000
0110
0000
0010
1000
0001
0000
1000
0000
,
2100
0000
0000
0000
3100
0000
0010
0000
0011
0000
0001
1000
0010
0000
0100
0000
,
0110
0000
0000
0000
1001
0000
0000
0000
1000
0100
1000
0100
1000
0001
1000
0001
,
1000
0000
0100
0020
0000
0130
2000
0000
3010
0100
0010
0100
0001
1000
0001
0100
,
0010
0000
0100
0010
1000
0000
0010
0100
0001
0000
1000
0200
0000
0301
0200
0000
,
1300
0010
1000
0010
1000
0000
0001
0000
0010
0001
0010
0001
0010
0000
0100
0000
,
0110
0000
0000
0000
1001
0000
0000
0000
0010
0100
0001
1000
0001
0010
0100
1000
,
0002
0000
0000
0010
0000
0000
1000
0000
0000
0100
0000
0000
1000
0000
0000
0010
,
0000
0000
1000
0000
0000
0100
0000
0000
0010
0000
0000
1000
0000
0000
0100
0000
,
0000
1000
0000
0000
0010
0000
0000
1000
0000
0000
0100
0000
0000
1000
0000
0000
,
0013
0000
0000
0000
;
