#TITLE:AGEHA;
#ARTIST:Ryu☆;
#BANNER:AGEHA.png;
#BACKGROUND:AGEHA-bg.png;
#JACKET:AGEHA-jacket.png;
#CDTITLE:./CDTITLES/BEATMANIA IIDX.PNG;
#MUSIC:AGEHA.ogg;
#SAMPLESTART:94.667;
#SAMPLELENGTH:15;
#BPMS:0=180,44=90,60=180,196=90,232=180;

//---------------dance-single - t7r----------------
#NOTES:
     dance-single:
     t7r:
     Beginner:
     3:
     :
0000
0000
0000
0000
,
0000
0000
0000
0000
,
0001
0000
0001
0000
,
0100
0000
0100
0000
,
0010
0000
0010
0000
,
1000
0000
1000
0000
,
0001
0000
0001
0000
,
0100
0000
0100
0000
,
0001
0000
0001
0000
,
1000
0000
1000
0000
,
0100
0000
0000
0000
,
0010
0000
0000
0000
,
0001
0000
0000
0000
,
0100
0000
0000
0000
,
1000
0000
0000
0000
,
0000
0100
0000
0010
,
0000
1000
0000
0001
,
0000
0100
0000
0010
,
0000
1000
0000
0001
,
0001
0000
1000
0000
,
0100
0000
0010
0000
,
0001
0000
0000
0000
,
0000
0000
0000
0000
,
0000
0001
0000
0010
,
0000
0100
0000
1000
,
0000
0100
0000
0010
,
0000
0001
0000
1000
,
1000
0000
0010
0000
,
0100
0000
0001
0000
,
1000
0000
0001
0000
,
0100
0000
0010
0000
,
0100
0000
0000
0000
,
0000
0000
0000
0000
,
0000
0010
0000
0100
,
0000
0010
0000
1000
,
0000
0001
0000
0100
,
0000
0001
0000
1000
,
0000
0100
0000
0010
,
0000
0001
0000
0010
,
0000
0100
0000
0010
,
0000
0001
0000
1000
,
1000
0000
0001
0000
,
0100
0000
0001
0000
,
1000
0000
0100
0000
,
0001
0000
0100
0000
,
1000
0000
0001
0000
,
0100
0000
0001
0000
,
1000
0000
0010
0000
,
0001
0000
0010
0000
,
1000
0000
0000
0000
,
0010
0000
1000
0000
,
0001
0000
0100
0000
,
0001
0000
1000
0000
,
0100
0000
0010
0000
,
0001
0000
0010
0000
,
0100
0000
1000
0000
,
1001
0000
0000
0000
,
0000
0000
0000
0000
,
0010
0000
0010
0000
,
0100
0000
0010
0000
,
1000
0000
1000
0000
,
0001
0000
1000
0000
,
0001
0000
0001
0000
,
1000
0000
0100
0000
,
1000
0000
1000
0000
,
0001
0000
0100
0000
,
0001
0001
0000
1000
,
0000
0100
0000
0010
,
0000
0001
0000
0010
,
0000
0100
0000
0010
,
0010
0000
0001
0000
,
0100
0000
0001
0000
,
1000
0000
0001
0000
,
0100
0000
0010
0000
,
1000
0000
0001
0000
,
1000
0000
0100
0000
,
0010
0000
0000
0000
;

//---------------dance-single - t7r----------------
#NOTES:
     dance-single:
     t7r:
     Easy:
     6:
     :
0000
0000
0000
0000
,
0000
0000
0000
0000
,
1000
1000
0010
0010
,
0100
0100
0001
0001
,
1000
0100
0010
0001
,
0010
0100
1000
0100
,
0001
0100
0010
1000
,
0001
0100
0010
1000
,
0010
0001
0100
0010
,
1000
0010
0100
0001
,
2002
0000
0000
3003
,
2000
3000
0002
0003
,
0200
0300
0020
0030
,
2000
3000
0200
0300
,
0020
0032
2000
3003
,
0001
0101
0000
1010
,
0000
1001
0000
0101
,
0000
1001
0000
1100
,
0000
0011
0000
0001
,
1001
0001
0100
0010
,
1000
0100
0010
0001
,
0010
0100
1000
0100
,
0010
0001
1000
0010
,
0100
0100
0010
0010
,
1000
1000
0001
0001
,
1000
0100
0010
0001
,
0010
0100
1000
0100
,
1000
0010
0100
0001
,
1000
0010
0100
0001
,
0100
0010
0001
0010
,
0100
0010
0001
0010
,
2002
0000
0000
3003
,
0020
0000
0000
0030
,
0100
0100
0010
0010
,
1000
1000
0001
0001
,
0100
0100
0010
0010
,
1000
0001
1000
0100
,
1000
1000
0010
0010
,
0100
0100
0001
0001
,
1000
1000
0010
0010
,
0100
0100
0001
0100
,
1000
0100
0010
0001
,
1000
0100
0010
0001
,
1000
0100
0010
0001
,
1000
0100
0010
1000
,
0001
0010
0100
1000
,
0001
0010
0100
1000
,
0001
0010
0001
1000
,
0001
0010
0100
1000
,
0220
0000
0000
0330
,
0200
0300
0020
0030
,
0002
0003
2000
3000
,
0002
0003
2000
3000
,
0020
0030
0200
0300
,
0002
0000
0103
0000
,
2000
0000
3100
0001
,
0220
0000
0000
0330
,
1001
0000
0110
0000
,
1000
1000
0100
0100
,
0010
0010
0001
0001
,
0010
0100
1000
0100
,
0010
0100
1000
0100
,
0001
0100
0010
1000
,
0001
0100
0010
1000
,
0010
0001
0100
0010
,
1000
0010
0100
0001
,
1000
1001
0000
0011
,
0000
1001
0000
1100
,
0100
0010
0001
0010
,
0100
1000
0100
0110
,
1000
0101
0000
0011
,
0000
1100
0000
1010
,
0010
1000
0001
0100
,
0010
1000
0001
0100
,
0101
0000
0000
0010
,
0100
0000
0110
0000
,
2002
0000
0000
0000
,
3003
0000
0000
0000
;

//---------------dance-single - t7r----------------
#NOTES:
     dance-single:
     t7r:
     Medium:
     9:
     :
0000
0000
0000
0000
,
0000
0000
0000
0000
,
0001
0000
0010
0000
0100
1000
0000
0100
,
0000
0100
0000
0100
1000
0000
0001
0000
,
1000
0000
0010
1000
0010
0000
1000
0000
,
0001
0100
0001
0000
1000
0100
0010
0000
,
0001
0000
0010
0000
0100
0010
0000
0001
,
0000
0001
0000
0001
0100
0000
0010
0000
,
1000
0000
0001
0100
0001
0000
1000
0000
,
0100
1000
0100
0000
1000
0010
0100
0000
,
0220
0000
0000
0330
,
0020
0000
0000
1030
0002
0000
2003
0000
,
3001
0020
0000
0130
2000
0000
3010
0000
,
2000
0000
0000
3100
0020
0000
0000
0000
,
0032
0000
0203
0000
0320
0000
1030
0001
,
1000
1100
1000
1100
,
1000
1001
1000
1001
,
0001
0101
0001
0101
,
0001
1001
0001
0011
,
1000
1010
1000
1010
,
0001
0101
0001
0101
,
1000
0000
0100
1000
0100
0000
1000
0000
,
0001
0100
0001
0000
1000
0010
0100
0000
,
0010
0000
1010
0000
0010
1000
0000
0100
,
0000
0100
0000
0100
0010
0000
0001
0000
,
0100
0000
0001
0100
0001
0000
1000
0000
,
0010
1000
0010
0000
1000
0100
0010
0000
,
0001
0000
0011
0000
0001
0010
0000
0100
,
0000
0100
0000
0100
1000
0000
0010
0000
,
0100
0000
0010
0100
0001
0000
1000
0000
,
0100
0010
0001
0000
1000
0001
0010
0000
,
0200
0010
0010
0010
,
0001
1000
1000
1300
,
0001
0000
0100
0000
0001
1000
0001
0000
,
1000
0000
0100
0000
1000
0001
1000
0000
,
0001
0000
0010
0000
0001
0100
0001
0000
,
1000
0000
0010
0000
0100
0010
1000
0010
,
1000
0000
0100
0000
0010
0100
1000
0000
,
0001
0000
0100
0000
0010
0100
0001
0000
,
1000
0000
0010
0000
0100
0010
1000
0000
,
0001
0010
0200
0300
,
1000
0100
1000
0100
0000
1000
0010
1000
,
0000
0001
0100
0001
0000
0010
0001
0010
,
0000
0001
1000
0001
0000
0100
0010
0100
,
0010
0010
2002
3003
,
0010
0100
1000
0100
0000
0010
0001
0010
,
0000
0001
0100
0001
0000
1000
0010
1000
,
0000
0001
0010
0100
0000
1000
0010
0100
,
0010
0100
0220
0330
,
2000
0000
0000
3002
,
0023
0000
0000
0031
0200
0000
0320
0000
,
1030
0200
0000
0310
0002
0000
2003
0000
,
3020
0000
0000
0130
0020
0000
0000
0000
,
2030
3200
0320
0032
,
1003
0100
1000
0000
0001
0100
0001
0000
,
1000
0010
1000
0000
0001
0010
0001
0000
,
2002
3003
0220
0330
,
0010
0000
1000
0100
1000
0000
0001
0000
0010
0001
0010
0000
0001
1000
0100
0000
,
1000
0000
1001
0000
0010
0100
0000
0010
,
0000
0010
0000
0010
1000
0000
0100
0000
,
0010
0000
0100
0010
0001
0000
0100
0000
,
0010
1000
0100
0000
0010
0001
0100
0000
,
0001
0000
0011
0000
0001
0010
0000
0001
,
0000
0001
0000
0001
1000
0000
0010
0000
,
0100
0000
0010
0100
0010
0000
1000
0000
,
0001
1000
0001
0000
1000
0001
0100
0000
,
0010
0000
1010
0000
1000
0100
0000
0010
,
0000
0100
0000
1000
0010
0000
0100
0000
,
0010
1000
0010
1000
0100
0000
0010
0001
,
0010
0001
0100
0000
0001
0010
0100
0000
,
0010
0000
0011
0000
0001
1000
0000
0010
,
0000
0100
0000
0010
1000
0000
0001
0000
,
1001
0000
0100
0010
0001
0000
0100
0000
,
0010
1000
0100
0000
0010
0001
0010
0001
,
0100
0000
0010
1000
0001
0000
0100
0000
,
0010
1000
0100
0000
0010
0001
0100
0000
,
0220
0000
0000
0000
,
0330
0000
0000
0000
;

//---------------dance-single - t7r----------------
#NOTES:
     dance-single:
     t7r:
     Hard:
     11:
     :
0000
0000
0000
0000
,
0000
0000
0000
0000
,
0110
0000
1001
0000
0010
1000
0000
0100
,
0000
1100
0000
0100
1000
0000
1010
0000
,
0010
0100
0001
1000
0001
0000
0010
0100
,
1000
0001
1000
0000
0100
1000
0010
0000
,
0110
0000
1001
0000
0001
0010
0000
0101
,
0000
0011
0000
0001
0010
0000
0110
0000
,
0010
0001
0100
0001
0010
0000
0100
1000
,
0010
1000
0100
0000
1000
0001
0200
0000
,
0020
0000
0300
2030
,
3002
0000
0000
0000
0000
1003
0010
0100
0020
0000
0000
0000
2030
0000
0000
0000
,
3001
0020
0000
0031
2000
0000
3020
0000
,
0230
0000
0000
0000
0000
0310
1000
0001
0200
0000
0000
0000
0000
0000
0000
0000
,
0302
0000
0023
0000
0230
0000
1300
0001
,
1000
0000
1010
0000
1000
0010
0100
0000
,
0001
0000
0011
0000
0001
0010
0100
0000
,
1000
0000
1001
0000
0010
1000
0001
0000
,
0010
0110
0011
0101
,
0010
0000
0110
0000
0001
1000
0100
0000
,
0010
0000
0110
0000
0100
1000
0001
0000
,
1000
0010
0100
0010
1000
0000
0001
0010
,
0100
0010
0001
0000
1000
0001
0100
0000
,
1001
0000
0110
0000
0010
1000
0000
1100
,
0000
1010
0000
1000
0010
0000
0110
0000
,
0010
1000
0100
1000
0010
0000
0100
0001
,
0010
0001
0100
0000
0001
1000
0100
0000
,
0011
0000
0101
0000
0001
0010
0000
0101
,
0000
0011
0000
0001
0010
0000
0110
0000
,
0010
0001
0100
0001
0010
0000
0001
1000
,
0100
1000
0010
0000
0100
0001
2000
0000
,
0010
0100
0100
0100
,
0001
0001
0010
3001
,
1001
0000
0010
0100
0001
1000
0001
0000
,
1000
0000
0100
1000
0010
0100
0010
0000
,
1000
0000
0100
0010
0001
1000
0001
0000
,
1000
0010
1000
0010
0100
0001
0100
0001
,
1000
0000
0100
1000
0010
0100
0010
0000
,
1000
0000
0001
0010
0100
0010
0001
0000
,
1000
0000
0010
0100
0001
0100
0010
0000
,
1000
0001
0100
0000
0001
1000
0020
0000
,
1030
0010
0100
0001
0000
0001
0010
0001
,
0000
1000
0010
1000
0000
0001
0100
0001
,
0000
1000
0100
1000
0000
0001
0010
0001
,
1000
1000
0010
0100
0001
0001
0010
0100
,
0010
0001
1000
0001
0000
0100
0010
0100
,
0010
1000
0100
0010
0000
0100
1000
0100
,
1000
0010
0100
0001
0010
0100
1000
0001
,
0100
0100
0010
0100
0001
0010
0100
1000
,
0002
0000
0000
2003
,
3020
0000
0000
0000
0000
0130
0001
1000
0200
0000
0000
0000
2300
0000
0000
0000
,
3001
0020
0000
0031
2000
0000
3020
0000
,
0230
0000
0000
0000
0000
0301
0010
0100
2000
0000
0000
0000
0000
0000
0000
0000
,
3200
0000
0320
0000
0032
0000
1003
0001
,
2001
3020
0230
0302
0023
0230
2300
3002
,
2003
3200
0302
0203
2300
3020
0032
0023
,
2030
0000
0002
3003
,
1000
0100
0010
0100
1000
0000
0001
0010
0100
0010
0001
0000
1000
0001
0100
0000
,
1001
0000
1010
0000
1100
0100
1000
0010
,
0100
0010
1000
0100
0010
0000
0110
0000
,
0001
0010
0100
0010
0001
0000
1000
0010
,
0100
0010
1000
0000
0001
1000
0100
0000
,
1001
0000
0101
0000
0011
0001
0010
0100
,
0010
0001
0100
0010
0100
0000
0101
0000
,
0001
0010
1000
0010
0001
0000
0001
0100
,
1000
0100
0001
0000
0001
1000
0100
0000
,
1100
0000
1010
0000
0110
0010
1000
0100
,
0010
0100
1000
0010
0100
0000
0110
0000
,
0010
1000
0100
0001
0100
0000
1000
0010
,
0001
0010
1000
0000
0001
0010
0100
0000
,
0110
0000
1001
0000
0011
0001
0010
0100
,
0010
0001
0100
0010
0100
0000
0110
0000
,
0001
0010
0100
1000
0001
0000
1000
0010
,
0100
0001
1000
0000
0001
0010
0001
0010
,
0001
0100
0010
1000
0100
0000
1000
0010
,
0100
0001
0010
0000
0100
1000
0001
0000
,
0220
0000
0000
0000
,
0330
0000
0000
0000
;

//---------------dance-single - t7r----------------
#NOTES:
     dance-single:
     t7r:
     Challenge:
     15:
     :
0000
0000
0000
0000
,
0000
0000
0000
0000
,
0011
0000
0101
0000
1001
0001
1000
0100
,
0010
0100
1000
0010
0100
0000
0110
0000
,
0010
1000
0100
0001
0100
0000
1000
0010
,
0001
0010
1000
0000
0100
0010
0001
0000
,
0101
0000
1010
0000
1001
0001
0010
0100
,
0010
0001
0100
0010
0100
0000
0101
0000
,
0100
0001
0010
1000
0010
0000
0001
0100
,
1000
0100
0001
0000
1000
0100
0010
0000
,
2002
0000
0003
3020
,
0230
0000
0000
0000
0000
0301
0010
0100
0020
0000
0000
0000
0032
0000
0000
0000
,
1003
0020
0000
1030
0200
0000
0320
0000
,
0032
0000
0000
0000
0000
1003
0010
0001
0020
0000
0000
0000
0000
0000
0000
0000
,
0230
0000
0320
0000
2030
0000
3001
1000
,
0001
0010
0011
0001
0100
0001
0011
0001
,
1000
0010
1010
0010
1000
0100
1100
0100
,
1000
0010
0110
0010
1000
0100
0110
0100
,
1000
0010
0110
0100
0001
0000
1001
0000
,
0001
0010
1100
0010
0001
0010
1001
0010
,
1000
0010
0101
0010
1000
0001
1001
0010
,
0100
0010
1000
0100
0001
0000
0100
1000
,
0010
0100
0010
0000
0100
0010
0100
0000
0001
0000
1000
0001
0100
0000
0001
1000
,
0001
0010
0100
0000
0000
0000
1000
0010
0100
0000
0000
0000
0010
1000
0001
0000
,
1000
0001
0010
0000
0000
0000
0001
1000
0010
0000
0000
0000
1000
0010
0100
0000
,
0010
1000
0100
0000
0000
0000
0010
0001
0100
0000
0000
0000
0001
0100
0010
0000
,
0100
0010
1000
0000
0000
0000
0100
0010
0001
0000
0000
0000
1001
0000
0000
0000
,
0010
1000
0101
1000
0010
1000
1100
0001
,
0010
0001
1100
0001
0010
0001
1001
0010
,
0100
0010
0101
0010
1000
0100
0110
0010
,
0001
0000
1000
0001
1000
0000
0010
0000
0100
0000
0001
1000
0100
1000
0001
0000
,
0020
0100
0100
1000
,
0001
0001
1000
0031
,
1100
0000
0010
0001
0000
0001
0100
0000
0001
0000
0010
0001
0100
0000
0001
0000
,
1000
0000
0010
1000
0000
1000
0100
0000
1000
0000
0010
1000
0100
0000
1000
0000
,
0010
0000
0100
0010
0000
0010
1000
0000
0010
0000
0100
0001
1000
0000
0001
0000
,
0010
0000
0100
1000
0001
0000
1000
0000
0001
0000
0010
0000
0100
0000
1000
0000
,
0001
0000
0100
0010
0000
0010
1000
0000
0010
0000
0100
0001
1000
0000
0001
0000
,
1000
0000
0100
0010
0000
0010
0001
0000
1000
0000
0100
1000
0001
0000
1000
0000
,
0010
0000
0100
0001
0000
0001
1000
0000
0010
0000
1000
0010
0100
0000
0010
0000
,
1000
0000
0100
1000
0100
0000
1000
0000
0001
0000
0001
0010
0100
0000
0010
0000
,
0001
0100
0011
1000
0100
1000
0011
1000
,
0010
0100
1010
0100
0001
0010
0110
0001
,
1000
0100
1100
1000
0010
0100
0110
0010
,
1000
0001
0011
0001
0101
0100
0110
0010
,
1000
0001
1010
0001
1000
0001
0011
1000
,
0001
1000
1100
0001
1000
0001
0101
1000
,
0010
0100
0110
0010
1000
0100
0011
0100
,
1000
0000
0010
0000
0110
0000
0000
0000
0001
1000
0100
1000
0001
0000
1000
0000
,
2002
0000
0003
3002
,
0023
0000
0000
0000
0000
0130
1000
0010
0002
0000
0000
0000
0023
0000
0000
0000
,
1030
0200
0000
0301
0200
0000
2300
0000
,
3002
0000
0000
0000
0000
0103
0010
1000
0200
0000
0000
0000
0000
0000
0000
0000
,
2300
0000
3020
0000
0032
0000
0103
1000
,
0001
0010
0100
1000
0001
0010
0001
1000
0001
0010
0100
1000
0010
1000
0010
0100
,
0010
1000
0100
0010
0100
1000
0001
0100
0001
1000
0010
0100
0010
0000
1010
0000
,
0102
0010
1000
0103
2000
0010
0001
3100
,
0001
0000
0010
0000
1000
0000
0010
0000
0001
0000
0000
0000
1000
0000
0010
0000
0001
0010
0001
0000
1000
0010
1000
0000
0001
0010
0100
0010
0001
0000
1000
0000
,
0001
1000
0101
0001
1000
0001
0011
1000
,
0001
1000
1100
1000
0010
0100
0110
0000
,
1010
0100
0110
0010
1010
0000
0011
0100
,
0110
0010
0011
0000
1001
0100
1001
0000
,
1000
0001
1100
1000
0001
1000
0011
0001
,
1000
0001
0101
0001
1000
0010
0110
0010
,
1000
0100
0001
0100
1000
0000
0001
0010
,
1000
0000
0010
0000
0001
0000
0000
0000
0100
0000
0010
0100
0001
0100
0010
0000
,
1000
0100
0010
0100
1000
0000
0001
0010
0100
0010
0001
0000
1000
0001
0100
0001
,
1000
0010
0100
0010
1000
0000
0001
0010
0100
0010
0001
0000
1000
0010
1000
0001
,
0100
0001
1000
0001
0010
0000
0100
1000
0001
1000
0010
0000
1000
0001
0100
0001
,
1000
0100
0010
0100
1000
0000
0001
0010
0100
0010
0001
0000
0110
0000
0001
0000
,
1010
0000
1010
0000
1100
0100
1000
0010
,
0100
0010
1000
0010
1010
0000
0110
0000
,
0101
0010
1000
0010
0001
0000
1100
0010
,
0001
0010
1000
0000
0101
0010
1100
0010
,
1001
0010
1000
0100
0001
0000
1000
0010
,
0001
0100
1000
0000
0001
0100
1010
0000
,
0220
0000
0000
0000
,
0330
0000
0000
0000
;
