#TITLE:1st Samurai;
#ARTIST:sampling masters MEGA;
#BANNER:1st Samurai.png;
#BACKGROUND:1st Samurai-bg.png;
#JACKET:1st Samurai-jacket.png;
#CDTITLE:./CDTITLES/BEATMANIA IIDX.PNG;
#MUSIC:1st Samurai.ogg;
#SAMPLESTART:72.686;
#SAMPLELENGTH:15;
#DISPLAYBPM:175:200;
#BPMS:0=175,272=200;

//---------------dance-single - t7r----------------
#NOTES:
     dance-single:
     t7r:
     Beginner:
     3:
     :
0000
0000
0000
0000
,
0000
0000
0000
0000
,
0000
0000
0000
0000
,
0000
0000
0000
0000
,
0000
0000
0000
0000
,
0000
0100
0000
0100
,
0000
0010
0000
0010
,
0000
1000
0000
0001
,
0000
1000
0000
0001
,
0000
1000
0000
1000
,
0000
0001
0000
0001
,
0000
0100
0000
0100
,
0000
0010
0000
0010
,
0010
0000
1000
0000
,
0001
0000
1000
1000
,
1000
0000
0001
0000
,
1000
0000
0100
0100
,
0100
0000
0010
0000
,
0001
0000
0010
0010
,
0010
0000
0001
0000
,
1000
0000
0000
1000
,
1000
0000
0001
0000
,
0100
0000
0010
0000
,
1000
0000
0001
0000
,
1000
0000
0100
0000
,
0010
0000
0001
0000
,
0010
0000
0100
0000
,
1000
0000
0100
0000
,
1000
0000
0001
0000
,
1000
0000
0001
0000
,
1000
0000
0010
0000
,
0100
0000
0001
0000
,
0100
0000
0010
0000
,
1000
0000
0000
0000
,
0001
0000
0000
0000
,
1000
0000
1000
0000
,
1000
1000
1000
0000
,
0001
0000
1000
0000
,
0001
0000
0100
0000
,
0001
0000
0001
0000
,
0001
0001
0001
0000
,
0000
1000
0000
0100
,
0000
1000
0000
0001
,
0000
0100
0000
0001
,
0000
1000
0000
0001
,
0000
0010
0000
0100
,
0000
1000
0000
0100
,
0000
0010
0000
0001
,
0001
0000
0000
0000
,
1000
0000
0000
0000
,
0001
0000
0000
0000
,
1000
0000
0000
0001
,
0001
0000
0000
0000
,
0000
1000
0000
0001
,
0000
1000
0000
0001
,
0000
0010
0000
0100
,
0000
1000
0000
0100
,
0000
1000
0000
0001
,
0000
1000
0000
0001
,
0000
1000
0000
0001
,
0001
0000
0100
0000
,
0000
0001
0000
1000
,
0000
0001
0000
0010
,
0010
0000
0100
0000
,
1000
0000
0100
0000
,
0010
0000
0010
0000
,
0100
0000
0100
0000
,
0010
0000
0000
0000
,
0000
0000
0000
0000
,
0000
1000
0000
0001
,
0000
1000
0000
0001
,
0001
0000
0100
0000
,
0010
0000
1000
0000
,
0000
0001
0000
0001
,
0000
1000
0000
1000
,
1000
0000
0000
0000
,
0001
0000
0000
0000
,
0000
0000
0000
0000
,
0000
0000
0100
0000
;

//---------------dance-single - t7r----------------
#NOTES:
     dance-single:
     t7r:
     Easy:
     6:
     :
0000
0000
0000
0000
,
0000
0000
0000
0000
,
0000
0000
0000
0000
,
0000
0000
0000
0000
,
0000
0000
0000
0000
,
0001
0000
1000
0000
,
0001
0001
0100
0100
,
0001
0000
1000
0000
,
1000
1000
0100
0100
,
1000
0000
0001
0000
,
1000
1000
0010
0010
,
0100
0000
0001
0000
,
0001
0001
0200
0300
,
0010
0000
0100
0000
,
0010
0010
0010
0010
,
1000
0000
0001
0000
,
1000
1000
1000
1000
,
0001
0000
1000
0000
,
0001
0001
0001
0001
,
1000
0000
0100
0000
,
0010
0100
0020
0030
,
0001
0000
1000
0000
,
0001
0000
0100
0100
,
0010
0000
1000
0000
,
0001
0000
1000
1000
,
0100
0000
0000
0010
,
1001
0000
0000
0001
,
0101
0000
0010
0000
,
1000
0100
0010
0001
,
1001
0000
0000
0100
,
1001
0000
0000
1000
,
1100
0000
0010
0000
,
0001
0100
0110
1001
,
2000
0000
0000
3000
,
0002
0000
0000
0003
,
1000
0000
1001
0000
,
1001
0000
1001
0000
,
0001
1000
0001
1001
,
1000
0001
1000
1001
,
1001
0000
1001
0000
,
1001
1001
2002
3003
,
0001
0001
0100
0100
,
0010
0010
1000
1000
,
0001
0001
1000
1000
,
0001
0100
0010
1000
,
1000
1000
0100
0100
,
0010
0010
0001
0001
,
1000
0100
0010
0001
,
2000
0000
0000
3000
,
0001
0000
0000
0100
0000
0000
0010
0000
,
1001
0000
0000
1000
0000
0000
0001
0000
,
1001
0000
0000
1000
0000
0000
0100
0000
,
0220
0000
0000
0330
,
0010
0010
0001
0001
,
1000
1000
0100
0100
,
0010
0001
1000
0100
,
0010
0001
1000
0100
,
0010
0010
0001
0001
,
0100
0100
0010
0010
,
1000
1001
0001
1001
,
1000
1001
0001
1001
,
0001
0001
1000
1000
,
0001
0100
1000
0100
,
0001
0001
1000
1000
,
0001
0001
0010
0010
,
0100
0100
0100
0100
,
0100
0100
0100
0100
,
0010
0000
0000
0000
,
0000
0000
0000
0000
,
0001
0000
1000
0000
,
0001
0000
0100
0000
,
0010
0010
0100
0100
,
0010
0010
1000
1000
,
0001
0001
0001
0001
,
0001
0001
0001
0001
,
2000
0000
0000
3000
,
0001
0000
1001
0000
,
1000
0000
1001
0000
,
0101
0000
1100
0000
;

//---------------dance-single - t7r----------------
#NOTES:
     dance-single:
     t7r:
     Medium:
     8:
     :
0000
0000
0000
0000
,
0000
0000
0000
0000
,
0000
0000
0000
0000
,
0000
0000
0000
0000
,
0000
0000
0000
0000
,
0001
0100
0010
1000
,
0100
0010
0001
1001
,
1000
0100
0010
0001
,
0100
0010
1000
1001
,
0001
0100
0001
1000
,
0100
1000
0001
1001
,
1000
0100
1000
0001
,
0100
0001
1000
1001
,
0001
0100
0010
1000
,
0100
0000
0010
0000
0001
0001
0001
0001
,
1000
0001
1000
0100
,
0010
0000
0100
0000
1000
1000
1000
1000
,
0001
1000
0001
0100
,
0010
0000
0100
0000
0010
0010
0010
0010
,
0100
0010
1000
0001
,
1000
0001
0100
1001
,
0001
0100
1000
0100
,
0001
0100
1000
0100
,
0001
0010
1000
0010
,
0001
0010
1000
0010
,
0001
0100
0220
0330
,
1000
0100
0220
0330
,
0001
1000
0001
0100
,
0010
1000
2002
3003
,
1000
0100
2200
3300
,
0010
0001
0022
0033
,
0001
0010
0100
1000
,
0100
0010
2002
3003
,
0001
0000
1000
0000
0000
0100
1000
0000
,
0100
0000
0010
0001
0000
0000
0010
0000
,
0100
0000
1000
0000
0000
0100
0010
0000
,
0001
0000
1000
0001
0000
0000
1000
0000
,
0001
0000
1001
0000
1000
0001
1000
0000
,
0010
0000
0110
0000
0010
0100
0010
0000
,
1000
0110
0001
0110
,
1001
1001
2002
3003
,
0001
0000
0010
0000
0100
1000
0100
0000
,
1000
0000
0010
0000
0100
0001
0100
0000
,
0001
0000
0100
0000
0010
1000
0010
0000
,
1000
0000
0100
0000
0010
0001
0010
0000
,
0001
0000
0010
0000
0100
1000
0001
0000
,
1000
0000
0010
0000
0100
0001
1000
0000
,
0001
0000
1000
0000
0001
1000
0100
0000
,
1000
0000
0001
0000
1000
0001
0200
0000
,
0310
0000
0000
0101
0000
0000
1100
0000
,
1001
0000
0000
0101
0000
0000
1001
0000
,
1001
0000
0000
0110
0000
0000
0010
0000
,
2002
0000
0000
3003
,
0001
1000
0001
0000
1000
0000
0100
0000
,
1000
0001
1000
0000
0001
0000
0100
0000
,
0001
0100
0001
0000
0010
0000
1000
0000
,
1000
0100
1000
0000
0010
0000
0001
0000
,
1000
0100
0020
0000
0031
0010
0100
0000
,
1000
0100
0020
0000
0031
0010
0100
0000
,
1000
1001
0001
1001
,
0001
0110
1000
0110
,
0001
0100
0001
0000
0001
0100
0001
0000
,
1000
0100
1000
0000
1000
0100
1000
0000
,
1000
0100
0010
0001
,
1100
0110
0011
1001
,
0001
0001
1000
1000
,
0001
1000
0001
1000
,
2002
0000
0000
3003
,
0000
0000
0000
0000
,
1000
0001
1000
0001
,
1000
0100
1000
0100
,
0010
0010
0001
0001
,
1000
0100
0010
0001
,
1000
0001
1000
0000
0001
1000
0001
0000
,
1000
0100
1000
0000
0001
0010
0001
0010
,
0100
0000
0000
0000
,
0010
0010
0000
0000
0110
0000
0000
0000
,
1010
0000
0101
0000
,
0011
0000
1100
0000
;

//---------------dance-single - t7r----------------
#NOTES:
     dance-single:
     t7r:
     Hard:
     13:
     :
0000
0000
0000
0000
,
0000
0000
0000
0000
,
0000
0000
0000
0000
,
0000
0000
0000
0000
,
0000
0000
0000
0000
,
0001
0100
1000
0000
0001
0010
1000
0000
,
0001
0100
1000
0000
0001
0100
1000
0100
,
0001
0100
1000
0000
0001
0010
1000
0000
,
0001
0010
1000
0000
0001
0100
1000
0100
,
1000
0100
0001
0000
1000
0010
0001
0000
,
1000
0100
0001
0000
1000
0010
0001
0010
,
1000
0100
0001
0000
1000
0100
0001
0100
,
1000
0100
0001
0000
1000
0010
0001
0000
,
1000
1000
0100
0000
0010
0010
0001
0010
,
0001
0100
0100
0100
0010
0010
1000
0001
,
1000
1000
0010
0000
0100
0100
0001
0100
,
0001
0010
0010
0010
0100
0100
1000
0100
,
0010
0010
0001
0000
0001
0001
0100
0001
,
1000
1000
0010
0010
0100
0100
0001
0001
,
0100
0100
0001
0000
1000
0001
0100
0001
,
1000
0010
0100
0001
0100
0000
1001
0000
,
0001
0000
0000
0001
0100
0000
0000
0100
0001
0000
0000
0001
1000
0000
0000
1000
,
0010
0000
0000
0010
1000
0000
0000
1000
0100
0000
0000
0100
0010
0000
0000
0010
,
0001
0000
0000
0001
0010
0000
0000
0010
1000
0000
0000
1000
0010
0000
0000
0010
,
0100
0000
0000
0100
0001
0000
0000
0001
0100
0000
0000
0100
0010
0000
1000
0000
,
0001
0000
0100
0000
0001
0000
0100
0000
0010
0000
1001
0000
0000
0101
0000
0000
,
0001
0000
1000
0000
0100
0000
0010
0000
0001
0000
0011
0000
0000
1100
0000
0000
,
1000
0100
1000
0001
0110
0000
0010
1000
,
0001
0000
0100
0000
0010
0000
1000
0000
0001
0000
1100
0000
0000
0101
0000
0000
,
1000
0000
0010
0000
0100
0000
0001
0000
0100
0000
0101
0000
0000
1010
0000
0000
,
0010
0000
0100
0000
0001
0000
0100
0000
0001
0000
1001
0000
0000
0110
0000
0000
,
0010
1000
0100
0010
0001
0010
0001
1000
,
0001
0000
0100
0000
0010
0000
1000
0000
0001
0000
1001
0000
0000
1001
0000
0000
,
0001
0100
1000
0100
0001
0100
1000
0100
,
0001
0100
0001
0100
1000
0100
1000
0100
,
0001
0010
0110
0000
1000
0010
0110
0000
,
0010
0100
0101
0000
1001
0000
1100
0000
,
1000
0100
0001
0100
1000
0100
0001
0100
,
1000
0100
1000
0100
0001
0100
0001
0100
,
1000
0010
1010
0000
0001
0100
0101
0000
,
0001
1000
1001
0000
1100
0000
0110
0000
,
0010
0001
0100
1000
0100
0001
0010
1000
,
0010
0001
0100
0001
1000
0100
0010
0001
,
0010
1000
0010
0001
0100
1000
0100
0001
,
0010
1000
0010
0100
0001
0000
1001
0000
,
0001
0100
1000
0100
0001
0010
1000
0010
,
0001
0100
1000
0100
0010
0001
0010
1000
,
0010
0001
0100
1000
0100
1000
0100
0001
,
0010
1000
0010
0001
0100
0000
1001
0000
,
0101
0000
0010
1100
0000
0000
1001
0000
,
0110
0000
1000
0101
0000
0000
0101
0000
,
1100
0000
0001
0011
0000
0000
0110
0000
,
0010
1000
0001
0100
1000
0100
0001
0000
,
1000
0100
1000
0100
0001
0010
0001
0010
,
0001
0100
0001
0100
1000
0010
1000
0010
,
0100
0001
0100
0001
0010
1000
0010
1000
,
0010
0001
0010
0100
0010
1000
0010
1000
,
0010
0001
1100
0000
0010
1000
0101
0000
,
0010
0001
0101
0000
0010
1000
1001
0000
,
0001
0100
1001
0000
1000
0100
1001
0000
,
0001
0010
0110
0100
1000
0100
1001
0000
,
1000
0010
1000
0010
0001
0100
0001
0010
,
0100
0000
0000
0000
1000
0000
0000
0000
0100
0000
0000
0000
1000
0000
0000
0000
0010
0000
0000
0000
1000
0000
0000
0000
0001
0000
0000
0000
1000
0000
0000
0001
,
0100
0000
0000
0000
0000
0000
0000
1000
0001
0000
0000
0000
0000
0000
0000
1000
0100
0000
0000
0000
0000
0000
0000
0010
0001
0000
0000
0000
0000
0000
0000
1000
,
0010
0000
0000
0000
0000
0000
0000
0100
0001
0000
0000
0000
0000
0000
0000
1000
0001
0000
0000
0000
0000
0000
0000
0001
1000
0000
0000
0000
1000
0000
0000
0000
,
0001
0001
0100
0100
1000
1000
0100
0100
,
0001
0001
0010
0010
1000
1000
0010
0010
,
2002
0000
0000
3003
,
0000
0000
0000
1001
,
0010
0100
0101
0000
0010
0100
1100
0000
,
1000
0000
0000
0000
0010
0000
0000
0000
0110
0000
0000
0000
0000
0000
0000
0000
0010
0000
0000
0000
1000
0000
0000
0000
1001
0000
0000
0000
0001
0000
0000
0001
,
0100
0000
0000
0000
0000
0000
0000
0010
1000
0000
0000
0000
0000
0000
0000
0001
1000
0000
0000
0000
0000
0000
0000
1000
0100
0000
0000
0000
0000
0000
0000
0010
,
0001
0000
0000
0000
0000
0000
0000
1000
0100
0000
0000
0000
0000
0000
0000
0010
0100
0000
0000
0000
0000
0000
0000
1000
0001
0000
0000
0000
0001
0000
0000
0000
,
1000
1000
0010
0010
0100
0100
0001
0001
,
0010
0010
1000
1000
0010
0010
0001
0001
,
0200
0000
0000
0300
,
1001
0000
2002
3003
0000
0000
2002
0000
0000
3003
0000
0000
,
0202
0303
2200
3300
,
0022
0033
1100
0000
;

//---------------dance-single - t7r----------------
#NOTES:
     dance-single:
     t7r:
     Challenge:
     17:
     :
0000
0000
0000
0000
,
0000
0000
0000
0000
,
0000
0000
0000
0000
,
0000
0000
0000
0000
,
0000
0000
0000
0000
,
1000
0000
0001
1000
0100
0000
1000
0000
0100
0000
0010
0001
1000
0000
0001
0000
,
0100
0000
0001
0010
0100
0000
1000
0000
0100
0000
0010
0001
1000
0000
0010
0000
,
1000
0000
0100
0010
0001
0000
0100
0000
0010
0000
1000
0001
0010
0000
0001
0000
,
0100
0000
0010
1000
0100
0000
1000
0000
0010
0000
0100
0001
1000
0000
0001
1000
,
0010
0000
1000
0100
0010
0000
0001
0000
1000
0000
0001
0010
0100
0000
0001
0000
,
1000
0000
0010
1000
0100
0000
1000
0000
0001
0000
0010
0001
0100
0000
0001
0000
,
1000
0000
0001
0100
0010
0000
1000
0000
0001
0000
1000
0100
0010
0000
0100
0000
,
1000
0000
0001
0100
0001
0100
0001
1000
0001
0010
0100
1000
0001
0000
0000
0000
,
1100
0000
0100
0010
0000
0010
0100
0000
1000
0000
0100
0010
0001
0000
1000
0000
,
0001
0000
0100
0001
0100
0000
0010
0000
0110
0000
0110
0000
0101
0000
0110
0000
,
0101
0000
0010
0100
0000
0100
0001
0000
1000
0000
0100
0010
0001
0000
1000
0000
,
0001
0000
1000
0001
0010
0000
0011
0000
1010
0000
0110
0000
1010
0000
1001
0000
,
1100
0000
0010
0100
0000
0100
1000
0000
0100
0000
0010
0001
0100
0000
0001
0000
,
1000
0000
0001
1000
0010
0000
1010
0000
0011
0000
1010
0000
0010
1000
0001
0000
,
0101
0000
0010
0100
0000
0100
0001
0000
1000
0000
0001
0010
0100
0000
1000
0000
,
0001
0100
0010
0100
0001
0000
1000
0100
0010
0100
1000
0000
0001
0000
0000
0000
,
1000
0000
0100
0010
0100
0000
1000
0001
1000
0000
0010
0100
0010
0000
1000
0001
,
1000
0000
0001
0010
0001
0000
1000
0100
1000
0000
0001
0100
0001
0000
1000
0010
,
1000
0000
0001
0010
0001
0000
1000
0100
1000
0000
0001
0100
0010
0000
0100
0001
,
1000
0000
0001
1000
0010
0000
1000
0100
0010
0000
0100
1000
0010
0000
0100
0001
,
1000
0000
0001
0010
0001
0000
0001
1000
0001
0000
0001
0100
0001
0000
0001
0010
,
0001
0000
1000
0100
1000
0000
1000
0010
1000
0000
1000
0001
1000
0000
1000
0100
,
0010
0000
0010
0100
0010
0000
0010
1000
0010
0000
0010
0001
0010
0000
0010
0100
,
1000
0000
0100
0010
0100
0000
0100
1000
0010
0000
0100
0000
0110
0000
0000
0000
,
1001
0000
0010
1000
0010
0000
0010
0001
0010
0000
1000
0000
1001
0000
0100
0000
,
1100
0000
0010
0001
0010
0000
0010
1000
0010
0000
0001
0000
1001
0000
0100
0000
,
0101
0000
0001
0100
0010
0000
0100
0000
0110
0000
0010
1000
0100
0000
1000
0000
,
0001
1000
0001
1000
0001
1000
0001
1000
0001
0000
0100
0010
1000
0000
0001
0000
,
2000
0100
0000
0010
,
0000
0001
0000
3100
,
1002
0013
2001
3100
,
0010
0100
0010
0100
0010
0000
1000
0001
0100
0001
1000
0000
0001
0000
1000
0100
,
0010
0000
0100
1000
0001
0000
0100
0001
1000
0001
0000
0001
1000
0000
0001
0010
,
0100
0000
0010
0001
1000
0000
0001
0100
0010
1000
0000
1000
0010
0000
1000
0000
,
0110
0000
0001
0100
1000
0000
0001
0000
0110
0000
1000
0100
0001
0000
1000
0000
,
0100
0010
0100
0010
0100
0000
1000
0001
1000
0001
1000
0000
0001
0000
0100
0001
,
0010
0100
1000
0100
0010
0000
0100
0000
1000
0100
0010
0100
1000
0000
0001
0000
,
0100
0001
0010
0001
0100
0000
0001
0000
0010
0001
0100
0001
0010
0000
0001
0000
,
1000
0100
0010
0100
1000
0100
0010
0100
1000
0100
0010
0100
1000
0100
0010
0100
,
1000
0010
0100
0001
1000
0000
0001
0000
1000
0010
0100
0001
1000
0000
0001
0000
,
0100
0000
0001
0100
0010
0000
1000
0000
0001
0000
1000
0100
0010
0000
0100
0000
,
1000
0000
0001
0010
0100
0000
0010
0000
0001
0000
1000
0100
0001
0000
0100
0000
,
1000
0000
0001
0100
1000
0000
0100
0000
0001
0000
1000
0001
0010
0000
0001
0000
,
1000
0000
0001
0000
2001
0000
0001
0000
0001
0000
3001
0000
1000
0001
0010
0001
,
1000
0000
0100
0010
0001
0000
0110
0000
0001
0000
0100
0000
0010
0000
1000
0000
,
1001
0000
0010
0100
1000
0000
0110
0000
0001
0000
1000
0000
0001
0010
0001
1000
,
0010
0000
0100
0001
1000
0000
0110
0000
0001
0000
1000
0000
0001
0000
0010
0000
,
0100
0010
0100
0010
0100
0000
0010
0001
1000
0001
1000
0001
1000
0000
0001
0100
,
0001
0010
0100
0010
0001
0010
0100
0010
0001
0010
0100
0010
0001
0010
0100
0010
,
0001
0100
0010
0100
0001
0100
0010
0100
0001
0100
0010
0100
0001
0100
0010
0100
,
0010
1000
0001
1000
0010
1000
0001
1000
0010
1000
0001
1000
0010
1000
0001
1000
,
0100
1000
0001
1000
0100
1000
0001
1000
0100
1000
0001
1000
0100
1000
0001
1000
,
0001
0010
0100
0000
0010
0000
1001
0000
1000
0010
0100
0000
0010
0000
1001
0000
,
0100
0001
1000
0000
0001
0000
0110
0000
1000
0001
0100
0000
0001
0000
1100
0000
,
0110
0000
0001
0100
1000
0000
0110
0000
1001
0000
1000
0100
0001
0000
0110
0000
,
1001
0000
0001
0010
1000
0000
0110
0000
1001
0000
1000
0010
0001
0000
0110
0000
,
0010
1000
0100
1000
0010
1000
0100
1000
0010
1000
0100
1000
0010
1000
0100
1000
,
0010
0100
0001
0100
0010
0100
0001
0100
0010
0100
0001
0100
0010
0100
0001
0100
,
0010
1000
0010
0000
0100
0001
0100
0000
0001
0010
0001
0000
1000
0100
1000
0000
,
0001
0010
0100
0000
1000
0010
0100
0000
0001
1000
0010
0000
1000
0001
0100
0000
,
0001
1000
1001
0001
1000
0001
0110
0100
,
0001
0000
1000
0000
0011
0000
1000
0000
0001
0000
1000
0000
0010
0100
0010
0100
,
0002
0000
0000
0003
,
0000
0000
0000
0000
0000
0000
0000
0000
1000
0001
0100
0001
1000
0000
0000
0000
,
0001
0010
0100
0010
0001
0000
1000
0000
0001
0010
0100
0010
0001
0000
1000
0000
,
0010
0000
1000
0000
0100
0000
1000
0000
0010
0000
0000
0000
1000
0000
0000
0000
0010
0000
1000
0000
0100
0000
1000
0000
0001
0000
0000
0000
1000
0000
0000
0100
,
0010
0000
0000
0000
0000
0000
0000
0010
0001
0000
0000
0000
0000
0000
0000
0001
1000
0000
0000
0000
0000
0000
0000
1000
0010
0000
0000
0000
0000
0000
0000
0010
,
1000
0000
0000
0000
0000
0000
0000
1000
0010
0000
0000
0000
0000
0000
0000
0010
0100
0000
0000
0000
0000
0000
0000
0001
1000
0000
0000
0000
0000
0000
0000
0001
,
0010
0000
0001
0000
0100
0001
1000
0001
0010
0000
0001
0000
1000
0100
0010
0100
,
1000
0000
0001
0000
0100
0001
0010
1000
0010
0001
0100
0010
0100
0001
1000
0001
,
1001
0000
0010
0100
0010
0100
0010
0100
0010
0100
0010
0100
0010
0100
0010
0100
,
0010
0000
0220
0330
0000
0000
2002
0000
0000
3003
0000
0000
,
2200
3300
0022
0033
,
0202
0303
1010
0000
;
