#TITLE:precious heart;
#SUBTITLE:;
#ARTIST:GALEYD;
#TITLETRANSLIT:;
#SUBTITLETRANSLIT:;
#ARTISTTRANSLIT:;
#GENRE:;
#CREDIT:;
#MENUCOLOR:;
#METERTYPE:DDR;
#BANNER:precious heart.png;
#BACKGROUND:precious heart-bg.png;
#LYRICSPATH:;
#CDTITLE:./CDTITLES/NONE.PNG;
#MUSIC:precious heart.mp3;
#OFFSET:-0.117;
#SAMPLESTART:51.240;
#SAMPLELENGTH:15.000;
#SELECTABLE:YES;
#LISTSORT:;
#BPMS:0.000=190.000;
#STOPS:;
#BGCHANGES:-4.000=precious heart.avi=1.000=1=0=0,
99999=-nosongbg-=1.000=0=0=0 // don't automatically add -songbackground-
;
#ATTACKS:;

//---------------dance-single - ----------------
#NOTES:
     dance-single:
     :
     Beginner:
     2:
     0.112,0.143,0.026,0.017,0.000:
0000
0000
0000
0000
,
0000
0000
0000
0000
,
0000
0000
0000
0000
,
0000
0000
0000
0000
,
0010
0000
0000
0000
,
0010
0000
0000
0000
,
0100
0000
0000
0000
,
0100
0000
0000
0000
,
0001
0000
1000
0000
,
1001
0000
0000
0000
,
0000
0000
0000
0000
,
0000
0000
0000
0000
,
0000
0000
0000
0000
,
0010
0000
0010
0000
,
0010
0000
0000
0000
,
0100
0000
0100
0000
,
0100
0000
0000
0000
,
0001
0000
0001
0000
,
0001
0000
0000
0000
,
1000
0000
1000
0000
,
1000
0000
0000
0000
,
0001
0000
0000
0000
,
0100
0000
0100
0000
,
0100
0000
0000
0000
,
0010
0000
0000
0000
,
1000
0000
0000
0000
,
0001
0000
0000
0000
,
1000
0000
0000
0000
,
0001
0000
0000
0000
,
0010
0000
0000
0000
,
0100
0000
0000
0000
,
1000
0000
0000
0000
,
0000
0001
0000
0001
,
0000
0000
0000
0000
,
0000
1000
0000
1000
,
0000
0000
0000
0000
,
0000
0010
0000
0010
,
0000
0000
0000
0000
,
0000
0100
0000
0100
,
0100
0000
0000
0000
,
0000
0000
0000
0000
,
0010
0000
0000
0010
,
0010
0000
0000
0000
,
0100
0000
0000
0100
,
0100
0000
0000
0000
,
0001
0000
0000
0001
,
0001
0000
0000
0000
,
1000
0000
0000
1000
,
1000
0000
0000
0000
,
0010
0000
0000
0010
,
0010
0000
0000
0000
,
0100
0000
0000
0100
,
0100
0000
0000
0000
,
0001
0000
0000
0001
,
0001
0000
0000
0000
,
1000
0000
0000
1000
,
1000
0000
0000
0000
,
1001
0000
0000
0000
,
0000
0000
0000
0000
,
0100
0000
0000
0000
,
0010
0000
0000
0000
,
1000
0000
0000
0000
,
0000
0000
0000
0000
,
0000
0000
0000
0000
,
0010
0000
0100
0000
,
0001
0000
0000
0000
,
0001
0000
0000
0000
,
1000
0000
1000
0000
,
1000
0000
0000
0000
,
0001
0000
0000
0001
,
0001
0000
0000
0000
,
1000
0000
0000
1000
,
1000
0000
0000
0000
,
0020
0000
0000
0000
,
0000
0000
0000
0000
,
0000
0000
0000
0000
,
0000
0000
0030
0000
,
0200
0000
0000
0000
,
0000
0000
0000
0000
,
0000
0000
0000
0000
,
0300
0000
0000
0000
,
0001
0000
0000
0000
,
1001
0000
0000
0000
;

//---------------dance-single - ----------------
#NOTES:
     dance-single:
     :
     Easy:
     5:
     0.300,0.374,0.139,0.269,0.000:
0000
0000
0000
0000
,
0000
0000
0000
0000
,
0000
0000
0000
0000
,
0000
0000
0000
0000
,
0001
0100
0100
0000
,
0010
1000
1000
0000
,
1000
0100
0100
0000
,
0010
0000
1001
0000
,
0100
0000
1001
0000
,
0220
0000
0000
0000
,
0000
0000
0000
0000
,
0000
0000
0000
0000
,
0000
0000
0330
0000
,
0010
1000
1000
0000
,
0001
0100
0100
0000
,
0001
0010
0010
0000
,
0100
1000
1000
0000
,
0010
0100
0001
0000
,
0010
0100
1000
0000
,
0100
0010
0001
0000
,
1000
0000
1001
0000
,
0001
0000
1001
0000
,
0100
0100
0100
0000
,
0010
0000
0100
0000
,
1001
0000
0001
1000
,
0001
0000
1000
0100
,
0010
0000
0000
0000
0100
0000
0000
1001
,
0000
0010
0100
0001
,
0010
0100
1000
0000
,
0100
0010
0001
0000
,
1000
0000
0010
0000
0100
0000
0000
1001
,
0000
0010
0020
0030
,
0100
0001
0100
0000
,
0010
1000
0010
0000
,
0001
0000
0010
0000
0100
0000
0000
1001
,
0000
1000
1000
0001
,
1000
0010
1000
0000
,
0001
0100
0001
0000
,
0010
0000
0100
0000
,
1000
0000
0002
0000
,
0003
0000
0000
0000
,
0010
0010
0010
0100
,
0200
0000
0000
0300
,
0001
0001
0001
1000
,
2000
0000
0000
3000
,
0010
0010
0010
1000
,
2000
0000
0000
3000
,
0100
0010
0001
0000
,
0200
0000
0000
0300
,
0010
0010
0010
0100
,
0200
0000
0000
0300
,
0001
0001
0001
0010
,
0020
0000
0000
0030
,
0100
0100
0100
1000
,
2000
0000
0000
3000
,
0020
0030
2000
3000
,
0002
0003
0200
0300
,
2002
0000
0000
0000
,
0000
0000
0000
3003
,
0010
0010
1000
1000
,
0001
0001
0100
0100
,
0002
0000
0000
0000
,
0000
0000
0000
0003
,
0020
0000
0000
0030
,
0200
0300
2000
3000
,
0010
1000
0010
0100
,
0202
0000
0000
0303
,
0010
0001
0010
0100
,
2200
0000
0000
3300
,
1000
0001
0100
0010
,
2000
3000
0002
0003
,
0001
1000
0010
0100
,
0002
0003
2000
3000
,
1001
0010
0010
0000
,
1000
0100
1000
0001
,
0100
0100
0001
0000
,
0010
0001
0010
0100
,
1000
0010
0010
0000
,
0100
0001
1000
0100
,
0010
0100
1000
0000
,
1001
0000
0000
0010
0000
0000
1001
0000
,
0000
0100
0000
0000
0001
0000
1000
0000
,
2002
0000
0000
0000
,
0000
0000
0000
0000
,
0000
0000
0000
0000
,
0000
0000
0000
0000
,
3003
0000
0000
0000
;

//---------------dance-single - ----------------
#NOTES:
     dance-single:
     :
     Medium:
     8:
     0.452,0.486,0.078,0.191,0.039:
0000
0000
0000
0000
,
0000
0000
0000
0000
,
0000
0000
0000
0000
,
0000
0000
0000
0000
,
0010
0000
0100
0000
0001
0100
0010
0000
,
1000
0000
0100
0010
0000
0010
0001
0000
,
1000
0000
0100
0000
0010
0100
1000
0000
,
0001
0100
0000
0010
1000
0000
0001
0100
,
0000
0001
1000
0000
0100
0010
0001
1000
,
0200
0000
0000
0000
,
0000
0000
0000
0000
,
0000
0000
0000
0000
,
0000
0000
0300
0000
,
1001
0000
0010
0000
1000
0001
0000
0100
,
0010
0000
1000
0001
0000
0001
1000
0000
,
0001
0000
0100
0000
0010
1000
0000
0001
,
0100
0000
0001
0010
0000
0100
1000
0000
,
0001
0000
0010
0000
0100
0010
0000
0001
,
0100
0000
0010
1000
0000
0100
1000
0000
,
0100
0000
0010
0000
0001
0100
0000
1000
,
0100
0000
0001
0010
0000
1000
0010
0000
,
0001
0100
0000
1000
0100
0000
0001
1000
,
0001
0100
0100
0100
,
0010
0000
0100
0000
0001
2000
0000
0000
,
3001
0000
0001
0000
1000
0000
0010
1000
,
0000
1000
0001
0000
0100
0001
0200
0000
,
0310
0000
1000
0000
0001
0000
1000
0100
,
0000
0100
0010
0000
0001
0010
0100
0000
,
1000
0000
0010
0000
0100
0000
0001
0100
,
0000
0100
0010
0000
1000
0001
2000
0000
,
3001
0000
0100
0000
0010
0000
0100
0001
,
0000
1000
0100
0000
0010
0000
0000
0001
,
0100
0000
0010
0000
0100
0000
0001
0010
,
0000
0001
0100
0000
0010
1000
0001
0000
,
1000
0000
0100
0000
0010
0000
0100
1000
,
0000
0010
1000
0000
0010
0100
0001
0000
,
1000
0000
0100
0000
0010
0000
0001
0100
,
0000
0001
0010
0000
0001
0100
0010
0000
,
1000
0011
0001
1100
,
0001
0000
0000
0000
0101
0000
0000
0000
0010
0000
0000
0100
0000
0000
0200
0000
,
0000
0000
0300
0100
,
0010
0000
0010
0000
0010
1000
0100
0000
,
0020
0000
0100
1030
,
0010
0000
0010
0000
0010
0001
0100
0000
,
0002
0000
0010
0103
,
1000
0000
1000
0000
1000
0010
0100
0000
,
0020
0000
1000
0130
,
0100
1001
0010
1001
,
0002
0000
0000
0000
1003
0001
1000
0000
,
0001
0000
0001
0000
0001
0010
0100
0000
,
0020
0000
0001
0130
,
1000
0000
1000
0000
1000
0010
0100
0000
,
0020
0000
1000
0130
,
1000
0000
1000
0000
1000
0001
0100
0000
,
0002
0000
1000
0013
,
0100
0010
1000
0001
,
0100
1001
0010
1001
,
0020
0000
0000
0000
,
0000
0000
0000
0030
,
1000
0000
1000
0000
0001
0000
0100
0000
0100
0000
0001
0000
,
1000
0000
0010
0000
0001
0000
0010
0000
1000
0000
0100
0000
,
2000
0000
0000
0000
,
0000
3000
0001
0100
,
0020
0030
0200
0300
,
0002
0003
2000
3000
,
1001
0000
0001
0200
0000
0310
1000
0000
,
0001
0000
0001
0200
0000
0310
1000
0000
,
0001
0000
0010
0000
0010
0100
1000
0000
,
0100
0010
0001
0100
0010
0000
1000
0000
,
0001
0000
0001
0000
1000
0100
0001
0000
,
0100
0000
1000
0010
0000
1000
0001
0000
,
0100
0000
0100
0000
0001
0010
1000
0000
,
0010
0000
0001
0100
0020
0000
0000
0000
,
1030
0000
0010
0000
1000
0100
0010
0000
,
0100
0000
1000
0100
0000
0100
0010
0000
,
0001
0000
0100
0000
0010
1000
0100
0000
,
1000
0000
0001
0100
0000
0100
0010
0000
,
1000
0000
0010
0000
0001
0010
1000
0000
,
0001
0000
0100
0001
0000
0001
0100
0000
,
0001
0000
0010
0000
1000
0100
0001
0000
,
1000
0010
0000
0001
0100
0000
0001
0010
,
0000
1000
0100
0000
1000
0001
1000
0001
,
0200
0000
0000
0000
,
0000
0000
0000
0000
,
0000
0000
0000
0000
,
0000
0000
0000
0000
,
0300
0000
0000
0000
;

//---------------dance-single - ----------------
#NOTES:
     dance-single:
     :
     Hard:
     11:
     0.562,0.673,0.209,0.252,0.048: // measure 1
0000
0000
0000
0000
,  // measure 2
0000
0000
0000
0000
,  // measure 3
0000
0000
0000
0000
,  // measure 4
0000
0000
0000
0000
,  // measure 5
0010
0000
0100
0000
0001
1000
0100
0000
,  // measure 6
0010
0000
0001
0010
0100
0010
0001
0000
,  // measure 7
0100
0000
0010
0000
1000
0001
0010
0000
,  // measure 8
0011
0100
0000
1010
0100
0000
0011
0100
,  // measure 9
0000
1010
0100
0000
0001
1000
0010
0100
,  // measure 10
0002
0000
0000
0000
,  // measure 11
0000
0000
0000
0000
,  // measure 12
0000
0000
0000
0000
,  // measure 13
0000
0000
0003
0000
,  // measure 14
1001
0000
0010
0000
1000
0100
0001
0000
,  // measure 15
1000
0000
0100
0010
0001
0010
0100
1000
,  // measure 16
0010
0000
0100
0000
0001
1000
0100
0000
,  // measure 17
1000
0010
0100
0001
0100
0010
2000
0000
,  // measure 18
3001
0000
0100
0000
0010
1000
0100
0000
,  // measure 19
0010
0001
0100
0010
0100
0001
1000
0000
,  // measure 20
0010
0000
1000
0000
0001
0100
0010
0000
,  // measure 21
1000
0100
0000
0010
0001
0000
1010
0100
,  // measure 22
0000
0011
0100
0000
1000
0001
0100
0010
,  // measure 23
0200
0010
0010
0010
,  // measure 24
0010
0000
0310
0000
0100
2001
0000
0000
,  // measure 25
3001
0010
0100
0000
0010
0000
0001
0000
,  // measure 26
0100
0010
1000
0000
0010
1000
0100
0000
,  // measure 27
0010
0001
1000
0000
0001
0100
0010
2001
,  // measure 28
0000
3100
0010
0100
1000
0010
0200
0000
,  // measure 29
0301
0010
0001
0000
1000
0000
0010
0000
,  // measure 30
0100
0001
1000
0000
0001
1000
0100
0000
,  // measure 31
0010
0001
0010
0000
0100
1000
0010
0200
,  // measure 32
0000
0000
0000
0310
0000
0000
1000
0000
0000
0001
0000
0000
1000
0000
0000
0000
0001
0000
0000
0000
1001
0000
0000
0000
,  // measure 33
0001
0100
0010
0100
0001
0000
1000
0000
,  // measure 34
0100
0000
1000
0000
0010
1000
0100
0000
,  // measure 35
1000
0001
0010
0000
0001
0100
0010
1200
,  // measure 36
0000
1300
0100
0010
0001
0100
0020
0000
,  // measure 37
0130
0001
0100
0010
0100
0000
0010
0000
,  // measure 38
1000
0000
0001
0000
0100
0001
2000
0000
,  // measure 39
3001
0010
0100
0000
0010
0000
0001
0100
,  // measure 40
0010
0000
1000
0000
0100
0000
0010
0000
0001
0000
0000
0110
0000
0000
0220
0000
,  // measure 41
0000
0000
0330
0100
,  // measure 42
0010
0000
0010
0000
0010
1000
0100
0000
,  // measure 43
0020
0100
1000
0130
,  // measure 44
0010
0000
0010
0000
0010
0001
0100
0000
,  // measure 45
0020
0100
0001
0130
,  // measure 46
0001
0000
0001
0000
0001
1000
0100
0000
,  // measure 47
0020
1000
0100
0031
,  // measure 48
0100
1000
0010
0000
0100
0001
0010
0000
,  // measure 49
0100
1000
0010
0100
0001
0000
0110
0000
,  // measure 50
0001
0000
0001
0000
0001
0010
0100
0000
,  // measure 51
0020
0001
0100
1030
,  // measure 52
1000
0000
1000
0000
1000
0010
0100
0000
,  // measure 53
0020
1000
0100
0031
,  // measure 54
0010
0000
0100
0000
0001
1000
0100
0000
,  // measure 55
2000
0001
0100
3001
,  // measure 56
0100
0001
0010
0000
0100
1000
0010
0000
,  // measure 57
0100
0001
0010
0100
1000
0000
0110
0000
,  // measure 58
1010
0000
0010
0000
0010
1000
0100
0000
,  // measure 59
2000
0010
0001
3100
,  // measure 60
0001
0000
0010
0000
0010
0000
0100
0000
0100
0000
0100
0000
,  // measure 61
1000
0000
0010
0000
0100
0000
0001
0000
1000
0000
0001
0000
,  // measure 62
1000
0000
1000
0000
1000
0001
0100
0000
,  // measure 63
0002
0010
0100
1003
,  // measure 64
0200
0000
0310
0000
1000
0001
0100
0000
,  // measure 65
0001
0010
0100
1000
0001
0000
0110
0000
,  // measure 66
0001
0000
0100
0002
0000
1003
0100
0000
,  // measure 67
1000
0000
0100
2000
0000
3001
0100
0000
,  // measure 68
0010
0000
0100
0010
1000
0000
0010
0100
,  // measure 69
0001
0010
0001
0100
1000
0000
0110
0000
,  // measure 70
1000
0000
1000
0000
1000
0010
0100
0000
,  // measure 71
0020
1000
0001
0130
,  // measure 72
0001
0000
0001
0000
0001
0010
0100
0000
,  // measure 73
0010
0001
0100
0001
2000
0000
0000
0000
,  // measure 74
3002
0000
0010
0000
0013
0001
0100
0000
,  // measure 75
0010
1000
0100
0010
0100
0000
1000
0000
,  // measure 76
0010
0000
0010
0000
0010
0100
0001
0000
,  // measure 77
1010
0100
0001
1000
0001
0010
0200
0000
,  // measure 78
0310
0000
0010
0000
0010
0001
0100
0000
,  // measure 79
0001
0010
0100
0010
0001
0000
1000
0001
,  // measure 80
0100
0000
0100
0000
0100
0010
1000
0000
,  // measure 81
1010
0100
0000
0011
0100
0000
1001
0010
,  // measure 82
0000
1001
0100
0000
0010
1000
0001
0100
,  // measure 83
0220
0000
0000
0000
,  // measure 84
0000
0000
0000
0000
,  // measure 85
0000
0000
0000
0000
,  // measure 86
0000
0000
0000
0000
,  // measure 87
0330
0000
0000
0000
;
