#TITLE:memento mori -intro-;
#SUBTITLE:;
#ARTIST:あさき;
#TITLETRANSLIT:;
#SUBTITLETRANSLIT:;
#ARTISTTRANSLIT:Asaki;
#GENRE:;
#CREDIT:;
#MENUCOLOR:;
#METERTYPE:DDR;
#BANNER:memento mori -intro-.png;
#BACKGROUND:memento mori -intro--bg.png;
#LYRICSPATH:;
#CDTITLE:./CDTITLES/GITADORA.PNG;
#MUSIC:memento mori -intro-.ogg;
#OFFSET:-1.412;
#SAMPLESTART:70.588;
#SAMPLELENGTH:15.000;
#SELECTABLE:YES;
#LISTSORT:;
#BPMS:0.000=170.000;
#STOPS:;
#BGCHANGES:-4.000=memento mori -intro-.avi=1.000=0=0=0,
99999=-nosongbg-=1.000=0=0=0 // don't automatically add -songbackground-
;
#ATTACKS:;

//---------------dance-single - ----------------
#NOTES:
     dance-single:
     :
     Beginner:
     2:
     0.105,0.167,0.009,0.037,0.000:
0000
0000
0000
0000
,
0000
0000
0000
0000
,
0000
0000
0000
0000
,
0000
0000
0000
0000
,
1000
0000
0000
0000
,
0001
0000
0000
0000
,
0010
0000
0000
0000
,
0100
0000
0000
0000
,
1000
0000
1000
0000
,
1000
0000
0000
0000
,
0001
0000
0001
0000
,
0001
0000
0000
0000
,
0010
0000
0000
0000
,
0010
0000
0000
0000
,
0100
0000
0000
0000
,
0100
0000
0000
0000
,
0001
0000
0000
0000
,
0001
0000
0000
0000
,
1000
0000
0000
0000
,
1000
0000
0000
0000
,
0001
0000
0000
0000
,
0000
0000
0000
0000
,
0000
0000
0000
0000
,
0000
0000
0000
0000
,
0000
0000
0000
0000
,
1000
0000
0000
0000
,
1000
0000
0000
0000
,
0001
0000
0000
0000
,
0010
0000
0100
0000
,
0010
0000
0000
0000
,
0001
0000
0000
0000
,
1000
0000
0000
0000
,
0010
0000
0100
0000
,
0001
0000
0000
0001
,
0001
0000
0000
0000
,
1000
0000
0000
1000
,
1000
0000
0000
0000
,
0010
0000
0100
0000
,
0001
0000
1000
0000
,
0001
0000
0000
0000
,
1000
0000
0000
0000
,
0001
0000
0000
0000
,
0010
0000
0000
0000
,
0100
0000
0000
0000
,
1000
0000
0000
0000
,
0010
0000
0000
0000
,
0100
0000
0000
0000
,
0001
0000
1000
0000
,
0001
0000
0000
0000
,
2000
0000
0000
0000
,
3000
0000
0000
0000
,
0002
0000
0000
0000
,
0003
0000
0000
0000
,
0010
0000
0000
0000
,
0100
0000
0000
0000
,
0001
0000
0000
0000
,
1000
0000
0000
0000
,
0002
0000
0000
0000
,
0003
0000
0000
0000
,
2000
0000
0000
0000
,
3000
0000
0000
0000
,
0010
0000
0010
0000
,
0100
0000
0000
0000
,
0100
0000
0100
0000
,
0010
0000
0000
0000
,
1000
0000
0000
0000
,
0001
0000
0000
0000
,
1000
0000
0000
0000
,
0010
0000
0000
0000
,
0100
0000
0001
0000
,
0010
0000
0000
0000
,
0100
0000
1000
0000
,
0010
0000
0000
0000
,
1001
0000
0000
0000
;

//---------------dance-single - ----------------
#NOTES:
     dance-single:
     :
     Easy:
     5:
     0.318,0.378,0.064,0.486,0.000:
0000
0000
0000
0000
,
0000
0000
0000
0000
,
0000
0000
0000
0000
,
0000
0000
0000
0000
,
0002
0000
0000
0000
,
0103
0000
0000
0000
,
0020
0000
0000
0000
,
1030
0000
0000
0000
,
0001
0000
1000
0000
,
0010
0100
0001
0000
,
0100
0010
1000
0000
,
0001
0010
0100
1000
,
0002
0000
0000
1003
,
2000
0000
0000
3010
,
0020
0000
0000
0000
,
0130
0100
0010
0100
,
0020
0000
0000
0130
,
0200
0000
0000
0301
,
0002
0000
2003
0000
,
3001
0010
0100
1000
,
0001
0001
1010
0000
,
0100
0010
0001
1000
,
1000
0011
0000
1000
,
0100
0010
0001
0100
,
1000
0100
0001
0100
,
0020
0000
0000
1030
,
2000
0000
3001
1000
,
0002
0000
0000
1003
,
2000
0000
3010
0100
,
0020
0000
0000
0130
,
0200
0000
0301
0010
,
0002
0000
0000
0013
,
0020
0000
0130
1000
,
0001
0100
1000
0100
,
0002
0000
1003
0100
,
1000
0100
0001
0100
,
2000
0000
3002
0000
,
2003
3000
0020
0030
,
0200
0300
0002
0003
,
1000
0100
0010
0001
,
0200
0000
0320
0000
,
1030
0000
0000
0001
0000
0000
0000
0200
,
0000
0000
0000
0300
,
0010
0000
0000
0100
0000
0000
0001
0000
,
1000
0001
2000
3000
,
0001
0000
0000
0100
0000
0000
0010
0000
,
1000
0100
0010
0001
,
1000
0001
1000
0001
,
0220
0000
0000
0330
,
0020
0000
0130
0001
,
0200
0000
0000
0301
,
0100
0100
0100
0100
,
0020
0000
0000
1030
,
0002
0003
2000
3000
,
0020
0030
0200
0300
,
2000
3000
0002
0003
,
0220
0000
0000
0330
,
0010
0010
0010
0010
,
2000
0000
0000
3000
,
0001
0001
0001
0001
,
0200
0000
0000
0301
,
2000
3000
0002
0003
,
0200
0300
0020
0030
,
1000
1010
0001
0101
,
0020
0000
0230
0000
,
0302
1000
0000
1000
,
0000
1000
0000
1003
,
2000
0001
0000
0001
,
0000
0001
0000
3001
,
0100
0010
1000
0010
,
0100
0001
0010
0001
,
1000
0100
0010
0010
,
0001
0100
0010
0100
,
2002
0000
0000
0000
,
0000
0000
0000
0000
,
3003
0000
0000
0000
;

//---------------dance-single - ----------------
#NOTES:
     dance-single:
     :
     Medium:
     10:
     0.569,0.585,0.257,0.596,0.014:
0000
0000
0000
0000
,
0000
0000
0000
0000
,
0000
0000
0000
0000
,
0000
0000
0000
0000
,
1002
0000
0000
0000
,
1003
1000
0000
0000
0100
0000
0010
0000
,
2001
0000
0000
0000
,
3001
0001
0000
0000
1000
0000
0100
0000
,
0020
0000
0000
0031
0100
0000
0010
0000
,
2000
0000
0000
3100
1000
0000
0010
0000
,
0200
0000
0000
0301
1000
0000
0001
0000
,
1000
0100
0010
0001
,
2000
0000
0000
3010
1000
0000
0100
0000
,
0102
0000
0000
0103
0001
0000
0100
0000
,
0120
0000
0000
1030
0010
0000
1000
0000
,
1100
0000
0001
0100
1000
0000
0100
0000
,
0120
0000
0000
1030
0010
0000
0100
0000
,
0201
0000
0000
0301
0100
0000
0001
0000
,
2001
0000
0000
3001
1000
0000
0100
0000
,
0010
0000
0001
0000
1000
0100
0010
0000
,
0100
0100
2001
3010
,
0010
1002
0103
0010
,
1000
0201
0310
0001
,
2100
3001
1000
0020
,
0130
0002
0013
1000
,
1001
0010
0200
0000
0001
0000
0310
0000
,
1000
0100
0020
0000
0100
0000
1030
0000
,
0020
0000
1030
0001
0200
0000
0302
0000
,
2003
0000
3100
0010
0001
0000
0110
0000
,
0010
1000
0200
0000
1000
0000
0310
0000
,
0100
0001
0020
0000
0001
0000
0130
0000
,
0002
0000
1003
0001
0020
0000
0032
0000
,
2003
0000
3001
0100
0010
0000
0110
0000
,
0010
1000
0200
0000
1000
0000
0301
0000
,
0020
0000
0031
0100
0010
0000
2010
0000
,
3200
0000
1300
0010
2000
0000
3002
0000
,
2003
0000
3001
0100
0020
0000
0130
0000
,
0010
1000
0100
0000
0010
0001
0100
0000
,
0010
1000
0001
0000
0100
0000
0110
0000
,
0001
0011
1001
0101
,
1000
0000
1010
0000
1000
0001
0100
0000
,
0010
0100
0001
2000
0000
3001
0010
0002
,
0000
1003
0100
0100
0010
0001
0100
0001
,
2000
0000
0000
3002
0000
0000
2003
0000
,
3010
0100
0001
0100
0020
0000
0130
0000
,
0001
0100
0001
0020
0000
0000
0130
1000
,
0001
1010
1000
0011
,
0100
0110
0100
0110
,
0001
0000
0000
1001
0000
0000
0010
0000
0200
0000
0000
0000
0301
0000
0010
0000
,
0002
0000
0000
0000
0000
0000
1003
0000
0100
0000
0000
0010
0000
0000
0100
0000
,
2000
0000
0000
0000
0000
3010
0100
0001
,
0010
0001
0020
0000
0000
0000
0130
1000
,
0200
0000
0000
2300
,
3002
0000
0103
0001
1000
0001
0010
0000
,
2000
0000
3100
1000
0001
1000
0010
0000
,
0001
0100
0010
1000
0100
0010
0001
0100
,
0020
0000
0130
0000
0001
1000
0001
0100
,
0001
0010
0001
0010
0001
0010
0100
1000
,
0010
1000
0010
1000
0010
1000
0010
0100
,
0001
1000
0001
1000
0001
1000
0100
0010
,
0100
1000
0100
1000
0100
1000
0010
0001
,
0020
0000
1030
0200
0000
0000
0320
0000
,
0032
0000
0000
0000
0000
0000
0000
0000
1003
0000
0000
0001
0000
0000
0100
0000
,
0010
1000
0100
0010
0001
0100
0010
1000
,
0100
0010
0001
0100
0010
0000
0110
0000
,
1002
0010
1000
0100
,
0010
1000
0100
1003
,
2000
0100
0010
0001
,
0001
0010
0001
3100
,
0001
0100
0010
0100
0001
0100
0010
1000
,
0001
0010
0100
1000
0010
0000
0010
0000
,
0100
0001
0200
0000
0302
0000
1003
0001
,
0100
0020
0000
0130
0002
0000
2003
0000
,
0002
0000
0000
0000
,
0000
0000
0000
0000
,
3003
0000
0000
0000
;

//---------------dance-single - ----------------
#NOTES:
     dance-single:
     :
     Hard:
     16:
     0.860,0.894,0.541,0.349,0.647: // measure 1
0000
0000
0000
0000
,  // measure 2
0000
0000
0000
0000
,  // measure 3
0000
0000
0000
0000
,  // measure 4
0000
0000
0000
0000
,  // measure 5
1002
0000
0100
0000
0100
0000
0103
0010
,  // measure 6
1000
1000
0000
0001
0010
0100
0010
0001
,  // measure 7
2001
0000
0100
0000
0100
0000
3100
0010
,  // measure 8
0001
0001
0000
1000
0010
0100
0010
1000
,  // measure 9
0001
0000
1000
0010
0100
0000
0110
0000
,  // measure 10
0001
0010
0100
1000
0100
1000
0010
0100
,  // measure 11
1001
0100
0100
1001
0010
0010
1001
0100
,  // measure 12
1001
0000
0000
0000
0110
0000
0000
0000
0001
1000
0001
1000
0001
1000
0001
1000
,  // measure 13
0010
0000
0000
0010
1000
0000
0000
1000
0001
0000
0000
0001
0100
0000
0000
0100
,  // measure 14
0010
0000
0000
0010
1000
0000
0000
1000
0001
0000
0000
0000
1001
0000
0000
0000
,  // measure 15
0110
0000
0000
0010
1000
0000
0000
1000
0001
0000
0000
0001
0010
0000
0000
0010
,  // measure 16
0001
0000
0000
0000
1001
0000
0000
0000
0110
0000
0010
0100
0001
0000
0100
0000
,  // measure 17
1010
0000
0000
1000
0100
0000
0000
0100
0010
0000
0000
0010
0001
0000
0000
0001
,  // measure 18
0010
0011
1100
0101
,  // measure 19
1001
0000
0000
0001
0010
0000
0000
0010
0001
0000
0000
0001
1000
0000
0000
1000
,  // measure 20
0010
0000
0000
0000
0000
0000
0100
0000
0000
0001
0000
0000
0100
0000
0000
0000
0000
0000
0001
0000
0000
0000
0000
0000
1000
0000
0000
0000
0000
0000
0000
0000
0100
0000
0000
0000
0010
0000
0000
0000
0000
0000
0000
0000
0001
0000
0000
0000
,  // measure 21
0100
0010
0100
0010
1000
0010
0200
0000
0000
0301
0100
0001
,  // measure 22
1000
0010
1000
0002
0000
0000
2003
0000
0000
3001
0010
0001
,  // measure 23
0010
0100
1000
0200
0000
0000
1300
0010
1000
0010
0100
0001
,  // measure 24
0200
0302
1003
1001
,  // measure 25
0001
0000
1000
0000
0001
0000
0020
0000
0000
0000
0000
0000
0031
0000
1000
0000
0001
0000
0100
0000
0000
0001
0000
0000
,  // measure 26
1000
0000
0000
1000
0100
0000
0000
0100
0010
0000
0000
0010
0001
0000
0000
0001
,  // measure 27
1000
0000
0000
1000
0100
0000
0000
0000
0101
0000
0000
0000
1100
0000
0000
0000
,  // measure 28
0001
0000
0000
0001
0010
0000
0000
0010
0100
0000
0000
0100
1000
0000
0000
1000
,  // measure 29
0001
0000
0000
0001
0010
0000
0000
0010
1000
0000
0010
0001
0100
0000
0001
0000
,  // measure 30
0110
0000
0000
0010
1000
0000
0000
1000
0001
0000
0000
0001
0100
0000
0000
0100
,  // measure 31
1000
0101
1010
0011
,  // measure 32
1100
0000
0000
0100
1000
0000
0000
1000
0010
0000
0000
0010
0100
0000
0000
0100
,  // measure 33
0001
0000
1000
0001
0010
0000
0001
0000
1000
0000
0100
0010
0001
0000
1000
0000
,  // measure 34
1001
0000
0001
0100
0001
0000
0010
0000
0100
0000
0000
0100
0010
0000
0001
0000
,  // measure 35
1000
0000
1000
0100
1000
0000
0010
0000
0100
0000
0000
0100
0010
0000
1000
0000
,  // measure 36
0001
0000
0001
0100
0001
0000
1000
0000
0100
0000
0000
0100
1000
0000
0001
0000
,  // measure 37
1000
0000
1000
0010
1000
0000
0001
0000
1000
0000
0001
1000
0100
0000
1000
0000
,  // measure 38
0001
0000
0100
0010
1000
0000
0010
0000
0100
0000
0001
0010
0100
0000
1000
0000
,  // measure 39
0100
0000
0001
0100
1000
0000
0100
0000
1000
0000
0010
1000
0001
0000
0100
0000
,  // measure 40
0001
0000
0000
0001
1000
0000
0000
1000
0001
0000
0000
0001
1000
0000
0000
1000
,  // measure 41
0001
0000
0000
0000
1001
0000
0000
0000
0010
0100
0010
0100
0001
0000
0100
0000
,  // measure 42
1010
0001
0100
0102
0000
1003
0010
2100
,  // measure 43
0000
0000
3001
0000
1000
0000
0010
0000
0100
0000
0001
0100
0001
0000
0100
0000
,  // measure 44
1010
0000
0001
0000
0001
0000
1001
0000
1000
0000
1000
0000
0001
0010
0001
0000
,  // measure 45
1000
0000
0100
0000
0010
0000
0100
0000
0020
0000
0000
0000
0031
0100
0000
0000
,  // measure 46
0010
1000
0010
1000
0001
0000
2001
0000
0000
0000
3001
0000
1000
0000
0000
0000
,  // measure 47
0001
0100
0001
1000
0010
1000
0001
0010
0100
1000
0100
0010
,  // measure 48
0001
1000
0001
0100
0010
0100
0010
1000
0010
0100
0001
0100
,  // measure 49
1001
0000
0000
0101
0000
0000
1001
0000
2100
0000
0000
0000
3001
0000
0100
0000
,  // measure 50
0020
0000
1000
0000
0100
0000
1030
0000
0002
0000
1003
0010
0000
0010
1000
0000
,  // measure 51
0002
0010
0100
1000
0103
0020
2030
3002
,  // measure 52
2003
0000
3200
0000
0320
0000
0100
0000
1000
0000
0100
0000
1030
0000
0001
0100
,  // measure 53
0020
0100
0001
0100
0001
0130
0001
1000
,  // measure 54
1001
0010
1000
0101
0000
1100
0000
1000
,  // measure 55
1001
0010
0001
1100
0010
0101
0010
1000
,  // measure 56
1001
0011
0000
1100
0000
0101
0000
1000
,  // measure 57
1001
0000
0001
0100
0010
0000
0100
0000
0010
1000
0010
0000
0100
0001
0100
0000
,  // measure 58
0002
0000
0010
0000
0100
0000
1000
0000
0100
0000
0010
0000
0103
0000
1000
0010
,  // measure 59
1000
0000
0001
0100
0000
0100
0001
0000
0010
0000
0001
0010
0000
0010
0001
0000
,  // measure 60
2000
0000
0100
0000
0010
0000
0001
0000
0010
0000
0100
0000
3010
0000
0001
0100
,  // measure 61
0020
0100
0001
0100
0001
1000
0031
1000
,  // measure 62
0001
1001
0000
0101
0000
1001
0000
1000
,  // measure 63
0001
0000
1001
0000
0000
0000
1100
0000
0001
0000
1000
0001
0000
0001
0100
0000
,  // measure 64
0010
0000
0100
0001
0010
0000
0100
0000
1000
0000
0010
1000
0100
0000
1000
0000
,  // measure 65
0001
0000
0000
1000
0000
0000
0001
0000
0000
1000
0000
0000
0010
0000
0000
0100
0000
0000
0010
0000
0000
0100
0000
0000
0010
0000
0000
0000
1000
0000
0000
0000
0100
0000
0000
0000
0001
0000
0000
0000
0100
0000
0000
0000
1000
0000
0000
0000
,  // measure 66
0010
0000
0000
0010
0100
0000
0001
0000
0100
0000
0010
1000
0100
0000
1000
0000
,  // measure 67
0100
0000
0000
0100
0010
0000
0001
0000
0100
0000
0010
1000
0001
0000
1000
0000
,  // measure 68
0002
0000
0000
1003
0010
0000
1000
0000
0100
0000
0010
0100
1000
0000
0001
0000
,  // measure 69
0200
0000
0000
0000
0000
0000
0000
0000
0000
0310
0000
0000
0100
0000
0000
0000
0000
0000
0001
0000
0000
0000
0000
0000
1000
0000
0000
0000
0001
0000
0000
0000
1000
0000
0000
0000
0010
0000
0000
0000
0000
0000
0110
0000
0000
0000
0000
0000
,  // measure 70
1001
0010
0200
1300
1000
0010
0200
0301
,  // measure 71
0001
0010
0001
2000
3001
0010
0200
0000
,  // measure 72
0310
0001
0200
0010
2300
0001
3002
1000
,  // measure 73
1003
1010
0001
0100
0110
0000
0101
0000
,  // measure 74
2002
0000
0000
0000
,  // measure 75
0000
0000
0000
0000
,  // measure 76
3003
0000
0000
0000
;

//---------------dance-single - ----------------
#NOTES:
     dance-single:
     :
     Challenge:
     18:
     1.000,1.000,0.459,0.275,1.000:
0000
0000
0000
0000
,
0000
0000
0000
0000
,
0000
0000
0000
0000
,
0000
0000
0000
0000
,
0012
0000
0000
0000
0100
0000
0000
0000
0100
0000
0000
0000
0103
0000
0010
1000
,
0001
0000
1001
0000
0000
0000
0001
0100
0001
0000
0010
0000
0100
0000
1000
0000
,
2100
0000
0000
0000
0001
0000
0000
0000
0001
0000
0000
0000
3010
0000
0100
0010
,
1000
0000
0110
0000
0000
0000
0010
0000
0100
0001
0010
0000
0100
0000
1000
0000
,
0001
0000
0100
0001
0010
0000
0011
0100
,
1000
0010
0100
0001
1010
0100
0100
0010
,
1001
0000
0100
0000
0100
0000
1001
0000
0010
0000
0010
0100
0001
0000
1000
0000
,
1001
0000
0001
0010
0100
0000
1000
0010
0100
0010
0100
0010
0100
0010
1000
0010
,
1000
0000
0001
0100
0001
0000
1000
0100
1000
0000
0001
0010
0001
0000
1000
0001
,
1000
0000
0010
0100
0010
0000
0100
0001
0100
0000
0001
1000
0001
0000
1000
0000
,
1001
0000
0010
1000
0010
0000
0100
0001
0100
0000
0001
0010
0001
0000
1000
0100
,
1000
0000
0010
1000
0010
0000
0100
0001
1000
0000
0110
0000
0001
0000
1000
0000
,
1001
0000
0001
0010
0001
0000
1000
0100
1000
0000
0100
1000
0100
0000
1000
0010
,
1000
0000
0010
1000
0001
0000
0100
0001
0010
0000
0001
0100
0010
0100
0001
1000
,
0001
0000
0010
0001
0100
0000
0010
1000
0100
0000
1000
0010
0100
0000
0010
1000
,
0001
0100
0010
1000
0100
0010
0100
1000
0010
0001
0010
1000
,
0100
0100
0100
0100
0100
0100
2010
0000
0000
3100
0100
0100
,
0100
0100
0100
0010
0001
0100
1000
0100
0001
0010
0010
0010
,
0010
0010
0010
2001
0000
0000
3001
0001
0001
0001
0001
0001
,
0011
0000
0000
1100
0000
0100
1000
0010
1000
0001
1000
0010
,
0100
0100
0100
0001
0001
0001
1000
1000
1000
0010
0010
0010
,
0100
0000
0010
1000
0100
0000
0010
0001
0100
0000
0010
1000
0001
0000
0100
0001
,
0010
0000
0100
1000
0010
0100
0001
0100
0010
1000
0001
1000
0001
0000
1000
0001
,
0010
0000
0001
0100
0010
0000
0100
0001
0010
0000
0100
1000
0010
0000
0100
0001
,
1000
0000
0010
1000
0100
0000
0010
0001
0100
0010
0100
0001
1000
0001
0010
0001
,
1000
0000
0100
0010
0001
0000
0100
0010
1000
0000
0010
1000
0100
0000
0010
0001
,
1000
0000
0001
0100
0010
0000
0100
0001
0010
0001
1000
0100
0010
0100
1000
0010
,
1000
0000
0010
1000
0100
0000
0010
0001
0100
0000
0010
1000
0001
0000
0100
0001
,
1000
0001
1000
0001
0100
0010
0100
0010
1000
0100
0010
0001
1000
0100
0001
1000
,
0010
0000
0001
0100
0001
0100
0010
0100
0001
0000
1000
0100
1000
0100
0010
0100
,
1000
0000
0010
1000
0010
1000
0001
0100
0010
0100
0001
0010
0100
1000
0001
1000
,
0001
0000
0100
0001
0100
0001
0010
0001
0010
0000
1000
0100
0010
0100
1000
0010
,
1000
0000
0010
1000
0001
0100
0010
1000
0100
0001
0100
1000
0010
1000
0001
1000
,
0001
0000
0110
0000
1001
0000
0001
0100
0010
0000
0110
0000
1000
0100
0010
0100
,
1000
0001
0100
0001
1000
0000
0001
1000
0010
0000
0100
0001
1000
0000
0001
0010
,
0001
0100
0001
0100
0010
1000
0010
1000
0100
1000
0100
0001
0100
1000
0010
1000
,
0001
0010
0100
1000
0001
0010
0100
1000
0001
0010
1000
0001
0100
1000
0001
0010
,
1001
0010
0100
0201
0000
0301
0010
2100
,
0000
0000
3001
0000
1000
0000
0010
0100
0010
0100
0001
0100
0001
0010
0001
0000
,
1001
0000
0100
0000
0100
0000
1001
0000
0010
0000
0010
0000
1000
0100
0010
0000
,
0001
0100
0010
0000
1000
0010
1000
0001
0200
0000
0000
0000
0310
0100
0000
0000
,
0001
0010
0001
0010
0001
0000
1100
0000
0001
0000
0100
0001
1000
0000
1010
0000
,
0010
0000
0000
0100
0000
0000
0010
0000
0000
0100
0000
0000
0001
0000
0000
0100
0000
0000
1000
0000
0000
0100
0000
0000
0001
0000
0000
0000
1000
0000
0000
0000
0001
0000
0000
0000
1000
0000
0000
0000
0010
0000
0000
0000
0100
0000
0000
0000
,
0010
0010
0010
1001
0100
0100
1000
1000
1000
0011
0100
0100
,
0110
0000
0000
1001
0000
0000
1100
0000
0102
0000
0000
0000
1003
0010
0100
0010
,
2000
0000
3010
1000
0100
1000
0010
0100
0001
0000
0010
0001
0000
0001
0010
0000
,
0002
0000
0103
0001
0010
0001
0100
0010
1000
0000
0020
0000
0230
0000
0302
0000
,
1003
0100
1000
0100
1000
0010
1000
0010
1000
0001
1000
0001
1000
0001
0100
0010
,
0100
0001
0100
0001
0100
0001
0010
0001
1000
0100
0010
0001
1000
0100
0010
0001
,
2000
0000
3010
0000
0100
0010
1000
0000
0020
0000
0130
0000
0002
0000
0013
0001
,
0200
0000
0301
0000
0100
0001
1010
0000
0001
0000
0101
0000
1100
0000
0100
0010
,
0001
0010
0001
0010
0001
0010
0100
1000
0001
0100
0001
0100
0001
0100
0010
1000
,
0001
0010
0100
1000
0001
0010
0100
1000
0001
0010
1000
0001
0100
1000
0001
1000
,
0001
0000
1000
0010
1000
0010
0100
0001
0010
0000
0001
0010
0001
0010
0100
1000
,
0010
0000
0100
0001
0000
1000
0001
0000
0010
0001
0100
0001
0010
0001
1000
0010
,
0100
0000
0010
1000
0100
1000
0010
1000
0100
0000
0001
1000
0100
1000
0010
1000
,
0001
0000
0100
0010
1000
0010
0100
0001
0010
0001
0010
0001
0010
0100
1000
0010
,
0100
1010
0100
1010
0100
0011
0100
0011
,
1000
0000
0101
0000
1000
0000
0101
0000
0001
0000
1010
0000
0001
1000
0010
0100
,
0001
0100
0001
0100
0010
1000
0100
0001
0100
1000
0100
1000
0010
0100
0001
0010
,
0001
0100
1000
0100
0001
0010
1000
0010
0001
0100
1000
0001
0010
1000
0001
0100
,
0020
0000
0000
0130
0010
0000
1000
0000
0010
0000
1000
0000
0001
0000
1000
0001
,
0200
0000
0000
0301
0010
0000
0001
0000
0100
0000
0010
1000
0100
0000
0010
0001
,
2000
0000
0000
3010
1000
0000
0001
0000
1000
0000
0001
0100
0010
0000
0100
0001
,
0020
0000
0000
0000
0000
0000
0000
0000
0000
0031
0000
0000
0010
0000
0000
0000
0000
0000
0100
0000
0000
0000
0000
0000
1000
0000
0000
0000
0100
0000
0000
0000
0100
0000
0000
0000
0010
0000
0000
0000
0000
0000
0110
0000
0000
0000
0000
0000
,
0001
0101
2000
3100
1000
1100
0002
0103
,
0010
0100
0002
0010
0100
1003
0010
0100
,
1010
0100
2010
0000
3002
0000
1003
0100
,
0110
1002
0000
0103
2010
0000
3200
0000
,
0020
0000
0000
0000
,
0000
0000
0000
0000
,
0330
0000
0000
0000
;
