#TITLE:maximum the hormone;
#SUBTITLE:;
#ARTIST:マキシマム ザ ホルモン;
#TITLETRANSLIT:;
#SUBTITLETRANSLIT:;
#ARTISTTRANSLIT:MAXIMUM THE HORMONE;
#GENRE:;
#CREDIT:;
#MENUCOLOR:;
#METERTYPE:DDR;
#BANNER:maximum the hormone.png;
#BACKGROUND:maximum the hormone-bg.png;
#LYRICSPATH:;
#CDTITLE:./CDTITLES/NONE.PNG;
#MUSIC:maximum the hormone.ogg;
#OFFSET:0.000;
#SAMPLESTART:49.532;
#SAMPLELENGTH:15.000;
#SELECTABLE:YES;
#LISTSORT:;
#DISPLAYBPM:143.000:197.000;
#BPMS:0.000=132.000,8.000=130.000,12.000=136.000,34.000=143.000,36.000=136.000,40.021=141.000,42.000=147.000,48.000=144.000,52.000=143.000,84.000=142.000,96.000=143.000,100.000=145.000,112.000=147.000,124.000=152.000,136.000=155.000,144.000=157.000,148.000=180.000,156.000=187.000,164.000=189.000,172.000=185.000,188.000=189.000,212.000=190.000,220.000=192.000,224.000=197.000,228.000=195.000,236.000=197.000,307.000=195.000,323.000=180.000;
#STOPS:290.000=0.30456852791878172588832487309645
;
#BGCHANGES:0.000=maximum the hormone.avi=1.000=0=0=0,
99999=-nosongbg-=1.000=0=0=0 // don't automatically add -songbackground-
;
#ATTACKS:;

//---------------dance-single - ----------------
#NOTES:
     dance-single:
     :
     Beginner:
     3:
     0.106,0.165,0.025,0.000,0.000: // measure 1
0000
0000
0000
0000
,  // measure 2
0000
0000
0000
0000
,  // measure 3
0000
0000
0000
0000
,  // measure 4
0000
0000
0000
0000
,  // measure 5
0000
0000
0000
0000
,  // measure 6
0010
0000
0000
0000
,  // measure 7
1000
0000
0000
0000
,  // measure 8
0001
0000
0000
0000
,  // measure 9
0100
0000
0000
0000
,  // measure 10
0010
0000
0000
0000
,  // measure 11
0010
0000
0000
0000
,  // measure 12
1000
0000
0000
0000
,  // measure 13
0001
0000
0000
0000
,  // measure 14
1000
0000
0000
0000
,  // measure 15
1000
0000
0000
0000
,  // measure 16
0001
0000
0000
0000
,  // measure 17
0001
0000
0000
0000
,  // measure 18
0010
0000
0000
0000
,  // measure 19
0010
0000
0000
0000
,  // measure 20
0100
0000
0000
0000
,  // measure 21
0100
0000
0000
0000
,  // measure 22
1000
0000
0000
0000
,  // measure 23
0001
0000
0000
0000
,  // measure 24
0100
0000
0000
0000
,  // measure 25
0010
0000
0000
0000
,  // measure 26
0100
0000
0000
0000
,  // measure 27
0010
0000
0000
0000
,  // measure 28
0100
0000
0000
0000
,  // measure 29
1001
0000
0000
0000
,  // measure 30
1000
0000
0000
0000
,  // measure 31
0001
0000
0000
0000
,  // measure 32
1000
0000
0000
0000
,  // measure 33
0001
0000
0001
0000
,  // measure 34
0001
0000
0000
0000
,  // measure 35
1000
0000
0000
0000
,  // measure 36
0010
0000
0000
0000
,  // measure 37
0100
0000
0100
0000
,  // measure 38
0100
0000
0000
0000
,  // measure 39
0000
0000
0000
0000
,  // measure 40
0000
0010
0000
0010
,  // measure 41
0000
0010
0000
0000
,  // measure 42
0000
1000
0000
0000
,  // measure 43
0000
1000
0000
0000
,  // measure 44
0000
0001
0000
0000
,  // measure 45
0000
0001
0000
0000
,  // measure 46
0000
0100
0000
0000
,  // measure 47
0000
0100
0000
0000
,  // measure 48
0000
0010
0000
0000
,  // measure 49
0000
0010
0000
0000
,  // measure 50
0000
1000
0000
1000
,  // measure 51
0000
1000
0000
0000
,  // measure 52
0000
0001
0000
0001
,  // measure 53
0000
0001
0000
0000
,  // measure 54
0000
0010
0000
0010
,  // measure 55
0000
0010
0000
0000
,  // measure 56
0000
0100
0000
0100
,  // measure 57
0000
0100
0000
0000
,  // measure 58
0010
0000
0010
0000
,  // measure 59
0010
0000
0000
0000
,  // measure 60
0001
0000
0001
0000
,  // measure 61
0001
0000
0000
0000
,  // measure 62
1000
0000
1000
0000
,  // measure 63
1000
0000
0000
0000
,  // measure 64
0010
0000
0010
0000
,  // measure 65
0010
0000
0000
0000
,  // measure 66
0100
0000
0000
0000
,  // measure 67
0000
0000
0000
0000
,  // measure 68
0000
0000
0000
0000
,  // measure 69
0000
0000
0000
0000
,  // measure 70
0001
0000
0000
0000
,  // measure 71
0001
0000
0000
0000
,  // measure 72
1000
0000
0000
0000
,  // measure 73
1001
0000
0000
1000
,  // measure 74
0000
1000
0000
1000
,  // measure 75
0000
0000
0000
0001
,  // measure 76
0000
0001
0000
0001
,  // measure 77
0000
0000
0000
0010
,  // measure 78
0000
0010
0000
0010
,  // measure 79
0000
0000
0000
0100
,  // measure 80
0000
0100
0000
0100
,  // measure 81
0000
0000
0000
1001
;

//---------------dance-single - ----------------
#NOTES:
     dance-single:
     :
     Easy:
     5:
     0.262,0.335,0.098,0.131,0.000: // measure 1
0000
0000
0000
0000
,  // measure 2
0000
0000
0000
0000
,  // measure 3
0000
0000
0000
0000
,  // measure 4
0000
0000
0000
0000
,  // measure 5
0000
0000
0000
0000
,  // measure 6
0001
0000
0100
0100
,  // measure 7
0010
0000
1000
1000
,  // measure 8
0100
0000
0010
0010
,  // measure 9
0001
0000
1000
0001
,  // measure 10
1001
0000
0100
0000
,  // measure 11
0010
0000
1000
0000
,  // measure 12
0001
0000
0010
0000
,  // measure 13
0100
0000
1000
0000
,  // measure 14
0001
0001
0001
0000
,  // measure 15
1000
1000
1000
0000
,  // measure 16
0010
0010
0010
0000
,  // measure 17
0200
0000
0300
0000
,  // measure 18
0010
0010
0010
0000
,  // measure 19
1000
1000
1000
0000
,  // measure 20
0001
0001
0001
0000
,  // measure 21
2000
0000
3000
0000
,  // measure 22
1001
0000
0000
0000
,  // measure 23
0001
0000
0000
0000
,  // measure 24
1000
0000
0000
0000
,  // measure 25
0020
0000
0030
0000
,  // measure 26
0100
0100
0100
0100
,  // measure 27
0010
0010
0010
0010
,  // measure 28
1000
1000
1000
1000
,  // measure 29
2002
0000
0000
3003
,  // measure 30
1000
0000
0001
1001
,  // measure 31
1000
0000
1000
1001
,  // measure 32
0001
0000
0100
0110
,  // measure 33
0010
0000
0010
0100
,  // measure 34
1001
0000
1000
1001
,  // measure 35
0001
0000
0001
1001
,  // measure 36
1000
0000
0010
0110
,  // measure 37
0100
0000
0100
0000
,  // measure 38
0020
0000
0000
0000
,  // measure 39
0000
0030
0000
0000
,  // measure 40
1000
0001
0000
0001
,  // measure 41
1000
0001
0000
0100
,  // measure 42
0010
0100
0000
0010
,  // measure 43
1000
0010
0000
1000
,  // measure 44
0100
1000
0000
0100
,  // measure 45
0010
0000
0000
0000
,  // measure 46
0001
0010
0000
0010
,  // measure 47
0001
0010
0000
0001
,  // measure 48
0100
0001
0000
0100
,  // measure 49
0010
0000
0000
0000
,  // measure 50
1000
0000
1000
0001
,  // measure 51
1000
0000
0001
0100
,  // measure 52
0001
0000
1000
0100
,  // measure 53
2000
0000
3000
0000
,  // measure 54
0001
0000
0010
0001
,  // measure 55
0010
0000
0001
1000
,  // measure 56
0001
0000
1000
0001
,  // measure 57
0200
0000
0300
0000
,  // measure 58
0001
0001
1000
1000
,  // measure 59
0001
1000
0001
1000
,  // measure 60
0001
0001
1000
0001
,  // measure 61
2000
0000
3000
0000
,  // measure 62
1000
1000
0001
0001
,  // measure 63
1000
0001
1000
0001
,  // measure 64
1000
1000
0001
1000
,  // measure 65
0020
0000
0030
0000
,  // measure 66
0220
0000
0000
0000
,  // measure 67
0000
0000
0000
0000
,  // measure 68
0330
0000
0000
0000
,  // measure 69
0000
0000
0000
0000
,  // measure 70
0100
0000
0100
0000
,  // measure 71
0010
0000
0010
0000
,  // measure 72
1000
0001
1000
0001
,  // measure 73
1000
1000
1000
0010
,  // measure 74
0100
0010
0010
0100
,  // measure 75
0010
0100
0010
1000
,  // measure 76
0001
1000
1000
0002
,  // measure 77
0003
1000
0001
0100
,  // measure 78
0010
0100
0010
0010
,  // measure 79
0100
0010
0100
0001
,  // measure 80
0010
0100
1000
0002
,  // measure 81
0003
1000
0001
0220
,  // measure 82
0000
0000
0000
0330
;

//---------------dance-single - ----------------
#NOTES:
     dance-single:
     :
     Medium:
     8:
     0.401,0.435,0.090,0.246,0.033: // measure 1
0000
0000
0000
0000
,  // measure 2
0000
0000
0000
0000
,  // measure 3
0000
0000
0000
0000
,  // measure 4
0000
0000
0000
0000
,  // measure 5
0000
0000
0000
0000
,  // measure 6
0002
0000
0000
2003
0000
0000
3000
0000
,  // measure 7
0020
0000
0000
0230
0000
0000
0300
0000
,  // measure 8
0002
0000
0000
0023
0000
0000
0030
0000
,  // measure 9
0200
0000
0000
2300
0000
0000
3000
0000
,  // measure 10
0001
0000
0001
0000
1000
1000
0000
0000
,  // measure 11
0010
0000
0010
0000
0100
0100
0000
0000
,  // measure 12
0001
0000
0010
0000
0100
1000
0000
0000
,  // measure 13
1000
0000
0010
0000
0100
0001
0000
0000
,  // measure 14
1000
0000
0010
0000
1000
0100
1000
0000
,  // measure 15
1000
0000
0010
0000
1000
0100
1000
0000
,  // measure 16
0001
0000
0010
0000
0001
0100
0001
0000
,  // measure 17
2000
0000
0000
3000
,  // measure 18
0010
0000
1000
0000
0010
0100
0010
0000
,  // measure 19
1000
0000
0010
0000
0100
0010
0100
0000
,  // measure 20
0001
0000
0010
0000
0100
0010
0001
0000
,  // measure 21
0200
0000
0000
0300
,  // measure 22
0020
1000
0000
1030
,  // measure 23
0002
0010
0000
0013
,  // measure 24
0200
1000
0000
1300
,  // measure 25
0020
0000
0000
0030
,  // measure 26
0110
0100
0100
0100
,  // measure 27
0010
0010
0010
0010
,  // measure 28
1000
0001
1000
0001
1000
0001
1000
0000
,  // measure 29
2002
0000
0000
3003
,  // measure 30
1000
0000
0000
0001
0000
0000
1000
0000
0001
0000
0000
0000
0001
0000
0000
0000
,  // measure 31
0100
0000
0000
0010
0000
0000
0100
0000
0010
0000
0000
0000
0010
0000
0000
0000
,  // measure 32
1000
0000
0000
0100
0000
0000
0010
0000
0001
0000
0000
0000
0001
0000
0000
0000
,  // measure 33
0100
0000
0000
0100
0000
0000
0010
0000
0100
0000
0000
0000
0110
0000
0000
0000
,  // measure 34
0001
0000
0000
0010
0000
0000
0100
0000
1000
0000
0001
0000
1000
0000
0000
0000
,  // measure 35
1000
0000
0000
0010
0000
0000
0100
0000
0001
0000
1000
0000
0001
0000
0000
0000
,  // measure 36
0010
0000
0000
0001
0000
0000
1000
0000
0001
0000
0100
0000
0010
0000
0000
0000
,  // measure 37
1000
0000
0000
1000
0000
0000
1000
0000
0001
0000
1000
0000
0001
0000
0000
0000
,  // measure 38
2002
0000
0000
0000
,  // measure 39
0000
0000
3003
0000
0000
0010
0000
0010
,  // measure 40
0100
0000
0000
0100
0000
0100
0001
0000
,  // measure 41
0010
0000
0000
0100
0000
0100
1000
0000
,  // measure 42
0001
0000
0010
0000
0000
0001
0010
0000
,  // measure 43
0001
0000
1000
0100
0000
0100
1000
0000
,  // measure 44
1000
0000
0010
0000
0000
1000
0001
0000
,  // measure 45
0100
0010
1000
0001
,  // measure 46
0010
0000
0100
0000
0000
0010
0001
0000
,  // measure 47
1000
0000
0010
0100
0000
0100
0001
0000
,  // measure 48
1000
0000
0100
0000
0000
1000
0001
0000
,  // measure 49
0220
0000
0000
0330
,  // measure 50
0010
0000
1000
0010
0000
1000
0100
0000
,  // measure 51
1000
0000
0000
1000
0000
1000
0001
0000
,  // measure 52
0001
0000
0010
0001
0000
0010
0100
0000
,  // measure 53
0020
0001
0000
1030
,  // measure 54
0100
0000
0010
0001
0000
1000
0010
0000
,  // measure 55
0100
0000
0000
0010
0000
0010
0100
0000
,  // measure 56
0001
0000
1000
0001
0000
1000
0010
0000
,  // measure 57
2000
0000
0000
0000
3001
1000
0001
1000
,  // measure 58
0001
0011
0100
1100
,  // measure 59
1000
0000
1000
0001
0100
0000
0100
0000
,  // measure 60
0010
0000
0010
1000
0100
0000
0100
0000
,  // measure 61
0020
0000
0001
1030
,  // measure 62
1000
1010
0100
0101
,  // measure 63
0010
0000
0010
0100
1000
0000
0100
0000
,  // measure 64
0010
0000
0010
0001
1000
0000
1000
0000
,  // measure 65
2002
0000
3003
0000
0010
0100
0010
0100
,  // measure 66
0020
0000
0000
0000
,  // measure 67
0000
0000
0000
0000
,  // measure 68
0030
0000
0000
0000
,  // measure 69
0000
0000
0000
0000
,  // measure 70
0100
0100
0100
0100
,  // measure 71
0010
0010
0010
0010
,  // measure 72
1000
0001
1000
0001
,  // measure 73
1000
0001
1000
0001
1000
0000
0001
0010
,  // measure 74
0001
0000
1000
0100
1000
0000
0010
0000
,  // measure 75
0010
0100
0001
0000
0001
0000
1000
0010
,  // measure 76
1000
0000
0001
0100
0001
0000
2000
0000
,  // measure 77
0000
0000
3001
1000
0001
1000
0010
0100
,  // measure 78
0010
0000
0100
0001
0100
0000
0001
0000
,  // measure 79
1000
0001
0010
0000
0100
0000
1000
0000
,  // measure 80
0100
0010
0001
0000
0100
0000
0220
0000
,  // measure 81
0330
0000
1000
0001
0100
0010
2000
0000
,  // measure 82
0000
0000
0000
3000
;

//---------------dance-single - ----------------
#NOTES:
     dance-single:
     :
     Hard:
     11:
     0.550,0.636,0.188,0.139,0.049: // measure 1
0000
0000
0000
0000
,  // measure 2
0000
0000
0000
0000
,  // measure 3
0000
0000
0000
0000
,  // measure 4
0000
0000
0000
0000
,  // measure 5
0000
0000
0000
0000
,  // measure 6
0020
0000
0000
0230
0000
0000
0000
0000
,  // measure 7
0301
0000
0000
0001
0000
0000
2000
0000
0000
0000
0000
0000
0000
0000
0000
0000
,  // measure 8
3002
0000
0000
0023
0000
0000
0000
0000
,  // measure 9
0130
0000
0000
0100
0000
0000
2000
0000
0000
0000
0000
0000
0000
0000
0000
0000
,  // measure 10
3010
0100
0001
1000
0001
0010
0000
0000
,  // measure 11
0001
0010
0100
1000
0010
1000
0000
0000
,  // measure 12
1000
0100
0010
0001
0100
0010
0000
0000
,  // measure 13
0100
0001
1000
0010
0100
0001
0000
0000
,  // measure 14
1000
0100
0100
0010
0001
0001
0100
0010
,  // measure 15
0100
0001
0001
0100
0010
0010
0100
1000
,  // measure 16
0100
0001
0010
0100
1000
0100
0010
0001
,  // measure 17
2000
0100
0100
3100
,  // measure 18
0010
0001
0001
1000
0010
0010
0100
0001
,  // measure 19
0010
0001
0001
0010
1000
1000
0010
0100
,  // measure 20
1000
0100
0010
0001
0100
0010
1000
0001
,  // measure 21
0200
0001
0001
0301
,  // measure 22
1001
0000
0010
0000
0100
1000
0000
0000
,  // measure 23
1000
0000
0010
0000
0100
0001
0000
0000
,  // measure 24
0010
0000
0100
0000
1000
0100
0000
0000
,  // measure 25
0020
0001
1000
0031
,  // measure 26
0001
0100
0001
0100
0001
0100
0001
0100
,  // measure 27
1000
0100
1000
0100
1000
0100
1000
0100
,  // measure 28
0001
0010
1000
0010
0001
0100
1000
0100
,  // measure 29
0220
0000
0000
0330
,  // measure 30
0010
0000
0000
1100
0000
0000
0001
0000
1000
0000
0100
0000
0010
0000
0001
0000
,  // measure 31
0100
0000
0000
0101
0000
0000
1000
0000
0001
0000
0010
0000
0100
0000
1000
0000
,  // measure 32
0010
0000
0000
0110
0000
0000
0001
0000
1000
0000
0010
0000
0100
0000
0001
0000
,  // measure 33
0100
0000
0000
0110
0000
0000
0100
0000
0010
0000
0000
0000
1001
0000
0000
0000
,  // measure 34
1100
0000
0000
0101
0000
0000
1000
0000
0100
0000
0010
0000
0100
0000
1000
0000
,  // measure 35
0101
0000
0000
1100
0000
0000
0001
0000
0100
0000
0010
0000
0100
0000
0001
0000
,  // measure 36
0110
0000
0000
1001
0000
0000
0001
0000
0010
0000
0100
0000
1000
0000
0100
0000
,  // measure 37
0010
0000
0000
0011
0000
0000
1010
0000
0001
0000
0001
0000
0100
0000
1000
0000
,  // measure 38
0200
0000
0000
0000
,  // measure 39
0000
0000
0300
0000
0000
0010
0010
0010
,  // measure 40
1000
0000
0001
0100
0000
0100
0001
1000
,  // measure 41
0010
0000
1000
0100
0000
0100
1000
0001
,  // measure 42
1000
0000
0010
1000
0000
0001
0100
0001
,  // measure 43
0010
0000
0001
0010
0000
0010
0100
1000
,  // measure 44
0100
0000
1000
0100
0000
1000
0010
0100
,  // measure 45
0002
1000
0100
1003
,  // measure 46
1000
0000
0100
1000
0000
0100
0010
0100
,  // measure 47
1000
0000
0001
0100
0000
0010
0100
0001
,  // measure 48
0100
0000
0001
0010
0000
0100
1000
0001
,  // measure 49
2000
0100
0001
3100
,  // measure 50
1001
0000
0100
0010
0000
0010
0100
0001
,  // measure 51
0100
0000
0001
0010
0000
0100
1000
0100
,  // measure 52
0010
0000
0100
1000
0000
1000
0010
0100
,  // measure 53
0010
0000
1000
0000
0001
0100
0001
0100
,  // measure 54
0001
0000
0010
0001
0000
1000
0100
0010
,  // measure 55
0100
0000
1000
0001
0000
0100
0010
0100
,  // measure 56
0001
0000
0010
0001
0000
1000
0010
0100
,  // measure 57
0010
1000
0001
1000
0001
1000
0001
1000
,  // measure 58
0001
0010
0001
0010
0001
0100
0001
0100
,  // measure 59
0001
0010
0100
1000
0001
0100
1000
0000
,  // measure 60
0100
0010
1000
0100
0001
0100
1000
0001
,  // measure 61
1000
0000
1001
0000
0001
1000
0010
0100
,  // measure 62
0010
1000
0010
1000
0100
0001
0100
0001
,  // measure 63
0100
1000
0010
0001
0010
1000
0100
0000
,  // measure 64
1000
0010
1000
0010
0001
0010
1000
0100
,  // measure 65
0001
0000
1100
0000
0001
1000
0001
1000
,  // measure 66
2002
0000
0000
0000
,  // measure 67
0000
0000
0000
0000
,  // measure 68
3003
0000
0000
0000
,  // measure 69
0000
0000
0000
0000
,  // measure 70
0010
0010
0010
0010
,  // measure 71
0100
0100
0100
0100
,  // measure 72
0001
1000
0001
1000
0001
0100
0001
0100
,  // measure 73
0010
1000
0100
0001
0100
0000
1100
0100
,  // measure 74
0010
0000
0001
0100
0001
0000
1000
0100
,  // measure 75
1000
0100
0001
0100
0010
0000
0101
0100
,  // measure 76
0010
0000
0100
0010
1000
0000
0010
1000
,  // measure 77
0001
0000
0100
0001
1000
0001
1001
1000
,  // measure 78
0001
0000
1000
0010
1000
0000
0001
0100
,  // measure 79
0001
0100
1000
0010
0100
0000
1010
0010
,  // measure 80
1000
0000
0100
1000
0001
0000
0100
0010
,  // measure 81
1000
0000
0000
0000
0001
0000
1000
0000
0001
1000
0001
1000
0020
0000
0000
0000
,  // measure 82
0000
0000
0000
0030
;

//---------------dance-single - ----------------
#NOTES:
     dance-single:
     :
     Challenge:
     16:
     0.872,0.937,0.057,0.180,0.651: // measure 1
0000
0000
0000
0000
,  // measure 2
0000
0000
0000
0000
,  // measure 3
0000
0000
0000
0000
,  // measure 4
0000
0000
0000
0000
,  // measure 5
0000
0000
0000
0000
,  // measure 6
0002
0000
0000
0103
0010
0000
0100
0000
0001
0000
0100
0010
1000
0000
0010
0000
,  // measure 7
2000
0000
3100
0010
0000
0100
2000
0000
3010
0000
0100
0001
1000
0000
0001
0000
,  // measure 8
0020
0000
0000
0130
0010
0000
0001
0000
0100
0000
0010
0100
0001
0000
1000
0000
,  // measure 9
0002
0000
0013
0100
0000
0010
0002
0000
1003
0010
0100
0010
1000
0001
0100
0000
,  // measure 10
0010
0000
1000
0100
1000
0000
0001
0000
0100
0000
0020
0000
1000
0000
0100
0000
,  // measure 11
1030
0000
0100
0010
0100
0000
1000
0000
0001
0000
0020
0000
0001
0000
0100
0000
,  // measure 12
0031
0000
0100
0010
0100
0000
0001
0000
0010
0000
0200
0000
1000
0000
0010
0000
,  // measure 13
1300
0000
0010
0100
0010
0000
0100
0000
0001
0000
0020
0000
0001
0000
0100
0000
,  // measure 14
0031
0000
0100
0001
0100
0000
0001
0010
0001
0000
2000
0000
0010
0000
0001
0000
,  // measure 15
3010
0000
0100
0001
0100
0000
0010
1000
0010
0000
0200
0000
0001
0000
0010
0000
,  // measure 16
1300
0000
0100
1000
0100
0000
1000
0010
1000
0000
0002
0000
0010
0000
0103
0010
,  // measure 17
0100
0000
0001
0100
0001
0000
0010
0001
0010
0000
0100
0000
0010
0001
1000
0001
,  // measure 18
1000
0000
0010
0100
0001
0000
0100
0010
1000
0000
0200
0000
1000
0000
0010
0000
,  // measure 19
1300
0000
0100
0010
0001
0000
0010
0100
1000
0000
0002
0000
0100
0000
0010
0000
,  // measure 20
0103
0000
0010
0100
0001
0000
0010
0001
1000
0000
0200
0000
1000
0000
0310
0001
,  // measure 21
0010
0000
0100
1000
0010
0000
0100
0001
1000
0000
0001
0000
1000
0100
0010
0001
,  // measure 22
1000
0000
0100
1000
0100
0000
1000
0000
0010
0000
0200
0000
0000
0000
0000
0000
,  // measure 23
0301
0000
0010
0001
0010
0000
0100
0000
0010
0000
0002
0000
0000
0000
0000
0000
,  // measure 24
1003
0000
0010
0100
0010
0000
1000
0000
0001
0000
0020
0000
0000
0000
0031
1000
,  // measure 25
0002
0100
0010
1003
,  // measure 26
0001
0000
0010
0001
0010
0000
0001
0100
0001
0000
1000
0000
0010
1000
0010
0000
,  // measure 27
1000
0000
0100
1000
0100
0000
1000
0010
1000
0000
0001
0000
0010
0001
0010
0000
,  // measure 28
0001
1000
0001
1000
0010
0100
0010
0100
0001
0010
0001
0010
0100
1000
0100
1000
,  // measure 29
0020
0000
0000
0030
,  // measure 30
0110
0000
0010
0100
0000
0001
0100
0000
0001
0010
0100
1000
0001
0000
1000
0000
,  // measure 31
0010
0000
0100
0010
0000
1000
0100
0000
1000
0010
0100
0001
1000
0000
0001
1000
,  // measure 32
0001
0000
0010
0001
0000
1000
0100
0000
1000
0010
0100
0010
1000
0000
0001
0010
,  // measure 33
0001
0000
0100
0001
0000
0100
0010
0000
0100
0010
0100
0010
1000
0001
1000
0001
,  // measure 34
1000
0000
0100
0001
0000
0100
1000
0000
0010
0100
0001
0100
0010
0000
1000
0000
,  // measure 35
0001
0000
1000
0010
0000
0001
0010
0000
1000
0100
0010
0100
1000
0000
0001
1000
,  // measure 36
0001
0000
0010
0001
0000
1000
0100
0000
1000
0001
0100
0010
1000
0000
0001
1000
,  // measure 37
0001
0000
0100
0010
0000
0010
1000
0000
0010
0100
0001
0100
0010
0000
1000
0001
,  // measure 38
1000
0100
0010
0100
1000
0010
0100
0001
,  // measure 39
1000
0100
0010
0100
1000
0010
0010
0010
,  // measure 40
1000
0001
0010
0100
0010
0001
0100
0010
,  // measure 41
0100
0100
0001
0010
0001
1000
0100
1000
,  // measure 42
0010
0000
0100
0000
0001
0000
0100
0000
0000
0000
0010
0000
1000
0000
0001
0010
,  // measure 43
0100
0010
0001
1000
0010
1000
0001
0100
,  // measure 44
0010
1000
0100
1000
0001
0010
0100
0010
,  // measure 45
0001
0100
0010
0100
0001
1000
0100
1000
,  // measure 46
1001
0000
0010
0000
0100
0000
0001
0000
0000
0000
0100
0000
0010
0000
1000
0001
,  // measure 47
0010
0001
0100
0010
1000
0100
0010
0001
,  // measure 48
1000
0010
0100
0010
0000
1000
0001
0100
,  // measure 49
0001
0010
0010
0010
0100
0100
1000
1000
,  // measure 50
0010
0000
0000
0000
0100
0000
0001
0000
0000
0000
1000
0000
0100
0000
0010
0100
,  // measure 51
1000
0000
0000
0000
0010
0000
0100
0000
0000
0000
0001
0000
0100
0000
0010
0100
,  // measure 52
0001
0000
0000
0000
0010
0000
0001
0000
0000
0000
1000
0000
0100
0000
0010
0100
,  // measure 53
1000
0010
0100
0000
0001
1000
1010
0000
,  // measure 54
1001
0000
0000
0000
1000
0000
0100
0000
0000
0000
0100
0000
1000
0000
0010
1000
,  // measure 55
0001
0000
0000
0000
0100
0000
0001
0000
0000
0000
0001
0000
0010
0000
0001
1000
,  // measure 56
0010
0000
0100
0010
0000
0010
1000
0010
,  // measure 57
0100
0000
0001
0000
0001
0000
0001
0000
1000
0000
1000
0000
0001
1000
0001
1000
,  // measure 58
0010
0000
0100
0000
0001
0000
0010
0001
0010
0000
0001
0000
0010
0000
0100
0000
,  // measure 59
1000
0000
0010
0000
0100
0000
0010
1000
0010
0000
1000
0000
1001
0000
0000
0000
,  // measure 60
1000
0000
0100
0000
0010
0000
0001
1000
0001
0000
0100
0000
0010
0000
1000
0000
,  // measure 61
0010
0000
0100
0000
0001
0000
0010
0001
0010
0000
0001
1000
0001
1000
0001
1000
,  // measure 62
0010
0000
0100
0000
0001
0000
0100
0010
0100
0000
0010
0000
1000
0000
0100
0000
,  // measure 63
0010
0000
0100
0000
1000
0000
0010
0100
0010
0000
0100
0000
0110
0000
0000
0000
,  // measure 64
0001
0000
0010
0000
0100
0000
1000
0001
1000
0000
0010
0000
0100
0000
0001
0000
,  // measure 65
0010
0000
0001
0100
0010
0000
0100
0001
1000
0000
0010
0100
0010
0100
0010
0100
,  // measure 66
0010
1000
1000
0010
0100
0100
0010
0001
,  // measure 67
0010
1000
1000
0010
0100
0100
0010
0001
,  // measure 68
0100
0010
0010
0100
1000
1000
0100
0001
,  // measure 69
0100
0010
0010
0100
1000
1000
0100
0001
,  // measure 70
0100
0000
0010
0001
0010
0000
0001
0100
0001
0000
1000
0001
1000
0000
0001
0000
,  // measure 71
0100
0000
0010
1000
0010
0000
1000
0001
1000
0000
0001
0100
0001
0000
0010
0000
,  // measure 72
0001
0000
0100
0001
0100
0000
0001
0010
0001
0000
1000
0100
1000
0000
0001
1000
,  // measure 73
0010
0100
0010
0100
0001
1000
0001
0010
0100
0000
0000
0000
1100
0000
0100
0000
,  // measure 74
1000
0000
0010
1000
0001
0000
0100
0000
0010
0000
1000
0000
0001
0000
0010
0000
,  // measure 75
0100
0000
0010
0001
0100
0000
0010
1000
0001
0000
1000
0000
0001
0000
0010
0000
,  // measure 76
0100
0000
0010
0001
1000
0000
0010
0100
0001
0000
0100
0010
1000
0000
0010
0100
,  // measure 77
0001
0000
0100
0010
1000
0000
0001
1000
0001
1000
0001
1000
0001
0000
0010
0001
,  // measure 78
0100
0000
0001
0100
0010
0000
1000
0100
0010
0000
0100
1000
0010
0000
0100
0010
,  // measure 79
1000
0000
0010
0100
0001
0000
1000
0001
0100
0000
0000
0000
0001
0000
0010
0100
,  // measure 80
1000
0000
0100
0010
0001
0000
0100
0010
1000
0000
0010
0100
0001
0000
0100
0000
,  // measure 81
0010
0000
1000
0001
0100
0000
0001
1000
0001
0010
0100
1000
0002
0000
0000
0000
,  // measure 82
0000
0000
0000
0003
;
