#TITLE:four-leaf;
#SUBTITLE:;
#ARTIST:Sis Bond Chit;
#TITLETRANSLIT:;
#SUBTITLETRANSLIT:;
#ARTISTTRANSLIT:;
#GENRE:;
#CREDIT:;
#MENUCOLOR:;
#METERTYPE:DDR;
#BANNER:four-leaf.png;
#BACKGROUND:four-leaf-bg.png;
#LYRICSPATH:;
#CDTITLE:./CDTITLES/BEATMANIA IIDX.PNG;
#MUSIC:four-leaf.mp3;
#OFFSET:-1.006;
#SAMPLESTART:54.760;
#SAMPLELENGTH:15.000;
#SELECTABLE:YES;
#LISTSORT:;
#BPMS:0.000=157.000;
#STOPS:;
#BGCHANGES:-2.000=four-leaf.avi=1.000=1=1=0,
99999=-nosongbg-=1.000=0=0=0 // don't automatically add -songbackground-
;
#ATTACKS:;

//---------------dance-single - ----------------
#NOTES:
     dance-single:
     :
     Beginner:
     2:
     0.106,0.217,0.010,0.000,0.000:
0000
0000
0000
0000
,
0000
0000
0000
0000
,
0000
0000
0000
0000
,
0000
0000
0000
0000
,
1000
0000
0000
0000
,
0001
0000
0000
0000
,
0100
0000
0000
0000
,
0010
0000
0010
0000
,
0100
0000
0000
0000
,
0000
0000
0000
0000
,
0010
0000
0000
0000
,
0000
0000
0000
0000
,
1000
0000
0000
0000
,
0000
0000
0000
0000
,
0001
0000
0000
0000
,
0000
0000
0000
0000
,
1001
0000
0000
0000
,
0000
0000
0000
0000
,
0100
0000
0000
0000
,
0010
0000
0000
0000
,
1000
1000
1000
0000
,
0001
0001
0001
0000
,
0100
0100
0100
0000
,
0010
0010
0010
0000
,
1000
0000
0000
0000
,
0000
0000
0000
0000
,
0001
0000
0000
0000
,
0000
0000
0000
0000
,
0010
0000
0000
0000
,
0100
0000
0100
0000
,
0010
0000
0000
0000
,
0001
0000
1000
0000
,
0010
0000
0000
0000
,
0100
0000
0000
0000
,
0010
0000
0010
0000
,
1000
1000
1000
0000
,
0001
0000
0000
0000
,
0010
0000
0000
0000
,
0100
0000
0000
0000
,
0010
0000
0000
0000
,
0001
0000
0001
0000
,
0001
0000
0000
0000
,
1000
0000
1000
0000
,
1000
0000
0000
0000
,
0000
0010
0000
0000
,
0000
0100
0000
0000
,
0001
0000
1000
0000
,
0001
0000
1000
0000
,
0100
0000
0000
0000
,
0010
0000
0000
0000
,
0001
0000
0000
0000
,
0100
0000
1000
0000
,
0010
0000
0000
0000
,
0010
0000
0000
0000
,
0100
0000
0000
0000
,
0100
0000
0000
0000
,
0001
0000
0000
0000
,
0001
0000
0000
0000
,
1000
0000
0000
0000
,
0001
0000
1000
0000
,
0001
0000
0001
0000
,
0001
0000
0000
0000
,
1000
0000
1000
0000
,
1000
0000
0000
0000
,
0010
0000
0000
0000
;

//---------------dance-single - ----------------
#NOTES:
     dance-single:
     :
     Easy:
     6:
     0.273,0.360,0.164,0.193,0.000:
0000
0000
0000
0000
,
0000
0000
0000
0000
,
0000
0000
0000
0000
,
0000
0000
0000
0000
,
0010
0000
0010
0000
,
0100
0000
0100
0000
,
0010
0000
1000
0000
,
0001
0010
0100
1000
,
0002
0000
0000
0000
,
1003
0000
0000
0000
,
0020
0030
0200
0300
,
0020
0000
0000
0030
,
1000
0100
0010
0001
,
1000
0100
1000
0100
,
1000
0010
0100
0001
,
1000
0001
2000
3000
,
0002
0000
0000
0000
,
0000
0000
0000
0003
,
0020
0000
0000
0030
,
0200
0000
0000
0300
,
1001
1000
1000
0000
,
1001
0001
0001
0000
,
0110
0100
0100
0000
,
0010
0100
1001
0000
,
0010
0000
1000
0000
,
0001
0000
1000
0000
,
0100
0000
1100
0000
,
0010
0001
0100
0000
,
0001
0000
1000
0000
,
0001
0000
0010
0000
,
0001
0010
0001
0010
,
0100
1000
0200
0300
,
2000
0001
3001
0000
,
0020
0100
0130
0000
,
0110
0100
0100
0100
,
0010
0100
1001
0000
,
1000
0010
0000
0010
,
1000
0001
0000
0001
,
1000
0100
0000
1000
,
0001
1000
0002
0003
,
0010
0010
0010
0010
,
0001
0001
0001
0001
,
0200
0000
0000
0300
,
2000
0000
0000
3000
,
0000
1001
0000
0010
,
0010
0000
0100
0000
,
0001
1000
0001
1000
,
0020
0030
0200
0300
,
0001
1000
0100
0000
,
1000
0001
0100
0000
,
0001
1000
0010
1000
,
0002
0003
2000
3000
,
1001
1000
1000
1000
,
1001
1000
1000
0000
,
1001
0001
0001
0001
,
1001
0001
0001
0000
,
0110
0100
0100
0100
,
0110
0100
0100
0000
,
0110
0010
0010
0010
,
0110
0010
1000
0000
,
0001
0000
1000
0000
,
0001
0010
0100
0000
,
1000
0000
0001
0000
,
1000
0010
0100
0000
,
2002
0000
0000
0000
,
0000
0000
0000
0000
,
0000
0000
0000
0000
,
0000
0000
0000
3003
;

//---------------dance-single - ----------------
#NOTES:
     dance-single:
     :
     Medium:
     8:
     0.439,0.524,0.271,0.213,0.000:
0000
0000
0000
0000
,
0000
0000
0000
0000
,
0000
0000
0000
0000
,
0000
0000
0000
0000
,
0010
0000
1000
0100
0000
1000
0010
0000
,
1000
0100
0000
1000
0010
0000
1001
0000
,
0001
0000
0100
0001
0000
0100
0010
0000
,
1000
0001
0100
0010
,
2000
0000
0000
0000
,
3020
0000
0000
0000
,
0230
0000
0000
0320
0000
0000
2030
0000
,
0001
0000
0001
3000
,
0001
0100
1000
0010
,
0001
0100
1000
0010
,
0200
0000
0310
1000
,
0002
0000
1003
0100
,
0020
0000
0000
0000
,
0000
0000
0031
1000
,
0200
0000
0000
1300
,
0002
0000
1003
0010
,
1001
0000
0100
0000
0010
0100
0001
0000
,
1001
0000
0100
0000
0010
0100
1000
0000
,
1100
0000
0010
0000
0001
0100
1000
0000
,
0010
1000
1000
0001
1000
1000
0000
0000
,
1001
0000
0001
0000
0100
0001
0100
0000
,
0010
0000
1000
0000
0001
0010
0100
0000
,
1100
0000
0000
0101
0000
1000
0010
0000
,
0100
0000
0010
0000
1000
0100
0010
0000
,
1001
0000
0001
0000
0100
0000
0001
0010
,
0000
0100
0010
0000
0001
0010
0100
0000
,
1000
0100
0100
1000
0010
0010
1000
0100
,
1000
0000
0001
0000
0100
0010
0100
0000
,
0020
1000
1000
1030
,
0002
0100
0100
0103
,
1001
0000
1000
0100
0100
0100
0100
0100
,
0010
0100
0010
0000
1002
0000
1003
0000
,
0001
0000
0100
0000
0001
0010
0001
0000
,
1000
0000
0100
0000
1000
0010
1000
0000
,
0010
0000
0100
0000
0010
1000
0001
1000
,
0001
0010
0100
0020
0000
0000
0031
0000
,
1000
0000
0100
1000
0000
0100
0001
0000
,
0100
1000
0000
0010
0001
0000
0110
0000
,
0010
0000
0100
0000
0001
1000
0100
1000
,
0000
1000
0001
0000
1000
0010
0100
0000
,
0110
0000
1001
0000
0001
0010
0001
0010
,
0000
0010
0001
0000
1000
0100
1000
0000
,
0100
0000
1001
0000
0010
1000
0000
0001
,
0000
0100
0001
0000
1000
0100
0010
0000
,
0100
0000
0110
0000
0010
0001
0100
0000
,
0010
0000
0110
0000
0010
1000
0100
0000
,
1000
0000
1100
0000
1000
0001
0100
0001
,
1000
0000
1001
0000
0001
0100
0001
0000
,
2000
0010
0100
0001
,
0100
0010
0001
3001
,
1002
0010
1000
0100
,
1000
0010
1000
1003
,
0210
0010
1000
0001
,
0010
0001
1000
1300
,
0102
1000
0100
1003
,
0120
0130
2010
3010
,
1001
0000
0001
0100
0000
1000
0100
0000
,
1000
0010
0000
0001
0100
0000
1001
0000
,
0110
0000
0010
1000
0000
0001
0010
0000
,
1000
0100
0000
0001
1000
0000
1001
0000
,
0220
0000
0000
0000
,
0000
0000
0000
0000
,
0000
0000
0000
0000
,
0000
0000
0000
0330
;

//---------------dance-single - ----------------
#NOTES:
     dance-single:
     :
     Hard:
     12:
     0.653,0.655,0.425,0.213,0.135: // measure 1
0000
0000
0000
0000
,  // measure 2
0000
0000
0000
0000
,  // measure 3
0000
0000
0000
0000
,  // measure 4
0000
0000
0000
0000
,  // measure 5
1000
0100
0100
0001
0100
0100
1000
0100
,  // measure 6
0100
1000
0010
0010
0100
0001
1000
0100
,  // measure 7
0001
0010
0010
1000
0010
0010
0001
0010
,  // measure 8
1000
0100
0001
0100
1000
0010
0001
0010
,  // measure 9
2000
0000
0010
0000
0001
0000
3100
1000
,  // measure 10
0002
0000
0010
0000
1000
0000
0103
0001
,  // measure 11
0110
0000
0000
0010
0100
0000
0010
0000
2000
0000
0000
0000
3001
0000
1000
0000
,  // measure 12
0200
0000
0310
0000
0100
1000
0010
0100
,  // measure 13
1010
0010
1000
1000
0001
0001
0010
0010
,  // measure 14
0001
0001
0100
0100
0010
0010
1000
0001
,  // measure 15
1000
1000
0100
0100
0010
0010
0100
0100
,  // measure 16
0010
0001
0100
0010
1000
0001
2000
0000
,  // measure 17
3001
0000
0000
0001
0000
0000
0100
0000
0000
0100
0000
0000
0010
0000
0000
0010
,  // measure 18
0000
0000
1000
0000
0000
1000
0000
0000
0100
0000
0000
0100
0000
0000
0010
0000
,  // measure 19
0001
0000
0000
1000
0000
0000
0010
0000
0000
0100
0000
0000
0010
0000
0000
1000
,  // measure 20
0000
0000
0001
0000
0000
1000
0000
0000
0100
0000
0000
1100
0000
0000
0010
0000
,  // measure 21
1001
0000
0000
0000
0110
0000
0000
0000
1001
0000
0001
1000
0001
0000
1000
0000
,  // measure 22
0100
0000
0000
0000
1100
0000
0000
0000
0011
0000
0100
1000
0100
0000
1000
0000
,  // measure 23
0001
0000
0000
0000
0101
0000
0000
0000
1010
0000
0100
0001
0100
0000
0010
0000
,  // measure 24
1000
0001
1001
1000
0100
0110
0000
0000
,  // measure 25
1001
0000
0000
0000
0110
0000
0000
0010
0100
0000
0001
0000
1000
0000
0010
0000
,  // measure 26
0001
0010
0100
1000
0100
0010
0001
1000
,  // measure 27
0101
0000
1000
1100
0000
0001
1000
0010
,  // measure 28
1000
0100
0010
0001
0000
0001
1000
0001
,  // measure 29
1000
0010
0100
1000
0010
0100
1000
0010
,  // measure 30
0100
1000
0010
0100
1000
0010
1000
0100
,  // measure 31
0001
0010
0100
0001
0010
0100
0001
0010
,  // measure 32
0100
0001
0010
0100
0010
0001
1000
0010
,  // measure 33
0200
0000
0010
0000
0310
1000
0001
1000
,  // measure 34
0200
0000
1000
0000
1300
0001
0010
0100
,  // measure 35
0020
0001
0001
0001
0001
0001
0001
0031
,  // measure 36
1000
0001
0100
0010
2001
0000
3001
0000
,  // measure 37
1001
0000
0000
0000
1010
0000
0000
0100
0001
0000
0100
0000
0001
0000
1000
0000
,  // measure 38
0001
0010
0100
2000
0000
0000
3010
0000
,  // measure 39
1000
0010
0100
0001
1000
0010
0100
0001
,  // measure 40
1000
0100
0100
0020
0000
0000
0130
0000
,  // measure 41
0010
0001
1000
0010
0001
1000
0010
0001
,  // measure 42
1000
0010
0001
1000
0010
1000
0001
1000
,  // measure 43
0100
0010
0001
1000
0010
0100
0010
1001
,  // measure 44
0000
0100
0010
1000
0002
0000
1003
0000
,  // measure 45
0110
0000
0000
0000
1001
0000
0000
0001
0100
0000
0001
0000
1000
0000
1100
0000
,  // measure 46
0000
0000
0000
0000
0011
0000
0000
1000
0010
0000
0100
0000
0010
0000
0010
0000
,  // measure 47
0100
0000
0001
0000
1000
0000
0000
0001
1000
0000
0001
0000
0100
0000
0010
0000
,  // measure 48
1000
0000
0000
0000
1100
0000
0000
0100
1000
0000
0001
0000
0010
0000
0100
0000
,  // measure 49
0010
0000
0000
0000
0101
0000
0000
0010
1000
0000
0001
0000
1000
0100
0000
0000
,  // measure 50
1100
0000
0000
0000
1001
0000
0000
0001
0010
0000
0100
0000
0010
0001
0000
0000
,  // measure 51
1001
0000
0000
0000
0101
0000
0000
0010
1000
0000
0100
0000
0010
0100
0000
0000
,  // measure 52
1100
0000
1001
0000
0010
0001
1000
0010
,  // measure 53
0200
0000
0010
0000
1300
0010
0100
0001
,  // measure 54
2000
0001
3010
1001
,  // measure 55
0210
0000
0310
2000
0000
3001
0200
0000
,  // measure 56
0001
0000
0000
0000
0010
0000
0000
0000
0301
0000
0000
0001
1000
0000
0001
0000
,  // measure 57
0020
0000
0031
0000
1000
0100
1000
0100
,  // measure 58
1020
0000
1030
0000
0001
0100
0001
0100
,  // measure 59
0120
0000
1030
0000
0001
1000
0100
0001
,  // measure 60
1100
0000
0000
0000
0101
0000
0000
0000
1001
0000
0010
0000
0010
0100
0010
0000
,  // measure 61
1001
0100
0001
1000
0001
0001
1000
0010
,  // measure 62
0010
1000
0100
0100
0110
0000
1001
0000
,  // measure 63
0110
0001
0001
0010
1000
1000
0010
0001
,  // measure 64
0001
0010
0100
0001
1000
0100
0010
0001
,  // measure 65
2002
0000
0000
0000
,  // measure 66
0000
0000
0000
0000
,  // measure 67
0000
0000
0000
0000
,  // measure 68
0000
0000
0000
3003
;
