#TITLE:YAKSHA;
#SUBTITLE:;
#ARTIST:Neulakyussra;
#TITLETRANSLIT:;
#SUBTITLETRANSLIT:;
#ARTISTTRANSLIT:;
#GENRE:;
#CREDIT:;
#BANNER:YAKSHA.png;
#BACKGROUND:YAKSHA-bg.png;
#LYRICSPATH:;
#CDTITLE:./CDTITLES/BEATMANIA IIDX.PNG;
#MUSIC:YAKSHA.ogg;
#OFFSET:0;
#SAMPLESTART:32.834;
#SAMPLELENGTH:15.000;
#SELECTABLE:YES;
#BPMS:0.000=190.000
;
#STOPS:
;
#BGCHANGES:;
#KEYSOUNDS:;
#ATTACKS:;

//---------------dance-single - ----------------
#NOTES:
     dance-single:
     :
     Beginner:
     4:
     0.157911,0.227132,0.015142,0.015142,0.000,146.000,144.000,2.000,2.000,0.000,0.000,0.157911,0.227132,0.015142,0.015142,0.000,146.000,144.000,2.000,2.000,0.000,0.000:
0000
0000
0000
0000
,
0000
0000
0000
0000
,
1001
0000
0000
0000
,
0100
0000
0000
0000
,
1000
0000
0000
0000
,
0001
0000
0000
0000
,
0010
0000
0000
0000
,
0020
0030
0000
0000
,
0100
0000
0000
0000
,
0200
0300
0000
0000
,
0001
0000
1000
0000
,
0001
0001
0001
0000
,
1000
0000
0001
0000
,
1000
1000
1000
0000
,
0010
0000
0100
0000
,
0010
0010
0010
0000
,
0100
0000
0010
0000
,
0100
0100
0100
0000
,
0001
0000
0000
0000
,
1000
0000
0000
0000
,
0010
0000
0000
0000
,
0100
0000
0000
0000
,
0001
0000
0000
0000
,
1000
0000
1000
0000
,
0001
0000
0000
0000
,
1000
0000
0000
0000
,
0001
0000
0000
0000
,
0100
0100
0100
0000
,
0010
0000
0000
0000
,
1000
1000
1000
0000
,
0001
0000
0000
0000
,
0010
0010
0010
0000
,
0100
0000
0000
0000
,
0001
0001
0001
0000
,
1000
0000
0000
0000
,
0010
0000
0100
0100
,
0100
0000
0000
0000
,
0001
0000
1000
1000
,
1000
0000
0000
0000
,
0010
0000
0001
0001
,
0001
0000
0000
0000
,
1000
0000
0000
0000
,
0001
0000
0000
0000
,
1000
0000
0000
0000
,
0010
0000
0000
0000
,
0100
0000
0100
0000
,
0100
0000
0000
0000
,
0001
0000
0000
0000
,
1000
0000
0000
0000
,
0010
0000
0010
0000
,
0010
0000
0000
0000
,
0100
0000
0000
0000
,
0001
0000
0001
0000
,
0001
0000
0000
0000
,
1000
0000
0000
0000
,
0010
0000
0000
0000
,
1000
0000
1000
0000
,
1000
0000
0000
0000
,
0001
0000
0000
0000
,
1000
0000
0000
0000
,
0100
0000
0000
0000
,
0010
0000
0000
0000
,
0001
0000
1000
0000
,
0001
0000
0100
0000
,
0010
0000
1000
0000
,
0001
0000
1000
0000
,
0001
0000
0000
0000
,
0000
0000
0000
0000
,
0000
0000
0000
0000
,
0000
0000
0000
0000
,
1000
0000
0000
0000
,
0100
0000
0000
0000
,
0010
0000
0000
0000
,
0001
0000
0000
0000
,
1000
0000
0000
0000
,
0010
0000
0000
0000
,
0100
0000
0000
0000
,
0010
0000
0000
1000
,
1000
0000
0000
0001
,
0001
0000
0000
1000
,
1000
0000
0001
0000
,
1000
0000
0001
0000
,
1000
0000
0000
0000
,
0000
0000
0000
0000
,
0001
0000
0000
0000
,
1000
0000
1000
0000
,
0001
0000
0000
0000
,
0010
0000
0010
0000
,
0100
0000
0000
0000
,
0001
0000
0001
0000
,
0010
0000
0000
0000
,
1000
0000
1000
0000
,
0100
0000
0000
0000
,
1000
0000
0001
0000
,
0100
0000
0000
0000
,
0001
0000
1000
0000
,
0010
0000
0000
0000
,
0100
0000
0010
0000
,
1000
0000
0001
0000
,
1000
0000
0001
0000
,
1001
0000
0000
0000
;

//---------------dance-single - ----------------
#NOTES:
     dance-single:
     :
     Easy:
     9:
     0.469405,0.616284,0.287700,0.227132,0.079496,434.000,396.000,38.000,30.000,0.000,0.000,0.469405,0.616284,0.287700,0.227132,0.079496,434.000,396.000,38.000,30.000,0.000,0.000:
0000
0000
0000
0000
,
0000
0000
0000
0000
,
1000
0001
0200
0300
,
0001
1000
0020
0030
,
0100
0010
2000
3000
,
0010
0100
0002
0003
,
1000
0100
2200
3300
,
0001
0100
0202
0303
,
0010
1000
2002
3003
,
0100
0010
0220
0330
,
0010
1000
0100
0001
,
0100
1000
0020
0030
,
0100
0001
0010
1000
,
0010
0001
0200
0300
,
1001
0010
1000
0001
,
0100
0001
2000
3001
,
1000
1000
0001
0001
,
1000
0001
1000
0001
2000
0000
3002
0000
,
2003
0000
0100
0100
,
0010
0000
0010
0000
3100
0000
0001
0100
,
0002
0000
0010
0010
,
1000
0000
1000
0000
0103
0000
1000
0001
,
1000
0000
0001
0100
0000
0010
1000
0001
,
1000
0000
1001
0000
0100
0010
0000
0010
,
0100
0000
0001
1000
0000
0001
0100
0010
,
2000
0000
0000
3000
,
1001
0000
0000
0000
0010
0000
0000
0000
0100
0000
0000
0100
0000
0000
0100
0000
,
0010
0000
1000
0000
0001
0000
1000
0100
,
0001
0000
0000
0000
0100
0000
0000
0000
1000
0000
0000
1000
0000
0000
1000
0000
,
0010
0000
0100
0000
0001
0000
1000
0001
,
0100
0000
0000
0000
0001
0000
0000
0000
0010
0000
0000
0010
0000
0000
0010
0000
,
0001
0000
0010
0000
0100
0000
1000
0100
,
0001
0000
0000
0000
0100
0000
0000
0000
1000
0000
0000
1000
0000
0000
1000
0000
,
0010
0000
0000
0100
0000
0000
0001
0000
0000
1001
0000
0000
0000
0000
0000
0000
,
1000
0001
1000
0001
,
1000
0010
1000
0010
,
1000
0001
0100
0001
,
0010
0100
1000
0001
,
1001
0010
0100
0010
,
1001
0000
0100
0000
0010
0000
1000
0100
,
0001
0000
0100
0000
1000
0001
1000
0001
,
2000
0000
0000
3000
,
0001
0000
0010
0000
0100
0000
0001
0100
,
1000
0000
0010
0000
0100
0000
0001
0100
,
1000
0000
0010
0000
0100
0000
0001
0100
,
0010
0000
0100
0000
0001
0000
1000
0100
,
0001
0000
0010
0000
0100
0000
1000
0100
,
0001
0000
0010
0000
0100
0000
1000
0100
,
0001
0000
0100
0000
0010
0000
1000
0100
,
0010
0000
0100
0000
1000
0001
1000
0001
,
0100
0100
0110
0000
,
0010
0000
0000
0010
0000
0000
0010
0000
0010
0000
0000
0000
0000
0000
0000
0000
,
0100
0000
0000
0100
0000
0000
0100
0000
0100
0000
0000
0000
0000
0000
0000
0000
,
0001
0000
0000
0001
0000
0000
0001
0000
0001
0000
0000
0000
1000
0000
0100
0000
,
0001
0100
1000
0000
,
0010
0000
0000
1000
0000
0000
0010
0000
0010
0000
0000
0000
0100
0000
0000
0000
,
0001
0000
0000
0100
0000
0000
0001
0000
0001
0000
0000
0000
1000
0000
0000
0000
,
0001
0000
0000
1000
0000
0000
0001
0000
1000
0000
0000
0000
0001
0000
0000
0000
,
1001
0010
0100
0010
,
1001
0100
0010
0100
,
1001
0010
1001
0100
,
1001
0100
0010
1001
,
0110
1000
0001
1000
,
0110
0001
1000
0001
,
0110
1000
0110
0001
,
1000
0000
0000
0100
0000
0000
0001
0000
0200
0000
0000
0000
2300
0000
0000
0000
,
3020
0000
0000
0000
,
0000
0000
0000
0030
,
0000
0000
0000
0000
,
0000
0000
0000
0000
,
0200
0000
0000
0000
,
0000
0000
0000
0300
,
0002
0000
0000
0000
,
2000
0000
0000
3003
,
1001
0000
0010
0000
0000
0010
0000
0010
,
0100
0000
0100
0000
0000
0001
0000
0001
,
1001
0000
1000
0000
0000
1000
0000
1000
,
0001
1000
0001
1000
,
1001
0000
0010
0000
0000
0100
0110
0000
,
1001
0000
0010
0000
0000
0100
0110
0000
,
1001
0010
1001
0100
,
1001
0000
0110
0000
1000
0001
0100
0001
,
2000
0000
0000
0000
,
0000
0000
3000
0000
0001
0001
0001
0001
,
1000
0000
0000
0100
0000
0000
1000
0000
0000
0100
0000
0000
0000
0000
1000
0000
,
0001
0100
0010
1000
,
0001
0000
0000
0100
0000
0000
0001
0000
0000
0100
0000
0000
0000
0000
0001
0000
,
0010
0100
1000
0001
,
1001
0000
0000
0010
0000
0000
0100
0000
0000
0010
0000
0000
0000
0000
0100
0000
,
0001
1000
0001
1000
,
0110
1000
0010
0100
,
1001
0100
0010
0001
,
1000
0100
0001
0100
1000
0100
0001
0100
,
1000
0001
0100
0010
,
0001
0010
1000
0010
0001
0010
1000
0010
,
0001
0010
0100
0001
,
1001
0000
0100
1000
0000
1000
0001
0000
,
1001
0000
0010
0100
0000
0100
0001
0000
,
1000
0100
1000
0000
0001
0100
0001
0000
,
0110
0000
0000
0001
1000
0000
0001
0000
0000
1000
0000
0000
0010
0000
0100
0000
,
2002
0000
0000
0000
,
0000
0000
0000
3003
;

//---------------dance-single - ----------------
#NOTES:
     dance-single:
     :
     Medium:
     11:
     0.592705,0.847390,0.363411,0.181705,0.310413,548.000,500.000,48.000,24.000,0.000,0.000,0.592705,0.847390,0.363411,0.181705,0.310413,548.000,500.000,48.000,24.000,0.000,0.000:
0000
0000
0000
0000
,
0000
0000
0000
0000
,
0010
0100
0020
0030
,
1000
0001
0200
0300
,
0001
1000
0020
0030
,
1000
0100
0002
0003
,
0100
0000
1000
0000
0020
0000
0000
0130
,
0001
0000
1000
0000
0002
0000
0000
1003
,
0001
0000
0010
0000
0200
0000
0000
0310
,
0001
1000
0020
0030
,
1000
0010
0100
0001
1000
0010
0100
0001
,
2000
0000
0010
3100
,
0001
0010
0100
1000
0001
0010
0100
1000
,
0200
0000
0010
0301
,
1001
0010
0100
1000
0001
0010
0100
1000
,
0002
0000
1000
0103
,
1000
0001
1000
0001
0100
0010
0100
0010
,
1000
0001
0001
0001
2000
0000
3001
0000
,
1002
0000
0000
0000
0000
0000
0000
0000
0013
0000
0000
0010
0000
0000
0010
0000
,
0001
0000
0000
0001
0000
0000
0001
0000
0100
0000
0000
0000
0010
0000
0000
0100
,
0020
0000
0000
0000
0000
0000
0000
0000
1030
0000
0000
1000
0000
0000
1000
0000
,
0010
0000
0000
0010
0000
0000
0010
0000
0110
0000
0000
0000
0100
0000
0000
0001
,
1000
0000
0001
0100
0000
1000
0100
0000
,
1001
0000
1000
0010
0100
1001
0000
0010
,
0100
0000
0001
0100
0000
0001
1000
0100
,
0002
0000
0000
1003
,
1001
0000
0000
0000
0010
0000
0100
0000
0001
0000
0000
0001
0000
0000
0001
0000
,
1000
0000
0000
1000
0000
0000
1000
0000
0000
0100
0000
0000
1000
0000
0000
0100
,
0010
0000
0000
0000
0000
0000
0000
0000
0001
0000
0000
1000
0000
0000
0001
0000
,
1000
0000
0000
0010
0000
0000
0100
0000
0000
0010
0000
0000
1000
0000
0000
0010
,
0100
0000
0000
0000
0000
0000
0000
0000
0010
0000
0000
0010
0000
0000
0010
0000
,
0100
0000
0000
0100
0000
0000
0100
0000
0000
0001
0000
0000
1000
0000
0000
0001
,
0100
0000
0000
0000
0000
0000
0000
0000
0001
0000
0000
1000
0000
0000
0001
0000
,
1001
0000
0000
0110
0000
0000
1001
0000
0000
0110
0000
0000
0100
0000
0000
0001
,
1000
0000
0000
0000
0000
0000
0000
0000
0001
0000
0000
0010
0000
0000
0100
0000
,
0010
0000
0000
0001
0000
0000
1000
0000
0000
0100
0000
0000
0001
0000
0000
0100
,
1000
0000
0000
0000
0000
0000
0000
0000
1000
0000
0000
0010
0000
0000
0100
0000
,
0010
0000
0000
0000
1000
0000
0010
0000
0100
0001
0000
0000
1001
0000
0000
1000
,
0100
0000
0000
0000
0000
0000
0000
0000
1001
0000
0000
0010
0000
0000
1000
0000
,
0110
0000
0000
0001
0000
0000
0100
0000
0000
0010
0000
0000
1000
0000
0000
0001
,
1000
0000
0100
0000
0001
0000
0100
0000
1001
0000
0000
1000
0000
0000
0001
0000
,
2000
0000
0000
0010
0000
0000
3010
0000
0100
0000
0000
1000
0002
0000
0000
0000
,
1003
0000
0001
0000
1001
0000
0010
0100
,
0001
0000
0100
0000
0110
0000
1000
0010
,
0100
0000
0010
0000
1010
0000
0001
0010
,
1000
0000
0100
0000
0101
0000
1000
0100
,
0001
0000
0100
0000
1100
0000
0001
0010
,
1000
0000
0010
0000
0011
0000
1000
0010
,
0100
0000
0010
0000
0110
0000
0001
1000
,
0100
0000
1001
0000
1000
0001
1000
0001
,
1000
1000
0010
0110
,
0001
0000
0000
1000
0000
0000
0001
0000
0100
0000
0000
0100
0000
0000
0010
0000
,
1000
0000
0000
0010
0000
0000
0100
0000
0001
0000
0000
1000
0000
0000
0001
0000
,
0010
0000
0000
0100
0000
0000
0010
0000
0001
0000
0000
0000
1000
0000
0100
0000
,
0001
0100
1000
0010
,
0110
0000
0000
0010
0000
0000
0010
0000
0010
0000
0000
0100
0000
0000
0001
0000
,
1000
0000
0000
0001
0000
0000
0010
0000
0100
0000
0000
0010
0000
0000
0001
0000
,
1000
0000
0000
0010
0000
0000
1000
0000
0010
0000
0100
0000
0001
0000
1000
0000
,
1001
0010
0100
0010
,
0210
0001
1000
0301
,
1001
0100
1001
0010
,
2001
0000
0010
0000
3100
0000
0001
0100
,
0110
0001
1000
0010
,
1020
1000
0100
0031
,
0110
0001
1001
1000
,
0110
0000
1001
0000
1000
0001
1000
0001
,
0020
0000
0000
0000
,
0000
0000
0000
0030
,
0000
0000
0000
0000
,
0000
0000
0000
0000
,
0100
0000
0000
0100
0000
0000
0001
0000
0000
1000
0000
0000
0000
0000
0000
0000
,
0010
0000
0000
0010
0000
0000
0010
0000
1000
0000
0000
0001
0000
0000
0100
0000
,
0001
0000
0000
1000
0000
0000
0001
0000
1000
0000
0000
0000
0000
0000
0000
0000
,
0010
0000
0000
0001
0000
0000
1000
0000
0000
0010
0000
0000
0100
0000
0001
0000
,
1001
0000
0010
0000
0100
0001
0000
0001
,
1000
0000
0000
0100
0000
0000
0100
0000
0010
0000
0000
0100
0000
0000
0100
0000
,
1001
0000
0010
0000
1000
0010
0000
0010
,
1000
0000
0000
0001
0000
0000
0001
0000
0100
0000
0000
0010
0000
0000
0100
0000
,
1001
0000
0010
0000
1000
0000
0001
1000
,
1001
0000
0100
0000
0001
0000
1000
0001
,
1001
0000
0010
0100
0110
0000
0001
0100
,
0101
0000
1100
0000
0001
0010
0001
0010
,
0200
0000
0000
0000
,
0000
0000
0300
0000
0100
0100
0100
0100
,
0010
0000
0000
0100
0000
0000
0001
0000
0000
1000
0000
0000
0001
0000
0010
0000
,
0100
0000
0000
0010
0000
0000
0001
0000
0100
0000
0000
1000
0000
0000
0010
0000
,
1000
0000
0000
0100
0000
0000
0001
0000
0000
1000
0000
0000
0010
0000
0100
0000
,
0010
0000
0000
1000
0000
0000
0001
0000
0100
0000
0000
0001
0000
0000
1000
0000
,
0100
0000
0000
1000
0000
0000
0001
0000
0000
0010
0000
0000
0100
0000
0100
0000
,
0010
0000
0000
0001
0000
0000
1000
0000
0010
0000
0000
0100
0000
0000
0010
0000
,
1000
0000
0000
0001
0000
0000
0100
0000
0100
0000
0000
0001
0000
0000
0010
0000
,
0001
0000
0000
1000
0000
0000
0001
0000
0000
0100
0000
0000
0010
0000
0100
0000
,
0110
1000
0010
0100
0001
0010
0100
1000
,
0010
0000
0000
0100
0000
0000
0001
0000
0010
0000
0000
0100
0000
0000
1000
0000
,
1100
0001
0100
0010
1000
0001
0010
0100
,
1000
0000
0000
0100
0000
0000
0001
0000
1000
0000
0000
0001
0000
0000
0100
0000
,
0110
0001
1000
0010
0100
0001
0010
1000
,
0001
0000
0000
1000
0000
0000
0001
0000
0010
0000
0000
0100
0000
0000
0010
0000
,
1000
1000
1000
1000
0001
1000
0001
1001
,
0010
0000
0100
0010
0100
0000
1000
0010
1000
0000
0001
0100
0001
0000
1000
0000
,
2002
0000
0000
0000
,
0000
0000
0000
3003
;

//---------------dance-single - ----------------
#NOTES:
     dance-single:
     :
     Hard:
     15:
     0.899874,0.962943,0.628398,0.257416,0.545116,832.000,749.000,83.000,34.000,0.000,0.000,0.899874,0.962943,0.628398,0.257416,0.545116,832.000,749.000,83.000,34.000,0.000,0.000:
0000
0000
0000
0000
,
0000
0000
0000
0000
,
0010
0000
0100
0000
2001
0000
0000
3001
,
0100
0000
0010
0000
1020
0000
0000
1030
,
0010
0000
1000
0000
1200
0000
0000
1300
,
0100
0000
0010
0000
0012
0000
0000
0103
,
0010
0100
0001
0000
1002
0000
0000
1003
,
0001
1000
0100
0000
1200
0000
0000
1300
,
0100
0010
0001
0000
0120
0000
0000
0130
,
0010
1000
0001
0000
2001
0000
0000
3001
,
0110
0001
0010
1000
0010
0010
0001
0100
,
1000
1000
0100
0001
0010
0110
0001
1000
,
1001
0010
1000
0010
0001
0001
1000
0100
,
0001
0100
1000
0010
0100
0110
0001
1000
,
1001
0010
0100
0100
0001
0010
0010
0010
,
1000
0100
0100
0100
1000
0110
0001
1000
,
1001
0001
0001
0001
1000
1000
1000
1000
,
0010
0000
0100
0001
1000
0000
0001
1000
0200
0000
0000
0000
2300
0000
0000
0000
,
3020
0000
0000
0000
0000
0000
0100
0000
0001
0000
0000
0001
0000
0000
0001
0000
,
1000
0000
0000
1000
0000
0000
1030
0000
0001
0100
0000
0000
0101
0000
0000
0001
,
2000
0000
0000
0000
0000
0000
0100
0000
0001
0000
0000
0001
0000
0000
0001
0000
,
0010
0000
0000
0010
0000
0000
3010
0000
0100
0010
0000
0000
0110
0000
0000
0010
,
0100
0000
0001
0000
1000
0000
1001
0000
0001
0000
0010
0000
0100
0000
0010
0100
,
1000
0001
0101
0010
1000
1001
0010
0100
,
1001
0000
0001
0000
1000
0000
1001
0000
0100
0000
0010
0000
0100
0001
0100
0001
,
2000
0000
0000
0001
0000
0000
3001
0000
0100
0010
0000
0000
0110
0000
0000
0001
,
1000
0000
0001
0000
0100
0000
0001
0000
1000
0000
0000
1000
0100
0000
1000
0000
,
0010
0000
0000
0010
0100
0000
0001
0000
1000
0001
0000
0000
1001
0000
0000
0001
,
1000
0000
0001
0000
0010
0000
0100
0000
0010
0000
0000
0010
0001
0000
1000
0000
,
0001
0000
0000
0001
0100
0000
0010
0000
0100
0010
0000
0000
1010
0000
0000
0010
,
0100
0000
0001
0000
1000
0000
0001
0000
1000
0000
0000
1000
0100
0000
0010
0000
,
0100
0000
0000
0100
0010
0000
0001
0000
0100
0010
0000
0000
0110
0000
0000
0010
,
0100
0000
0001
0000
1000
0000
0001
0000
0100
0000
0000
0100
0001
1000
0001
1000
,
0001
0000
0000
1001
0000
0000
1010
0000
0000
0101
0000
0000
1100
0000
0000
0001
,
0010
0000
0100
0000
0010
0000
0001
0000
1000
0000
0100
1000
0000
0100
1000
0000
,
0010
0000
0100
0010
0000
0100
0010
0000
1000
0010
0000
0000
1010
0000
0000
0001
,
0100
0000
0001
0000
0010
0000
0100
0000
0010
0000
0001
0010
0000
0001
0010
0000
,
0001
0000
0100
0010
0000
0100
0010
0000
1000
0001
0000
0000
0101
0000
0000
0001
,
1000
0000
0001
0000
0010
0000
0100
0000
1000
0000
0001
0100
0000
0010
1000
0000
,
1001
0000
0010
0100
0000
1000
0001
0000
0100
0010
0000
0000
0110
0000
0000
0010
,
0100
0000
0100
0000
0001
0000
0001
0000
1000
0001
1000
0001
1000
0001
1000
0010
,
0200
0000
0000
0001
0000
0000
1300
0000
0001
1000
0000
1000
0002
0000
0000
0000
,
1003
0100
0001
0100
1000
0100
0001
0100
,
1000
0010
0001
0010
1000
0010
0001
0010
,
1000
0100
0010
0001
1000
0100
0010
0001
,
1000
0010
0100
0001
1000
0010
0100
0001
,
0101
0010
0100
1000
0001
0010
0100
1000
,
0001
0010
1000
0010
0001
0010
1000
0010
,
0001
0100
1000
0100
0001
0100
1000
0100
,
0001
0000
0010
0000
0100
0000
1000
0000
0110
0000
0001
1000
0100
0000
1000
0000
,
1001
0010
0100
0001
1000
0001
1000
0000
,
2001
0000
0000
3001
1000
0000
0001
0000
2001
0000
0000
3001
1000
0000
0001
0000
,
0120
0000
0000
0130
0010
0000
0100
0000
0120
0000
0000
0130
0010
0000
0100
0000
,
0210
0000
0000
0301
0100
0000
0001
0000
0201
0000
0000
0301
0100
0000
0001
0000
,
0101
0010
1000
0100
0001
1000
0001
0000
,
2100
0000
0000
3100
1000
0000
0001
0000
2001
0000
0000
3001
1000
0000
0001
0000
,
0210
0000
0000
0310
0100
0000
0010
0000
1020
0000
0000
1030
0010
0000
1000
0000
,
1002
0000
0000
1003
0001
0000
1000
0000
1001
0000
0110
0000
0101
0000
1100
0000
,
0011
1000
0100
0001
0100
1000
0010
0001
,
0010
0000
0000
0010
0100
0000
0001
0000
1000
0000
0000
0000
0110
0000
0000
0000
,
1001
0010
0100
0000
1001
0100
0010
0000
,
1001
0000
0000
0001
1000
0000
0001
0000
1000
0000
0001
0000
0101
0000
0000
0000
,
1100
0001
0010
0100
1000
0100
0010
0001
,
1001
0000
0010
1000
0000
0010
1000
0000
0001
0000
0100
0000
0010
0000
0100
0000
,
1001
0100
0100
0100
1001
0010
0010
0010
,
1001
0000
0001
1000
0100
0000
1000
0001
0010
0000
0001
0100
0010
0000
1000
0100
,
2000
0000
0000
0001
0000
0000
0001
0000
0000
0100
0000
0000
0010
0000
0100
0000
,
0001
0000
0000
0001
0000
0000
0001
0000
0100
0000
0000
0010
0000
0000
3100
0000
,
0002
0000
0000
0010
0000
0000
0010
0000
0000
1000
0000
0000
0100
0000
1000
0000
,
0100
0000
0000
0100
0000
0000
0010
0000
1000
0000
0000
0010
0000
0000
0103
0000
,
0020
0000
0000
0100
0000
0000
0001
0000
0000
1000
0000
0000
0001
0000
1000
0000
,
0001
0000
0000
0001
0000
0000
1000
0000
0100
0000
0000
0100
0000
0000
1030
0000
,
0200
0000
0000
1000
0000
0000
0010
0000
0001
0000
0000
0010
0000
0000
0301
0000
,
2001
0000
0000
0010
0000
0000
0100
0000
0000
0001
0000
0000
3100
0000
0010
0000
,
1001
0000
0001
0010
0000
0001
0010
0000
0100
1000
0000
0100
1000
0000
0100
0000
,
0010
0000
0000
0010
0001
0000
1000
0000
0001
0000
0000
0001
1000
0000
0001
0000
,
1001
0000
0001
0010
0000
0001
0010
0000
0100
1000
0000
0100
1000
0000
0100
0000
,
0010
0000
0000
0010
0100
0000
1000
0000
0010
0000
0000
0010
0100
0000
0001
0000
,
1001
0000
0001
0010
0000
0001
0010
0000
0100
0000
1000
0000
1001
0000
0000
0000
,
1001
0000
1000
0010
0000
1000
0010
0000
0100
0000
0001
0000
1001
0000
0000
0000
,
1001
0000
0000
0001
0010
0000
0000
0010
0100
0000
0000
0100
1000
0000
0000
1000
,
0001
0000
1001
0000
1000
0000
1001
0000
0010
0000
1000
0100
0001
0000
0100
1000
,
0020
0000
0000
0000
,
0000
0000
0000
0000
0030
0000
0000
0000
0110
0000
0110
0000
0001
1000
0100
1000
,
0001
0000
0000
0001
0100
0000
0010
0000
0000
0010
1000
0000
0010
0000
0100
0000
,
0001
0000
0000
0001
1000
0000
0100
0000
1000
0000
0000
1000
0100
0000
1000
0000
,
0010
0000
0000
0010
0100
0000
0001
0000
0000
0001
1000
0000
0001
0000
0010
0000
,
0100
0000
0000
0100
0010
0000
0001
0000
0010
0000
0000
0010
0001
0000
0100
0000
,
1001
0000
0000
1000
0010
0000
1000
0000
0000
1000
0100
0000
1000
0000
0001
0000
,
0100
0000
0000
0100
0001
0000
1000
0000
0010
0000
0000
0010
1000
0000
0001
0000
,
1000
0000
0100
1000
0000
0100
1000
0000
0100
0000
0010
0100
0000
0010
0100
0000
,
1000
0000
0001
1000
0000
1000
0001
0000
1000
0001
0000
0001
0100
0000
0110
0000
,
1001
0010
0100
1000
0001
0010
0100
1000
,
0001
0010
0100
1000
0100
0010
0001
1000
,
1001
0100
0010
0001
1000
0100
0010
0001
,
1000
0100
0010
0001
0010
1000
0100
0001
,
1001
0100
0010
1000
0001
0100
0010
0001
,
1001
0010
1000
0001
0100
1000
0001
0010
,
0100
0000
0100
0000
0100
0000
0100
0000
0010
0000
0001
1000
0100
0000
1000
0000
,
0001
0000
1000
0001
1000
0000
0010
0001
0010
0000
1000
0100
0010
0000
0100
1000
,
2002
0000
0000
0000
,
0000
0000
0000
3003
;

//---------------dance-single - ----------------
#NOTES:
     dance-single:
     :
     Challenge:
     20:
     1.225429,1.309603,0.984237,1.082661,1.362790,1133.000,1003.000,130.000,143.000,0.000,0.000,1.225429,1.309603,0.984237,1.082661,1.362790,1133.000,1003.000,130.000,143.000,0.000,0.000:
0000
0000
0000
0000
,
0000
0000
0000
0000
,
1001
0000
0011
0000
2010
0000
0000
3001
,
0101
0000
0011
0000
1002
0000
0000
1003
,
1010
0000
1100
0000
0210
0000
0000
0310
,
0110
0000
0101
0000
1020
0000
0000
1030
,
1010
1000
1100
0000
0102
0000
0000
0013
,
0011
0001
1100
0000
2001
0000
0000
3010
,
0110
0001
0101
0000
0120
0000
0000
0130
,
0101
1000
1001
0000
1200
0000
0000
1300
,
1001
0000
0010
0000
0100
0001
0100
0001
1000
0000
0001
0000
0010
0100
1000
0100
,
0010
0000
0001
0000
0100
0010
1000
0010
0100
0000
1002
0000
0013
0000
0100
0000
,
1001
0000
0010
0000
0001
0010
0100
1000
0001
0000
0100
0000
0010
1000
0001
0100
,
0001
0000
1000
0000
0001
0100
0010
1000
0100
0000
0210
0000
0301
0000
1000
0000
,
1001
0000
0010
0000
0100
0010
1000
0001
0100
0000
0001
0000
1000
0100
0010
0001
,
1000
0000
0001
0000
0100
0001
1000
0010
0100
0000
2001
0000
3010
0000
0100
0000
,
1001
1001
1010
1010
0101
0101
1100
1100
,
0001
0010
1000
0001
0100
1000
0001
0010
1000
0001
0100
0010
1000
0010
0100
0001
,
2001
0000
0000
0000
0000
0000
3001
0100
0020
0000
0130
0020
0000
0130
0020
0000
,
1030
0000
0001
2000
0000
3001
2000
0000
3001
0100
0000
0100
0001
0000
1000
0100
,
0020
0000
0000
0000
0000
0000
0130
1000
0020
0000
0130
0002
0000
0103
0002
0000
,
2003
0000
3100
2000
0000
3100
2000
0000
3010
0100
0000
0100
0010
0000
1000
0001
,
0110
0000
0100
0000
0001
0000
1001
0000
0010
0000
1000
0000
1100
0000
0001
0100
,
0101
0000
0001
0000
1001
0000
0010
1000
0100
0000
1002
0000
0103
0000
0010
0000
,
0110
0000
0001
0000
1000
0000
1001
0000
1000
0000
0100
0000
0001
0010
0100
1000
,
2002
3003
0000
2020
3030
0000
0202
0303
1000
0001
0000
0001
0100
0010
1000
0001
,
1001
0000
0010
0000
0100
0001
1000
0001
0100
0000
0001
1000
0000
0001
0010
0100
,
0010
0000
0001
0010
0000
0001
0100
0000
0010
1000
0000
1000
0010
0000
0100
0001
,
1000
0000
0001
0000
0100
0010
1000
0001
0100
0000
0001
1000
0000
0001
0010
0100
,
0010
0000
0001
0100
0000
0010
1000
0010
0100
0001
0000
0001
1000
0000
0001
1000
,
0100
0000
1000
0000
0010
1000
0100
1000
0001
0000
0100
0010
0000
1000
0010
0100
,
0001
0000
1000
0100
0000
1000
0001
0100
0010
1000
0000
1000
0010
0000
0100
0001
,
1000
0000
0001
0000
0100
0001
1000
0001
0010
0000
0100
0010
0100
0010
0100
0010
,
1001
0000
0000
0101
0000
0000
1010
0000
0000
1100
0000
0000
1001
0000
0000
0001
,
1001
0000
0010
0000
1000
0010
1000
0010
0100
0000
0001
0000
1000
0100
1000
0100
,
0010
0000
0100
1000
0000
0001
0100
0010
1000
0001
0000
0001
0100
0000
0001
0100
,
0010
0000
1000
0000
0001
1000
0001
1000
0100
0000
1000
0000
0010
0100
0010
0100
,
0001
0000
0010
0100
0000
0100
1000
0100
0010
0001
0000
0001
1000
0000
0010
0100
,
1001
0000
0010
0000
0100
0001
0100
0001
1000
0000
0001
0010
0000
0001
0010
0100
,
1001
0000
0100
0010
0000
0001
0100
0010
1000
0010
0000
0100
0001
0000
1000
0100
,
1100
0000
0101
0000
1100
0000
0110
0000
0001
0010
1000
0001
0100
1000
0001
1000
,
1002
0000
0000
0023
0000
0000
0230
0000
1300
0010
0100
0001
2000
0000
3001
0000
,
1001
0010
0200
0000
1300
0010
0200
0000
0301
0010
0200
0000
1300
0010
0200
0000
,
0310
1000
0002
0000
0103
0001
2000
0000
3010
1000
0002
0000
0103
0001
2000
0000
,
3001
0010
0200
0000
1300
0100
0020
0000
0031
0010
0200
0000
1300
0010
0200
0000
,
0310
0100
0002
0000
0103
0010
2000
0000
3010
0100
0002
0000
1003
0000
1100
0000
,
1010
0010
2000
0000
3010
0100
0002
0000
0013
0100
2000
0000
3010
0100
0002
0000
,
0103
0010
0200
0000
0310
1000
0020
0000
0130
0001
0200
0000
0301
0010
0002
0000
,
1003
0100
0020
0000
0031
0100
0020
0000
1030
0001
0200
0000
0301
1000
0200
0000
,
1300
0010
2000
0000
3001
0100
0002
0000
1003
0000
0001
1000
0100
0000
1001
0000
,
0110
0000
0100
0010
1000
0000
0001
0000
0100
0000
0001
0000
1001
0000
1000
0000
,
0120
0000
0130
0020
0000
0130
0010
0100
0020
0000
0130
0020
0000
0130
0010
0100
,
0020
0000
1030
0020
0000
1030
0010
1000
0020
0000
1030
0020
0000
1030
0100
1000
,
0200
0000
1300
0200
0000
1300
0100
1000
0200
0000
1300
0200
0000
1300
0100
1000
,
0010
0000
0100
0001
1000
0000
0001
0000
0010
0000
0100
0000
1001
0000
0001
0000
,
0021
0000
0031
0020
0000
0031
0010
0001
0020
0000
0031
0020
0000
0031
0010
0001
,
2000
0000
3001
2000
0000
3001
1000
0001
2000
0000
3001
2000
0000
3001
1000
0001
,
0200
0000
0310
0200
0000
0310
0100
0010
0100
0000
1001
0000
0110
0000
1001
0000
,
1100
0000
0001
0010
0001
0010
0001
0100
0001
0100
0001
0010
0001
1000
0001
1000
,
1001
0000
0010
0100
0010
0100
0001
0100
0010
1000
0001
0100
0010
1000
0001
1000
,
1001
0000
0100
0010
1000
0000
0001
0000
1001
0000
0010
0100
0001
0000
1000
0000
,
1001
0000
0100
0010
1000
0001
0100
0010
1000
0100
0010
0001
0110
0000
0100
0000
,
1001
0000
0001
0010
0100
1000
0001
0100
0010
1000
0001
0100
0001
1000
0010
1000
,
0110
0000
0010
1000
0100
0010
0100
1000
0001
0100
0010
0100
0001
1000
0001
0100
,
1001
1010
0101
1100
0011
1001
0110
1001
,
0001
1000
0001
1000
0010
0100
0010
0100
0001
0010
1000
0001
0100
1000
0100
0001
,
2100
0000
0000
3002
0000
0000
0203
0000
0000
0320
0000
0000
0130
0000
0101
0000
,
0002
0000
0000
2003
0000
0000
3020
0000
0230
0000
0000
0302
0000
0000
1003
0000
,
2100
0000
0000
3200
0000
0000
0320
0000
0000
0032
0000
0000
0103
0000
0110
0000
,
0020
0000
0000
2030
0000
0000
3002
0000
0203
0000
0000
0302
0000
0000
1003
0000
,
1002
0000
0000
2003
0000
0000
3020
0000
0000
0230
0000
0000
0310
0000
0110
0000
,
0200
0000
0000
0302
0000
0000
2003
0000
3200
0000
0000
0302
0000
0000
0103
0000
,
2100
0000
0000
3020
0000
0000
0031
0000
0020
0000
0000
2030
0000
0000
3100
0000
,
0001
0100
0000
0100
1000
0000
1000
0010
0000
0010
0001
0000
0010
0000
0100
0000
,
1001
0000
0001
0010
0000
0001
0100
0000
0001
0010
0000
0001
0100
0001
0010
0001
,
1000
0000
0010
0100
0000
0010
1000
0010
0100
0000
0001
0100
0000
0001
1000
0001
,
1001
0000
0010
0100
0000
0010
1000
0000
0001
0010
0000
0100
1000
0100
0010
0001
,
1000
0000
0010
1000
0000
0001
0100
0001
1000
0000
0001
0100
0000
0010
1000
0001
,
1001
0000
0100
0010
0000
1000
0010
0000
0100
0000
0001
1000
1001
0000
0010
0000
,
1001
0000
0010
0100
0000
0010
1000
0000
0001
0000
0100
0001
1001
0000
0010
0000
,
1001
0000
1000
0001
0101
0000
1000
0000
1001
0000
0001
1000
1100
0000
1000
0000
,
1001
0000
0000
0110
0000
0000
0101
0000
0000
1100
0000
0000
1001
0000
0000
0001
0010
0100
1000
0000
0000
0001
0010
0100
,
0020
0000
0000
0000
,
0000
0000
0000
0000
0030
0000
0000
0000
0110
0000
0110
0000
0001
1000
0100
1000
,
1001
0000
0010
1000
0000
0010
0100
0000
0010
0200
0000
0301
0100
0001
1000
0001
,
2000
0000
3001
0200
0000
0301
0100
0001
0020
0000
0130
0020
0000
0031
0010
0100
,
1000
0000
0001
0100
0000
0010
1000
0000
0001
0020
0000
0130
0010
0001
1000
0100
,
2000
0000
3100
0020
0000
0130
1000
0100
2000
0000
3010
2000
0000
3001
0100
0001
,
1001
0000
0100
0010
0000
1000
0010
0000
1000
0002
0000
0103
0001
0100
0010
0100
,
0002
0000
0013
0200
0000
0310
0001
0010
0200
0000
1300
0200
0000
1300
0010
1000
,
0002
0000
0103
0002
0000
0103
0001
0100
0020
0000
0130
0020
0000
0130
0010
0100
,
0020
0000
1030
0020
0000
1030
0200
0000
1300
0200
0000
1300
0010
0000
0110
0000
,
1001
0000
0010
0100
1000
0000
0001
0000
0100
0000
0001
0010
0100
0000
1000
0000
,
0100
0000
1000
0010
0100
0000
0001
0000
1000
0000
0001
1000
0100
0000
0010
0000
,
1001
0000
0010
1000
0001
0000
0100
0000
0001
0000
0100
0001
1000
0000
0001
0000
,
0010
0000
0001
0010
0100
0000
1000
0000
0100
0000
1000
0010
0100
0000
0001
0000
,
1001
0000
0001
0100
1000
0000
0100
0000
1000
0000
0010
1000
0001
0000
1000
0000
,
1001
0000
1000
0010
0001
0000
0100
0000
0010
0000
1000
0100
0001
0000
0100
0000
,
1100
0000
0011
0000
0101
0000
1010
0000
1001
0000
0001
1000
0100
0000
1000
0000
,
1001
0000
0000
0001
0010
0100
1000
0000
0000
0001
0100
0010
1000
0000
0000
0010
1000
0001
0100
0000
0000
0001
1000
0001
,
2002
0000
0000
0000
,
0000
0000
0000
3003
;

//---------------dance-double - ----------------
#NOTES:
     dance-double:
     :
     Easy:
     8:
     0.435876,0.539248,0.575400,0.507261,0.015142,403.000,327.000,76.000,67.000,0.000,0.000,0.435876,0.539248,0.575400,0.507261,0.015142,403.000,327.000,76.000,67.000,0.000,0.000:
// measure 0
00000000
00000000
00000000
00000000
,  // measure 1
00000000
00000000
00000000
00000000
,  // measure 2
00001000
00010000
00022000
00033000
,  // measure 3
00000010
00000100
00020200
00030300
,  // measure 4
00100000
00010000
00002200
00003300
,  // measure 5
00000001
00000100
00002020
00003030
,  // measure 6
00000100
00001000
02020000
03030000
,  // measure 7
01000000
10000000
20200000
30300000
,  // measure 8
00100000
01000000
00022000
00033000
,  // measure 9
00010000
00001000
00202000
00303000
,  // measure 10
00001000
00010000
00001000
00010000
,  // measure 11
00001000
00011000
00001000
00010000
,  // measure 12
00000010
00000100
00001000
00010000
,  // measure 13
00001000
00000110
00000010
00000110
,  // measure 14
00001001
00000100
00010000
00001000
,  // measure 15
00101000
00010000
01000000
10000000
,  // measure 16
01100000
00010000
10010000
01000000
,  // measure 17
00010000
00001000
00000100
00000001
,  // measure 18
00001002
00000000
00002003
00000000
,  // measure 19
00003020
00000000
00020030
00000000
,  // measure 20
00032000
00000000
02003000
00000000
,  // measure 21
03200000
00000000
10300000
00000000
,  // measure 22
01100000
00000000
00010000
00001000
,  // measure 23
00010000
00010000
00022000
00033000
,  // measure 24
01001000
00000000
00100000
00100000
,  // measure 25
00202000
00000000
00000000
00303000
,  // measure 26
01001000
00000000
01000000
01000000
,  // measure 27
00001000
00010000
00022000
00033000
,  // measure 28
00002020
00003030
00000001
00000100
,  // measure 29
02002000
03003000
00202000
00303000
,  // measure 30
00022000
00033000
00001000
00001000
,  // measure 31
00010000
00001000
00000100
00000110
,  // measure 32
00020020
00030030
00000001
00000100
,  // measure 33
00001100
00000000
00000000
00011000
00000000
00000000
00001100
00000000
00000000
00011000
00000000
00000000
00000000
00000000
00000000
00000000
,  // measure 34
00020200
00030300
00010000
00100000
,  // measure 35
01000000
00010000
00022000
00033000
,  // measure 36
02200000
03300000
10000000
00100000
,  // measure 37
01000000
00010000
20020000
30030000
,  // measure 38
02002000
03003000
01000000
00100000
,  // measure 39
00010000
00001000
00022000
00033000
,  // measure 40
00002020
00003030
00000001
00000100
,  // measure 41
00002002
00000000
00000000
00003003
,  // measure 42
00000001
00000100
00001000
00000100
,  // measure 43
00000001
00000000
00000010
00000000
00001000
00000000
00000100
00010000
,  // measure 44
00001000
00010000
00001000
00100000
,  // measure 45
10000000
00000000
01000000
00000000
00010000
00000000
10000000
00010000
,  // measure 46
01000000
00100000
00010000
10000000
,  // measure 47
00100000
00010000
00001000
00000100
,  // measure 48
00000010
00000010
00000010
00000010
,  // measure 49
00000001
00000000
00000001
00000000
00000001
00000000
00001000
00000010
,  // measure 50
00000100
00000100
00000100
00000100
,  // measure 51
00000120
00001000
00001000
00001030
,  // measure 52
00201000
00001000
00001000
00301000
,  // measure 53
02100000
00000000
00100000
00000000
03100000
00000000
01000000
01000000
,  // measure 54
01000000
01000000
01000000
01000000
,  // measure 55
20100000
00100000
00100000
30100000
,  // measure 56
20010000
00010000
00010000
30010000
,  // measure 57
02001000
00000000
00001000
00000000
03001000
00000000
01000000
01000000
,  // measure 58
01100000
00010000
10000000
00010000
,  // measure 59
00110000
00010000
00000010
00000100
,  // measure 60
00000110
00000001
00010010
00000000
,  // measure 61
00010100
00010000
00000100
00010000
,  // measure 62
00001001
00000010
00000100
00000010
,  // measure 63
00001001
00000000
00000100
00010000
,  // measure 64
00011000
00000000
01100000
00000000
,  // measure 65
00011000
00000000
00001000
00010000
,  // measure 66
00022000
00000000
00000000
00000000
,  // measure 67
00000000
00000000
00000000
00033000
,  // measure 68
00000000
00000000
00000000
00000000
,  // measure 69
00000000
00000000
00000000
00000000
,  // measure 70
00010000
00000000
00001000
00000000
,  // measure 71
00010000
00010000
00001000
00000100
,  // measure 72
00010000
00000000
00000010
00000000
,  // measure 73
00010000
00010000
00001000
00010000
,  // measure 74
00011000
00100000
00000000
00100000
,  // measure 75
00010000
00100000
00010000
00100000
,  // measure 76
00011000
00000010
00000000
00000010
,  // measure 77
00001000
00000010
00001000
00000010
,  // measure 78
00011000
00000010
00000000
00000010
,  // measure 79
00011000
00100000
00000000
00100000
,  // measure 80
00011000
00000000
00011000
00000000
,  // measure 81
00011000
00001000
00001000
00001000
00010000
00000000
00011000
00000000
,  // measure 82
00202000
00000000
00000000
00000000
,  // measure 83
00000000
00000000
00303000
00000000
01000000
01000000
01000000
00000000
,  // measure 84
01100000
10000000
00100000
01000000
,  // measure 85
00010000
00000000
00010000
00000000
10000000
00000000
00010000
01000000
,  // measure 86
00001000
00010000
00000100
00010000
,  // measure 87
00000010
00000000
00000100
00000000
00000001
00000000
00001000
00000001
,  // measure 88
00000100
00000010
00001000
00010000
,  // measure 89
00100000
10000000
01000000
00010000
,  // measure 90
10000000
00000000
00000000
10000000
00000000
00000000
10000000
00000000
10000000
00000000
00000000
00000000
00010000
00000000
00000000
00000000
,  // measure 91
00000100
00000000
00000000
00000100
00000000
00000000
00000100
00000000
00000100
00000000
00000000
00000000
00011000
00000000
00000000
00000000
,  // measure 92
00010010
00000001
00000100
00001000
,  // measure 93
00000100
00000000
00000010
00000000
00001000
00000000
00000100
00010000
,  // measure 94
00001000
00100000
00001000
01000000
,  // measure 95
00100000
00000000
01000000
00000000
00010000
00000000
10000000
00010000
,  // measure 96
01000000
10010000
00000000
00100000
,  // measure 97
00011000
00000010
00000000
00000010
,  // measure 98
00011000
00000000
00101000
00000000
,  // measure 99
00011000
00000000
00010100
00000000
,  // measure 100
00022000
00000000
00000000
00000000
,  // measure 101
00000000
00000000
00000000
00033000
;

//---------------dance-double - ----------------
#NOTES:
     dance-double:
     :
     Medium:
     12:
     0.612174,0.731837,0.386124,0.227132,0.306628,566.000,515.000,51.000,30.000,0.000,0.000,0.612174,0.731837,0.386124,0.227132,0.306628,566.000,515.000,51.000,30.000,0.000,0.000:
// measure 0
00000000
00000000
00000000
00000000
,  // measure 1
00000000
00000000
00000000
00000000
,  // measure 2
00000100
00010000
00022000
00033000
,  // measure 3
00000010
00000100
00000220
00000330
,  // measure 4
00010000
00000100
00020200
00030300
,  // measure 5
00100000
00000000
00001000
00000000
00201000
00000000
00300000
00001000
,  // measure 6
01000000
00000000
00100000
00000000
02100000
00000000
00000000
03100000
,  // measure 7
10000000
00000000
00010000
00000000
10020000
00000000
00000000
10030000
,  // measure 8
01000000
00000000
00100000
00000000
00201000
00000000
00000000
00301000
,  // measure 9
01000000
00000000
00001000
00000000
00012000
00000000
00000000
00013000
,  // measure 10
00001000
00000000
01000000
00100000
10000000
00000000
00100000
00000000
,  // measure 11
01000000
00010000
01000000
00010000
20000000
00000000
30010000
00000000
,  // measure 12
00100000
00000000
00001000
01000000
00100000
00000000
01000000
00000000
,  // measure 13
00001000
00010000
00001000
00000000
00011000
00000000
00100000
00001000
,  // measure 14
00011000
00000000
00000100
00010000
00000100
00000000
00000100
00000010
,  // measure 15
00000001
00000100
00000010
00000000
00000110
00000000
00000010
00001000
,  // measure 16
00000001
00000001
00000010
00000010
00000100
00000100
00001000
00001000
,  // measure 17
00010000
00010000
00100000
00100000
02000000
00000000
13000000
00000000
,  // measure 18
02100000
00000000
00000000
00000000
00000000
00000000
03010000
00000000
01000000
00000000
00000000
01000000
00000000
00000000
01000000
00000000
,  // measure 19
00001000
00000000
00000000
00001000
00000000
00000000
00001000
00000000
00100000
00000000
00000000
00001000
00000000
00000000
00000000
00001000
,  // measure 20
00200000
00000000
00000000
00000000
00000000
00000000
00301000
00000000
00010000
00000000
00000000
00010000
00000000
00000000
00010000
00000000
,  // measure 21
00000100
00000000
00000000
00000100
00000000
00000000
00000100
00000000
00000000
00000001
00000000
00000000
00000001
00000000
00000000
00000010
,  // measure 22
00000100
00000000
00000001
00000100
00000000
00000001
00000010
00000100
,  // measure 23
00001000
00000000
00011000
00100000
00001000
00011000
00000100
00010000
,  // measure 24
00011000
00000000
00100000
00001000
01000000
00100000
10000000
00010000
,  // measure 25
20020000
00000000
00000000
00000000
30030000
00000000
00100000
01000000
,  // measure 26
00011000
00000000
00000000
00000000
00001000
00000000
00010000
00000000
00001000
00000000
00000000
00001000
00000000
00000000
00001000
00000000
,  // measure 27
01000000
00000000
00000000
01000000
00000000
00000000
01000000
00000000
00000000
00001000
00000000
00000000
00010000
00000000
00000000
00001000
,  // measure 28
00010000
00000000
00000000
00000000
00000000
00000000
00001000
00000000
00000100
00000000
00000000
00000100
00000000
00000000
00000100
00000000
,  // measure 29
00000001
00000000
00000000
00000001
00000000
00000000
00000001
00000000
00000000
00000010
00000000
00000000
00001000
00000000
00000000
00000010
,  // measure 30
00001000
00000000
00000000
00000000
00000000
00000000
00000001
00000000
00000010
00000000
00000000
00000010
00000000
00000000
00000010
00000000
,  // measure 31
00010000
00000000
00000000
00010000
00000000
00000000
00010000
00000000
00000000
00000100
00000000
00000000
00000001
00000000
00000000
00000100
,  // measure 32
00001000
00000000
00000000
00000000
00000000
00000000
00100000
00000000
01000000
00000000
00000000
01000000
00000000
00000000
10000000
00000000
,  // measure 33
00010000
00000000
00000000
10010000
00000000
00000000
00110000
00000000
00000000
00011000
00000000
00000000
01001000
00000000
00000000
00001000
,  // measure 34
01000000
00000000
00000000
00000000
00100000
00000000
01000000
00000000
00010000
00000000
00000000
00010000
00000000
00000000
00010000
00000000
,  // measure 35
00100000
00000000
00000000
00100000
00000000
00000000
00100000
00000000
00000000
00001000
00000000
00000000
00010000
00000000
00000000
00001000
,  // measure 36
00010000
00000000
00000000
00000000
00001000
00000000
00000010
00000000
00000100
00000000
00000000
00000100
00000000
00000000
00000100
00000000
,  // measure 37
00010000
00000000
00000000
00010000
00000000
00000000
00010000
00000000
00000000
00000010
00000000
00000000
00000100
00000000
00000000
00000010
,  // measure 38
00000100
00000000
00000000
00000000
00000010
00000000
00010000
00000000
00001000
00000000
00000000
00010000
00000000
00000000
00001000
00000000
,  // measure 39
00011000
00000000
00000000
01000000
00000000
00000000
00001000
00000000
00000000
00100000
00000000
00000000
00001000
00000000
00000000
00001000
,  // measure 40
01000000
00100000
10000000
00010000
01000000
00001000
00100000
01000000
,  // measure 41
20020000
00000000
00000000
30030000
,  // measure 42
10000000
00000000
01000000
00000000
00010000
00000000
01000000
10000000
,  // measure 43
00100000
00000000
01000000
00000000
00010000
00000000
01000000
00001000
,  // measure 44
00100000
00000000
00001000
00000000
00010000
00000000
00001000
00000100
,  // measure 45
00000001
00000000
00000100
00000000
00001000
00010000
00001000
01000000
,  // measure 46
00001000
00000000
00100000
00000000
00001000
00000000
01000000
00100000
,  // measure 47
10000000
00000000
00100000
00000000
01000000
00000000
00010000
00000100
,  // measure 48
00000001
00000000
00000100
00000000
00010000
00000000
00001000
01000000
,  // measure 49
00100000
00000000
01100000
00000000
00100000
01000000
00010000
10000000
,  // measure 50
10010000
01100000
20020000
30030000
,  // measure 51
10000000
00000000
00000000
01000000
00000000
00000000
00010000
00000000
01000000
00000000
00000000
10000000
00000000
00000000
00100000
00000000
,  // measure 52
00001000
00000000
00000000
00000010
00000000
00000000
00000001
00000000
00000010
00000000
00000000
00001000
00000000
00000000
00000100
00000000
,  // measure 53
00000001
00000000
00000000
00000100
00000000
00000000
00010000
00000000
01000000
00000000
00000000
10000000
00000000
00000000
01000000
00000000
,  // measure 54
10000000
00100000
02200000
03300000
,  // measure 55
00100000
00000000
00000000
10000000
00000000
00000000
00100000
00000000
00010000
00000000
00000000
00001000
00000000
00000000
00000100
00000000
,  // measure 56
00000001
00000000
00000000
00000100
00000000
00000000
00001000
00000000
00100000
00000000
00000000
10000000
00000000
00000000
00100000
00000000
,  // measure 57
00001000
00000000
00000000
00000100
00000000
00000000
00000010
00000000
00010000
00000000
00000100
00000000
00000001
00000000
00000100
00000000
,  // measure 58
00011000
00100000
00001000
01000000
,  // measure 59
00100000
01000000
00100000
01000000
00100000
00000000
01100000
00000000
,  // measure 60
10000000
00010000
01000000
00000000
00010000
10000000
01000000
00000000
,  // measure 61
10000000
01000000
00100000
00010000
10000000
00000000
01100000
00000000
,  // measure 62
01001000
00001000
00100000
00001000
,  // measure 63
00000100
00000010
00001000
00000001
00001000
00000000
00000001
00000000
,  // measure 64
00001001
00000010
00000100
00000000
00011000
00000100
00010000
00000000
,  // measure 65
00000100
00010000
00000100
00010000
00000010
00000000
00000110
00000000
,  // measure 66
00020020
00000000
00000000
00000000
,  // measure 67
00000000
00000000
00000000
00030030
,  // measure 68
00000000
00000000
00000000
00000000
,  // measure 69
00000000
00000000
00000000
00000000
,  // measure 70
00000010
00000000
00000000
00010000
00000000
00000000
00000100
00000000
00000000
00010000
00000000
00000000
00000100
00000000
00010000
00000000
,  // measure 71
00001000
00000000
00000000
00001000
00000000
00000000
00001000
00000000
00100000
00000000
00000000
00100000
00000000
00000000
00001000
00000000
,  // measure 72
01000000
00000000
00000000
01000000
00000000
00000000
00100000
00000000
10000000
00000000
00000000
01000000
00000000
00000000
00010000
00000000
,  // measure 73
00001000
00000000
00000000
00000100
00000000
00000000
00000001
00000000
00000000
00000100
00000000
00000000
00001000
00000000
00000010
00000000
,  // measure 74
00000110
00000000
00000000
00000001
00000000
00000000
00000001
00000000
00000000
00001000
00000000
00000000
00000001
00000000
00001000
00000000
,  // measure 75
00000010
00000000
00000000
00000010
00010000
00000000
00000010
00000000
00000100
00000000
00000000
00000100
00000010
00000000
00010000
00000000
,  // measure 76
00011000
00000000
00000000
00001000
00000000
00000000
00001000
00000000
00000000
01000000
00000000
00000000
00100000
00000000
10000000
00000000
,  // measure 77
01000000
00000000
00000000
01000000
00100000
00000000
00010000
00000000
10000000
00000000
00000000
10000000
00010000
00000000
10000000
00000000
,  // measure 78
10010000
00000000
00000000
00100000
00000000
00000000
00100000
00000000
02000000
00000000
00000000
00000000
03010000
00000000
00000000
00000000
,  // measure 79
00000110
00000000
00000000
00000001
00000000
00000000
00000001
00000000
00000200
00000000
00000000
00000000
00000310
00000000
00000000
00000000
,  // measure 80
00001001
00000000
00000010
00000100
00001000
00000000
01000000
00100000
,  // measure 81
00010000
00001000
00100000
01000000
10000000
01000000
00100000
00001000
,  // measure 82
00020000
00000000
00000000
00000000
,  // measure 83
00000000
00000000
00030000
00000000
00001000
00001000
00011000
00000000
,  // measure 84
00100000
00000000
00000000
00100000
00000000
00000000
00001000
00000000
00000000
01000000
00000000
00000000
00001000
00000000
00010000
00000000
,  // measure 85
00001000
00000000
00000000
00001000
00000000
00000000
00001000
00000000
00000100
00000000
00000000
00001000
00000000
00000000
00010000
00000000
,  // measure 86
00000010
00000000
00000000
00000010
00000000
00000000
00000100
00000000
00000000
00000001
00000000
00000000
00000100
00000000
00000001
00000000
,  // measure 87
00000010
00000000
00000000
00000100
00000000
00000000
00010000
00000000
00000100
00000000
00000000
00010000
00000000
00000000
00001000
00000000
,  // measure 88
00011000
00000000
00000000
00100000
00000000
00000000
00100000
00000000
00000000
00001000
00000000
00000000
01000000
00000000
00100000
00000000
,  // measure 89
10000000
00000000
00000000
00010000
00000000
00000000
01000000
00000000
01000000
00000000
00000000
00100000
00000000
00000000
10000000
00000000
,  // measure 90
00010000
00000000
00000000
01000000
00000000
00000000
00001000
00000000
00010000
00000000
00000000
00010000
00000000
00000000
00001000
00000000
,  // measure 91
00100000
00000000
00000000
00001000
00000000
00000000
01000000
00000000
00000000
00100000
00000000
00000000
01000000
00000000
00001000
00000000
,  // measure 92
00011000
00000000
00000100
00010000
00001000
00000000
00000100
00010000
,  // measure 93
00001000
00000000
00000100
00010000
00001000
00000000
00000100
00010000
,  // measure 94
00000010
00000000
00000100
00000010
00010000
00000000
00000100
00000010
,  // measure 95
00010000
00000000
00000100
00000010
00010000
00000000
00000100
00000010
,  // measure 96
00011000
00000000
00100000
00001000
01000000
00000000
00100000
10000000
,  // measure 97
10010000
00000000
01000000
00001000
00100000
00000000
01000000
00100000
,  // measure 98
00001000
00100000
01000000
10000000
,  // measure 99
10010000
01100000
01001000
00000110
,  // measure 100
00002002
00000000
00000000
00000000
,  // measure 101
00000000
00000000
00000000
00003003
;

//---------------dance-double - ----------------
#NOTES:
     dance-double:
     :
     Hard:
     16:
     0.830653,0.924426,0.620826,0.234703,0.416408,768.000,686.000,82.000,31.000,0.000,0.000,0.830653,0.924426,0.620826,0.234703,0.416408,768.000,686.000,82.000,31.000,0.000,0.000:
// measure 0
00000000
00000000
00000000
00000000
,  // measure 1
00000000
00000000
00000000
00000000
,  // measure 2
01000000
00000000
00001000
00000000
00012000
00000000
00000000
00103000
,  // measure 3
00001000
00000000
01000000
00000000
02001000
00000000
00000000
03001000
,  // measure 4
01000000
00000000
00100000
00000000
20100000
00000000
00000000
30010000
,  // measure 5
01000000
00000000
00001000
00000000
00021000
00000000
00000000
00031000
,  // measure 6
00010000
00001000
00010000
00000000
00012000
00000000
00000000
00013000
,  // measure 7
00000100
00000010
00000001
00000000
00000210
00000000
00000000
00000310
,  // measure 8
00010000
00001000
00010000
00000000
00020100
00000000
00000000
00030100
,  // measure 9
00010000
00001000
00010000
00000000
00012000
00000000
00000000
00013000
,  // measure 10
00011000
00100000
01000000
10000000
01000000
01000000
00010000
00100000
,  // measure 11
10000000
10000000
01000000
00010000
01000000
01100000
00010000
10000000
,  // measure 12
10010000
00100000
00001000
00100000
10000000
10000000
01000000
00001000
,  // measure 13
01000000
10000000
00010000
01000000
00100000
10010000
00100000
01000000
,  // measure 14
00011000
00001000
00000100
00000001
00000100
00000100
00001000
00000010
,  // measure 15
00000001
00000001
00000010
00001000
00000100
00000110
00000001
00001000
,  // measure 16
00000001
00000001
00000001
00000001
00001000
00001000
00001000
00001000
,  // measure 17
00000010
00010000
00001000
00000100
00000010
00000000
00000210
00000000
,  // measure 18
00000320
00000000
00000000
00000000
00000000
00000000
00010000
00000000
00000100
00000000
00000000
00000100
00000000
00000000
00000100
00000000
,  // measure 19
00001000
00000000
00000000
00001000
00000000
00000000
00001000
00000000
00000000
00010000
00000000
00000000
00010030
00000000
00000000
00001000
,  // measure 20
02000000
00000000
00000000
00000000
00000000
00000000
10000000
00000000
00100000
00000000
00000000
00100000
00000000
00000000
00100000
00000000
,  // measure 21
00010000
00000000
00000000
00010000
00000000
00000000
00010000
00000000
00000000
10000000
00000000
00000000
03100000
00000000
00000000
10000000
,  // measure 22
00100000
00000000
01000000
00100000
00000000
10000000
00010000
01000000
,  // measure 23
01100000
00000000
01001000
00100000
01000000
01001000
00010000
00100000
,  // measure 24
00011000
00000000
00001000
01000000
00001000
00010000
00001000
00010000
,  // measure 25
00021000
00000000
00000000
00001000
00000000
00000000
00031000
00000000
00000110
00000000
00000000
00000000
00001100
00000000
00000000
00000100
,  // measure 26
00010000
00000000
00000100
00000000
00010000
00000000
00000010
00000000
00000100
00000000
00000000
00000100
00000001
00000000
00001000
00000000
,  // measure 27
00000010
00000000
00000000
00000010
00001000
00000000
00000001
00000000
00001000
00000100
00000000
00000000
00010100
00000000
00000000
00000100
,  // measure 28
00010000
00000000
00001000
00000000
01000000
00000000
00100000
00000000
10000000
00000000
00000000
10000000
00100000
00000000
01000000
00000000
,  // measure 29
00001000
00000000
00000000
00001000
00100000
00000000
01000000
00000000
00100000
00001000
00000000
00000000
00101000
00000000
00000000
00001000
,  // measure 30
00000100
00000000
00000001
00000000
00000010
00000000
00001000
00000000
00000010
00000000
00000000
00000010
00000001
00000000
00001000
00000000
,  // measure 31
00000010
00000000
00000000
00000010
00000100
00000000
00000001
00000000
00001000
00000001
00000000
00000000
00001001
00000000
00000000
00000001
,  // measure 32
00000100
00000000
00001000
00000000
00010000
00000000
00100000
00000000
10000000
00000000
00000000
10000000
00100000
01000000
00100000
01000000
,  // measure 33
00010000
00000000
00000000
10010000
00000000
00000000
01100000
00000000
00000000
10100000
00000000
00000000
00101000
00000000
00000000
00001000
,  // measure 34
01000000
00000000
00001000
00000000
00010000
00000000
00001000
00000000
00011000
00000000
00000000
00001000
00010000
00000000
00001000
00000000
,  // measure 35
00101000
00000000
00000000
00001000
00100000
00000000
01000000
00000000
00100000
00001000
00000000
00000000
00101000
00000000
00000000
00001000
,  // measure 36
01000000
00000000
00100000
00000000
10000000
00000000
01000000
00000000
01100000
00000000
00000000
00100000
00010000
00000000
10000000
00000000
,  // measure 37
10100000
00000000
00000000
00100000
10000000
00000000
00100000
00000000
01000000
00100000
00000000
00000000
01100000
00000000
01010000
00000000
,  // measure 38
01001000
00000000
00100000
00000000
00001000
00000000
00000100
00000000
00000001
00000000
00000000
00000001
00000010
00000000
00000100
00000000
,  // measure 39
00001001
00000000
00000000
00000001
00001000
00000000
00000010
00000000
00010000
00000010
00000000
00000000
00010010
00000000
00000000
00010000
,  // measure 40
00000100
00000000
00000100
00000000
00000100
00000000
00000100
00000000
00010000
00001000
00010000
00001000
00010000
00001000
00010000
00001000
,  // measure 41
00020000
00000000
00000000
00001000
00000000
00000000
00031000
00000000
00100000
00001000
00000000
00001000
02000000
00000000
00000000
00000000
,  // measure 42
03100000
10000000
01000000
00010000
01000000
10000000
00100000
00010000
,  // measure 43
00100000
10000000
01000000
00010000
01000000
10000000
00100000
01000000
,  // measure 44
00001000
00000010
00000001
00000010
00001000
00000100
00000001
00000100
,  // measure 45
00001000
00000010
00000001
00000010
00001000
00000100
00000010
00000100
,  // measure 46
00011000
00000100
00010000
00001000
00100000
00001000
01000000
00001000
,  // measure 47
00100000
00001000
01000000
00010000
01000000
00100000
10000000
01000000
,  // measure 48
00100000
00010000
00000100
00000010
00010000
01000000
00100000
00010000
,  // measure 49
00000100
00000010
00010000
01000000
00100000
00001000
00010000
00001000
,  // measure 50
00011000
01000000
00100000
10000000
00010000
10000000
10010000
00000000
,  // measure 51
21000000
00000000
00000000
31000000
10000000
00000000
01000000
00000000
21000000
00000000
00000000
31000000
10000000
00000000
00100000
00000000
,  // measure 52
02001000
00000000
00000000
03001000
01000000
00000000
00001000
00000000
02001000
00000000
00000000
03001000
01000000
00000000
00001000
00000000
,  // measure 53
00201000
00000000
00000000
00301000
00100000
00000000
00001000
00000000
00201000
00000000
00000000
00301000
00100000
00000000
00001000
00000000
,  // measure 54
00011000
00000100
00000010
00000001
00000100
00000010
00001001
00000000
,  // measure 55
00000201
00000000
00000000
00000301
00000100
00000000
00000001
00000000
00000201
00000000
00000000
00000301
00000100
00000000
00000001
00000000
,  // measure 56
00010020
00000000
00000000
00010030
00000010
00000000
00010000
00000000
00010020
00000000
00000000
00010030
00000010
00000000
00010000
00000000
,  // measure 57
00010200
00000000
00000000
00010300
00000100
00000000
00010000
00000000
00000100
00000000
00010100
00000000
00011000
00000000
00101000
00000000
,  // measure 58
00011000
01000000
00100000
10000000
00010000
01000000
00100000
10000000
,  // measure 59
10010000
00000000
00000000
00010000
01000000
00000000
00001000
00000000
00100000
00000000
00000000
00000000
00101000
00000000
00000000
00000000
,  // measure 60
10010000
01000000
00100000
00000000
00011000
00100000
00001000
00000000
,  // measure 61
01100000
00000000
00000000
00010000
01000000
00000000
00100000
00000000
10000000
00000000
01000000
00000000
01100000
00000000
00000000
00000000
,  // measure 62
10010000
01000000
00100000
00010000
00001000
00000100
00000010
00000001
,  // measure 63
00000110
00000000
00000000
00000001
00000100
00000000
00000010
00000000
00001000
00000000
00000000
00000000
00000110
00000000
00000000
00000000
,  // measure 64
00000001
00000001
00000010
00000010
00000100
00000100
00001000
00001000
,  // measure 65
00010000
00010000
00100000
00100000
02000000
00000000
13000000
00000000
,  // measure 66
02100000
00000000
00000000
00000000
,  // measure 67
00000000
00000000
00000000
00000000
,  // measure 68
00200000
00000000
00000000
00000000
,  // measure 69
00000000
00000000
00000000
03300000
,  // measure 70
00100000
00000000
00000000
10000000
00000000
00000000
01000000
00000000
00000000
00010000
00000000
00000000
01000000
00000000
10000000
00000000
,  // measure 71
00010000
00000000
00000000
01000000
00000000
00000000
00001000
00000000
00100000
00000000
00000000
00001000
00000000
00000000
00000100
00000000
,  // measure 72
00000001
00000000
00000000
00000100
00000000
00000000
00001000
00000000
00000010
00000000
00000000
00000100
00000000
00000000
00000010
00000000
,  // measure 73
00010000
00000000
00000000
00000010
00000000
00000000
00000100
00000000
00000000
00000110
00000000
00000000
00001000
00000000
00000010
00000000
,  // measure 74
00010010
00000000
00000000
00000100
00000000
00000000
00000100
00000000
00000000
00010000
00000000
00000000
00000100
00000000
00010000
00000000
,  // measure 75
00000010
00000000
00000000
00000010
00000100
00000000
00000001
00000000
00001000
00000000
00000000
00001000
00000001
00000000
00001000
00000000
,  // measure 76
00010010
00000000
00000000
00000100
00000000
00000000
00000100
00000000
00000000
00010000
00000000
00000000
00000100
00000000
00010000
00000000
,  // measure 77
00001000
00000000
00000000
00001000
01000000
00000000
00100000
00000000
10000000
00000000
00000000
10000000
01000000
00000000
00100000
00000000
,  // measure 78
10010000
00000000
00000000
00010000
00000000
00000000
00010000
00000000
01000000
00000000
00010000
10000000
01000000
00000000
00000000
00000000
,  // measure 79
10010000
00000000
00000000
00010000
00000000
00000000
00010000
00000000
01000000
00000000
00010000
10000000
00010000
00000000
00000000
00000000
,  // measure 80
10010000
00000000
00000000
10000000
01000000
00000000
00000000
01000000
00100000
00000000
00000000
00100000
00010000
00000000
00000000
00010000
,  // measure 81
00001000
00000000
00001000
00000000
00000100
00000000
00000100
00000000
00000010
00000000
00000001
00000010
00000100
00000000
00001000
00000001
,  // measure 82
00002000
00000000
00000000
00000000
,  // measure 83
00000000
00000000
00000000
00000000
00003000
00000000
00000000
00000000
00000001
00000000
00001000
00000000
00000001
00001000
00000001
00001000
,  // measure 84
00000010
00000000
00000000
00000010
00000100
00000000
00000001
00000000
00000000
00000001
00000010
00000000
00000100
00000000
00010000
00000000
,  // measure 85
00000100
00000000
00000000
00000100
00010000
00000000
00000100
00000000
00000010
00000000
00000000
00000010
00000100
00000000
00010000
00000000
,  // measure 86
00001000
00000000
00000000
00001000
01000000
00000000
00100000
00000000
00000000
00100000
10000000
00000000
00100000
00000000
01000000
00000000
,  // measure 87
00001000
00000000
00000000
00001000
00100000
00000000
00001000
00000000
01000000
00000000
00000000
01000000
00100000
00000000
10000000
00000000
,  // measure 88
10010000
00000000
00000000
10000000
01000000
00000000
00100000
00000000
00000000
00100000
00010000
00000000
00001000
00000000
01000000
00000000
,  // measure 89
00001000
00000000
00000000
00001000
00010000
00000000
00001000
00000000
00000100
00000000
00000000
00000100
00000010
00000000
00000001
00000000
,  // measure 90
00000010
00000000
00010000
00000010
00000000
00010000
00000010
00000000
00010000
00001000
00000000
00000000
00010000
00000000
00000100
00000000
,  // measure 91
00000010
00000000
00000000
00000010
00000100
00000000
00010000
00000000
00000000
00010000
00001000
00000000
01000000
00000000
00100000
00000000
,  // measure 92
10010000
01000000
00100000
00010000
10000000
01000000
00100000
00010000
,  // measure 93
10000000
01000000
00100000
00010000
00001000
00000100
00000010
00000001
,  // measure 94
00001001
00000010
00000100
00001000
00000001
00000010
00000100
00001000
,  // measure 95
00000001
00000010
00000100
00001000
00010000
00100000
01000000
10000000
,  // measure 96
10010000
01000000
00100000
00010000
00000100
00000010
00010000
00001000
,  // measure 97
00011000
00000100
00000010
00001000
00000001
00000100
00000010
00010000
,  // measure 98
00001000
00000000
00001000
00000000
00001000
00000000
00001000
00000000
00010000
00000000
00001000
00010000
00001000
00000000
00010000
00000000
,  // measure 99
00011000
00000000
00001000
00100000
01000000
00000000
10000000
00100000
01000000
00000000
00001000
01000000
00100000
00000000
01000000
00001000
,  // measure 100
00022000
00000000
00000000
00000000
,  // measure 101
00000000
00000000
00000000
00033000
;

//---------------dance-double - ----------------
#NOTES:
     dance-double:
     :
     Challenge:
     20:
     1.151882,1.309603,0.885813,0.855529,1.147015,1065.000,948.000,117.000,113.000,0.000,0.000,1.151882,1.309603,0.885813,0.855529,1.147015,1065.000,948.000,117.000,113.000,0.000,0.000:
// measure 0
00000000
00000000
00000000
00000000
,  // measure 1
00000000
00000000
00000000
00000000
,  // measure 2
01100000
00000000
01001000
00000000
00201000
00000000
00000000
00301000
,  // measure 3
00101000
00000000
01100000
00000000
21000000
00000000
00000000
31000000
,  // measure 4
11000000
00000000
10100000
00000000
02001000
00000000
00000000
03001000
,  // measure 5
01001000
00000000
00011000
00000000
00020010
00000000
00000000
00030010
,  // measure 6
00010010
00000010
00000100
00000000
00001002
00000000
00000000
00001003
,  // measure 7
00001100
00000100
00010100
00000000
00201000
00000000
00000000
00301000
,  // measure 8
00101000
00001000
01001000
00000000
02100000
00000000
00000000
03100000
,  // measure 9
01100000
00010000
10010000
00000000
20010000
00000000
00000000
30010000
,  // measure 10
10010000
00000000
00100000
00000000
01000000
00001000
01000000
00001000
00100000
00000000
01000000
00000000
00100000
00001000
01000000
00100000
,  // measure 11
10000000
00000000
00010000
00000000
01000000
00000000
00100000
10000000
00010000
00000000
10010000
00000000
01000000
00000000
00001000
00000000
,  // measure 12
00101000
00000000
00001000
00000000
01000000
00001000
01000000
00001000
00010000
00000000
00001000
00000000
00010000
00000100
00010000
00000100
,  // measure 13
00000010
00000000
00000100
00000000
00010000
00000100
00010000
00000100
00010000
00000000
00011000
00000000
00100000
00000000
00001000
00000000
,  // measure 14
00011000
00000000
00000100
00000000
00010000
00000100
00001000
00000010
00010000
00000000
00000010
00000000
00000100
00000001
00001000
00000001
,  // measure 15
00000010
00000000
00000100
00000000
00010000
00000100
00000010
00000100
00010000
00000000
00011000
00000000
00000010
00000000
00000100
00000000
,  // measure 16
00001001
00001001
00001001
00001001
00000110
00001001
00001100
00000101
,  // measure 17
00000001
00000100
00001000
00000001
00000010
00010000
00000001
00000100
00001000
00000001
00000010
00010000
00000010
00000100
00000001
00001000
,  // measure 18
00000002
00000000
00000000
00000000
00000000
00000000
00000013
00000100
00002000
00000000
00003100
00002000
00000000
00003100
00002000
00000000
,  // measure 19
00003020
00000000
00000130
00000020
00000000
00000130
00000020
00000000
00000130
00000002
00000000
00000000
00000103
00000000
00000001
00000100
,  // measure 20
00000020
00000000
00000000
00000000
00000000
00000000
00010030
00001000
00020000
00000000
00031000
00020000
00000000
00031000
00020000
00000000
,  // measure 21
00030200
00000000
00010300
00000200
00000000
00010300
00000200
00000000
00010300
01000000
00000000
00000000
01100000
00000000
00100000
00010000
,  // measure 22
10000000
00000000
00010000
00000000
10000000
00000000
01100000
00000000
00010000
00000000
10000000
00000000
10010000
00000000
01000000
00100000
,  // measure 23
10000000
00000000
00100000
00000000
01100000
00000000
00001000
01000000
00100000
00000000
00011000
00000000
01000000
00000000
00100000
00000000
,  // measure 24
00011000
00000000
01000000
00000000
00001000
00000000
00011000
00000000
00100000
00000000
00001000
00000000
00010000
00001000
00010000
00001000
,  // measure 25
00020000
00000000
00000000
00032000
00000000
00000000
00023000
00000000
00031000
00000000
01000000
00000000
00001000
00010000
00001000
00010000
,  // measure 26
00001000
00000000
00000100
00000000
00000010
00000100
00001000
00000100
00000010
00000000
00000001
00000010
00000000
00000001
00000010
00000000
,  // measure 27
00000001
00000000
00000100
00000001
00000000
00000100
00000001
00000000
00000100
00010000
00000000
00000000
00010100
00000000
00010000
00000100
,  // measure 28
00000010
00000000
00000100
00000000
00010000
00000100
00000010
00000100
00010000
00000000
00000010
00010000
00000000
00000010
00010000
00000000
,  // measure 29
00000100
00000000
00010000
00000100
00000000
00010000
00000100
00000000
00100000
01000000
00000000
00000000
01100000
00000000
00100000
00010000
,  // measure 30
10000000
00000000
00100000
00000000
01000000
00010000
10000000
00100000
01000000
00000000
00100000
10000000
00000000
00100000
10000000
00000000
,  // measure 31
00010000
00000000
01000000
00001000
00000000
01000000
00001000
00000000
00100000
00001000
00000000
00000000
01100000
00000000
00001000
01000000
,  // measure 32
00100000
00000000
01000000
00000000
00001000
00000000
00010000
00000000
00001000
00010000
00001000
00010000
00001000
00100000
01000000
10000000
,  // measure 33
10010000
00000000
00000000
10100000
00000000
00000000
01010000
00000000
00000000
00011000
00000000
00000000
00001010
00000000
00000000
00000001
,  // measure 34
00000100
00000000
00000001
00000000
00001000
00000010
00000100
00000001
00001000
00000000
00000001
00000000
00010000
00000100
00000010
00000100
,  // measure 35
00010000
00000000
00000010
00000000
00000100
00000001
00001000
00000001
00000100
00000000
00001001
00000000
00000010
00000000
00000100
00000001
,  // measure 36
00001000
00000000
00000001
00000000
00001000
00000100
00000010
00000001
00001000
00000000
00000010
00000000
00010000
00000010
00000100
00000010
,  // measure 37
00010000
00000000
00000100
00000000
00010000
00001000
01000000
00100000
10000000
00000000
10010000
00000000
00100000
00000000
01000000
00010000
,  // measure 38
10010000
00000000
00100000
00000000
01000000
00001000
00100000
00001000
01000000
00000000
00001000
00000000
01000000
00100000
10000000
00010000
,  // measure 39
10010000
00000000
00100000
00000000
10000000
01000000
00100000
00001000
01000000
00000000
01100000
00000000
00010000
00000000
10000000
00000000
,  // measure 40
10010000
00000000
11000000
00000000
01010000
00000000
10100000
00000000
00010000
01000000
10000000
00010000
00100000
10000000
00010000
01000000
,  // measure 41
00200000
00000000
00000000
20300000
00000000
00000000
30020000
00000000
10030000
01000000
00100000
00010000
00002000
00000000
00000000
00000000
,  // measure 42
01003000
10000000
02000000
00000000
13000000
00100000
20000000
00000000
30010000
01000000
00020000
00000000
00130000
00001000
00200000
00000000
,  // measure 43
00301000
01000000
00002000
00000000
00103000
00001000
00200000
00000000
00301000
01000000
00002000
00000000
01003000
00001000
02000000
00000000
,  // measure 44
03001000
00000100
00000020
00000000
00000031
00000100
00000020
00000000
00001030
00000010
00000002
00000000
00000013
00001000
00000200
00000000
,  // measure 45
00000310
00000100
00000002
00000000
00000103
00000010
00020000
00000000
00030010
00010000
00000200
00000000
00010300
00000000
00011000
00000000
,  // measure 46
00000100
00010000
00000200
00000000
00010300
00001000
00020000
00000000
00031000
01000000
00200000
00000000
10300000
01000000
00200000
00000000
,  // measure 47
00301000
01000000
00002000
00000000
01003000
00001000
00200000
00000000
00301000
01000000
00002000
00000000
00103000
00001000
00000200
00000000
,  // measure 48
00000310
00000100
00000002
00000000
00001003
00000100
00000020
00000000
00000130
00001000
00000002
00000000
00000103
00000010
00020000
00000000
,  // measure 49
00030010
00000100
00002000
00000000
00103000
00001000
02000000
00000000
03100000
00000000
10000000
00010000
10000000
00000000
00010000
00000000
,  // measure 50
10010000
00000000
00100000
01000000
00001000
00000000
01000000
00000000
00100000
00000000
10000000
00000000
10010000
00000000
00000000
00000000
,  // measure 51
12000000
00000000
13000000
02000000
00000000
13000000
01000000
10000000
02000000
00000000
13000000
02000000
00000000
13000000
01000000
10000000
,  // measure 52
00200000
00000000
01300000
00200000
00000000
01300000
00100000
01000000
00200000
00000000
01300000
00200000
00000000
01300000
00010000
01000000
,  // measure 53
00020000
00000000
01030000
00020000
00000000
01030000
00010000
01000000
00020000
00000000
01030000
00020000
00000000
01030000
00010000
01000000
,  // measure 54
00001000
00000000
00100000
00001000
01000000
00000000
00001000
00000000
00010000
00000000
00001000
00000000
00011000
00000000
00000000
00000000
,  // measure 55
00010020
00000000
00010030
00000020
00000000
00010030
00000010
00010000
00000020
00000000
00010030
00000020
00000000
00010030
00000010
00010000
,  // measure 56
00000200
00000000
00010300
00000200
00000000
00010300
00000100
00010000
00000200
00000000
00010300
00000200
00000000
00010300
00000100
00000010
,  // measure 57
00000002
00000000
00001003
00000002
00000000
00001003
00000001
00001000
00000001
00000000
00001001
00000000
00001010
00000000
00010100
00000000
,  // measure 58
00011000
00001000
00010000
00001000
00100000
01000000
10000000
01000000
,  // measure 59
10010000
00000000
00010000
01000000
00010000
01000000
00100000
10000000
00010000
01000000
00010000
01000000
00100000
10000000
00010000
10000000
,  // measure 60
10010000
00000000
00100000
01000000
10000000
00000000
00010000
00000000
10010000
00000000
01000000
00100000
00010000
00000000
10000000
00000000
,  // measure 61
01100000
00000000
00001000
01000000
00100000
01000000
00001000
01000000
00100000
01000000
00001000
01000000
01100000
00000000
00000000
00000000
,  // measure 62
01001000
00001000
00010000
00001000
00000100
00000001
00000100
00010000
,  // measure 63
00010010
00000000
00000010
00010000
00000010
00010000
00000010
00010000
00000010
00010000
00000010
00000100
00000001
00000100
00000010
00010000
,  // measure 64
00011000
00010100
00010010
00010100
00011000
00011000
00101000
00011000
,  // measure 65
00001000
01000000
10000000
00100000
10000000
00010000
01000000
00001000
00010000
00001000
00000100
00000001
00000100
00001000
00000100
00010000
,  // measure 66
00012000
00000000
00000000
02003000
00000000
00000000
03200000
00000000
00000000
20300000
00000000
00000000
31000000
00000000
00001000
00000000
,  // measure 67
02000000
00000000
00000000
23000000
00000000
00000000
30100000
00000000
00002000
00000000
00000000
00203000
00000000
00000000
10300000
00000000
,  // measure 68
00020000
00000000
00000000
02030000
00000000
00000000
03002000
00000000
00000000
00023000
00000000
00000000
00031000
00000000
00000100
00000000
,  // measure 69
00000002
00000000
00000000
00000203
00000000
00000000
00010300
00000000
00000020
00000000
00000000
00000032
00000000
00000000
00000013
00000000
,  // measure 70
00000200
00000000
00000000
00000302
00000000
00000000
00002003
00000000
00000000
00003002
00000000
00000000
00000013
00000000
00000100
00000000
,  // measure 71
00020000
00000000
00000000
00030200
00000000
00000000
00000310
00000000
00000200
00000000
00000000
00020300
00000000
00000000
00030010
00000000
,  // measure 72
00020000
00000000
00000000
00032000
00000000
00000000
00103000
00000000
00002000
00000000
00000000
02003000
00000000
00000000
03100000
00000000
,  // measure 73
10000000
00000000
00100000
10000000
00000000
00010000
01000000
00000000
00001000
00010000
00000000
00010000
00001000
00000000
00010000
00000000
,  // measure 74
00011000
00000000
00100000
00001000
00000000
00100000
00001000
00000000
00100000
00001000
00000000
00100000
00001000
00100000
01000000
00100000
,  // measure 75
00001000
00000000
00010000
00001000
00000000
00010000
00001000
00000000
00100000
00000000
00001000
00100000
00000000
00001000
00100000
00000000
,  // measure 76
00011000
00000000
00000010
00010000
00000000
00000010
00010000
00000000
00000010
00010000
00000000
00000010
00010000
00000010
00010000
00000010
,  // measure 77
00010000
00000000
00001000
00010000
00000000
00001000
00010000
00000000
00000100
00000000
00010000
00000100
00000000
00010000
00000100
00000000
,  // measure 78
00011000
00000000
00100000
00001000
00000000
00100000
00001000
00000000
01000000
00000000
00001000
00000000
00011000
00000000
00000000
00000000
,  // measure 79
00011000
00000000
00000010
00010000
00000000
00000010
00010000
00000000
00000100
00000000
00010000
00000000
00011000
00000000
00000000
00000000
,  // measure 80
00011000
00000000
00100000
00001000
00000100
00000000
00000100
00010000
00100000
00000000
00100000
00001000
00000100
00000000
00000100
00001000
,  // measure 81
00010000
00000000
00011000
00000000
00101000
00000000
00010100
00000000
00011000
00000000
00001000
00010000
00001000
00000000
00010000
00001000
,  // measure 82
00022000
00000000
00000000
00000000
,  // measure 83
00000000
00000000
00000000
00000000
00033000
00000000
00000000
00000000
01100000
00000000
01100000
00000000
00001000
01000000
00100000
01000000
,  // measure 84
00001000
00000000
00100000
00001000
00000000
00100000
00001000
00000000
00100000
00001000
00000000
00100000
00001000
00100000
01000000
10000000
,  // measure 85
01000000
00000000
10000000
01000000
00000000
10000000
01000000
00000000
10000000
00000000
00100000
10000000
00000000
00010000
01000000
00000000
,  // measure 86
00001000
00000000
00010000
00001000
00000000
00100000
00001000
00000000
01000000
00001000
00000000
01000000
00001000
01000000
00100000
10000000
,  // measure 87
00010000
00000000
00100000
00001000
00000000
00100000
00001000
00000000
01000000
00000000
00001000
00010000
00000000
00001000
00010000
00000000
,  // measure 88
00011000
00000000
00000100
00000010
00000000
00000001
00000100
00000000
00000010
00001000
00000000
00000010
00000100
00000001
00001000
00000001
,  // measure 89
00001000
00000000
00000100
00010000
00000000
00000100
00010000
00000000
00000010
00000000
00010000
00000010
00000000
00010000
00000010
00000000
,  // measure 90
00011000
00000000
00001000
01000000
00000000
00001000
01000000
00000000
00011000
00000000
00000100
00000010
00000000
00000100
00000010
00000000
,  // measure 91
00011000
00000000
00000100
00010000
00000000
00010000
00001000
00000000
00001000
00010000
00000000
00010000
00001000
00000000
00010000
00000000
,  // measure 92
00011000
00000000
00001000
01000000
00100000
00000000
01000000
00000000
00001000
00000000
00000100
00000010
00010000
00000000
00000010
00000000
,  // measure 93
00000100
00000000
00000001
00000010
00000100
00000000
00001000
00000000
00000100
00000000
00010000
00000010
00000100
00000000
00000010
00000000
,  // measure 94
00011000
00000000
00000100
00010000
00001000
00000000
00010000
00000000
00001000
00000000
00100000
00001000
01000000
00000000
00100000
00000000
,  // measure 95
10000000
00000000
01000000
00100000
00001000
00000000
01000000
00000000
00100000
00000000
10000000
00100000
01000000
00000000
00001000
00000000
,  // measure 96
00011000
00000000
00000100
00010000
00001000
00000000
00000100
00000000
00000001
00000000
00000100
00000010
00010000
00000000
00000110
00000000
,  // measure 97
00011000
00000000
00100000
00001000
01000000
00000000
00100000
00000000
10000000
00000000
00010000
01000000
00001000
00000000
00010000
00000000
,  // measure 98
00011000
00000000
00000000
00101000
00000000
00000000
00011000
00000000
00000000
00010100
00000000
00000000
00011000
00000000
00000000
00001000
00010000
00001000
00010000
00000000
00000000
00001000
00000000
00000000
,  // measure 99
00011000
00000000
00001000
01000000
00100000
00000000
10000000
01000000
00010000
00000000
00000100
00000010
00000001
00000000
00000100
00000000
,  // measure 100
00022000
00000000
00000000
00000000
,  // measure 101
00000000
00000000
00000000
00033000
;
