#TITLE:Wow Wow VENUS;
#SUBTITLE:;
#ARTIST:VENUS;
#TITLETRANSLIT:;
#SUBTITLETRANSLIT:;
#ARTISTTRANSLIT:;
#GENRE:;
#CREDIT:;
#MENUCOLOR:;
#METERTYPE:DDR;
#BANNER:Wow Wow VENUS.png;
#BACKGROUND:Wow Wow VENUS-bg.png;
#LYRICSPATH:;
#CDTITLE:./CDTITLES/REFLEC BEAT.PNG;
#MUSIC:Wow Wow VENUS.mp3;
#OFFSET:-0.354;
#SAMPLESTART:49.260;
#SAMPLELENGTH:14.980;
#SELECTABLE:YES;
#LISTSORT:;
#BPMS:0.000=157.000;
#STOPS:;
#BGCHANGES:;
#ATTACKS:;

//---------------dance-single - ----------------
#NOTES:
     dance-single:
     :
     Beginner:
     3:
     0.161,0.247,0.065,0.000,0.000:
0000
0000
0000
0000
,
0000
0000
0000
0000
,
0000
0000
0000
0000
,
0000
0000
0000
0000
,
1000
0000
0000
0000
,
0001
0000
0000
0000
,
0100
0000
0000
0000
,
0010
0000
1000
1000
,
1000
0000
0000
0000
,
0001
0000
0000
0000
,
0100
0000
0000
0000
,
0010
0000
0000
0000
,
0000
1000
0000
1000
,
0000
0001
0000
0001
,
0000
0100
0000
0100
,
0000
0010
0000
0010
,
0010
0000
0000
0000
,
1000
0000
0000
0000
,
0001
0000
0000
0000
,
0010
0000
0000
0000
,
0110
0000
0010
0000
,
1001
0000
1000
0000
,
0110
0000
0000
0000
,
0001
0000
1000
0000
,
1001
0000
0000
0000
,
0110
0000
0000
0000
,
0100
0000
0010
0000
,
1000
0000
0001
0000
,
1001
0000
0000
0000
,
1000
0000
0000
0000
,
0001
0000
0000
0000
,
1000
0000
1000
1000
,
1000
0000
0000
0000
,
0001
0000
0000
0000
,
0100
0000
0000
0000
,
0010
0000
1000
0000
,
0001
0000
0000
0000
,
1000
0000
0000
0000
,
0001
0000
0000
0000
,
0010
0000
0100
0100
,
0100
0000
0000
0000
,
1000
0000
0000
0000
,
0010
0000
0000
0000
,
0100
0000
0001
0000
,
1000
1000
1000
0000
,
0001
0001
0001
0000
,
0010
0010
0010
0000
,
0100
0100
0100
0000
,
0010
0010
0010
0000
,
1000
1000
1000
0000
,
0001
0001
0001
0000
,
0100
0100
0100
0000
,
0001
0000
0001
0000
,
1000
0000
1000
0000
,
0010
0000
0010
0000
,
0100
0000
0100
0000
,
0001
0000
1000
0000
,
0001
0000
1000
0000
,
0001
0000
0010
0000
,
0100
0000
1000
0000
,
0110
0000
0000
0000
,
1001
0000
0000
0000
,
1000
0000
0000
0000
,
0001
0000
1000
0000
,
0001
0001
0001
0000
,
1000
1000
1000
0000
,
0010
0010
0010
0000
,
0100
0100
0100
0000
,
0001
0000
1000
0000
,
0100
0000
0010
0000
,
0001
0000
1000
0000
,
0001
0000
0100
0000
,
0010
0000
1000
0000
,
0100
0000
0001
0000
,
0010
0000
1000
0000
,
0100
0000
0001
0000
;

//---------------dance-single - ----------------
#NOTES:
     dance-single:
     :
     Easy:
     5:
     0.293,0.340,0.131,0.531,0.000:
0000
0000
0000
0000
,
0000
0000
0000
0000
,
0000
0000
0000
0000
,
0000
0000
0000
0000
,
2002
0000
0000
3003
,
2000
3000
0002
0003
,
0001
0000
1000
0000
,
1001
0000
0000
0000
,
0020
0000
0200
0330
,
0002
0000
2000
3003
,
2000
0000
0002
3003
,
0200
0000
0020
0330
,
1000
0002
0000
1003
,
0001
0010
0100
1000
,
2200
0000
0000
3300
,
1000
0010
0100
0001
,
2002
0000
0000
3003
,
0002
0003
2000
3000
,
1000
1000
1000
0000
,
0220
0000
0000
0330
,
0010
0100
0010
0000
,
0001
1000
0001
0000
,
2000
0000
0002
3003
,
0002
0000
2000
3003
,
0010
0000
0001
0000
,
0010
0000
1000
0000
,
0002
0000
1003
0000
,
2000
0000
3001
0000
,
0002
0000
0103
0000
,
2000
0000
3100
0000
,
2000
3000
0002
0003
,
2000
3000
2002
3003
,
1000
0001
1000
0000
,
0001
0010
0100
1000
,
0001
0200
0000
0300
,
1000
0000
0001
0000
,
1000
0001
1000
0000
,
0001
0010
0100
1000
,
0100
0000
1000
0100
,
1000
0000
0001
0000
,
2000
0000
0000
3000
,
0002
0000
0103
0000
,
1000
0000
0001
0000
,
0010
0000
0100
0010
,
2000
3000
0002
0003
,
0110
0000
1001
0000
,
2000
3000
0002
0003
,
0110
0000
1001
0000
,
2000
3000
0002
0003
,
0101
0000
1001
0000
,
2000
3000
0002
0003
,
1100
0000
1001
0000
,
0001
0001
0002
0003
,
2000
3000
0020
0030
,
0100
0100
0200
0300
,
0020
0030
0200
0300
,
0001
1000
0200
0300
,
2000
3000
0002
0003
,
1000
0001
0020
0030
,
0002
0003
2000
3000
,
2002
0000
0000
3003
,
0220
0000
0000
0330
,
2000
0000
0000
3000
,
0002
0000
2000
3003
,
1000
0001
1000
0000
,
0001
0010
0100
1000
,
0001
0200
0000
0300
,
1000
0000
0001
0000
,
1000
0001
1000
0000
,
0001
0010
0100
1000
,
0100
0000
1000
0100
,
1000
0000
0001
0000
,
1000
1000
0100
0100
,
0001
0001
0010
0010
,
1000
1000
0100
0100
,
0001
0001
0010
0010
;

//---------------dance-single - ----------------
#NOTES:
     dance-single:
     :
     Medium:
     9:
     0.476,0.526,0.180,0.482,0.082:
0000
0000
0000
0000
,
0000
0000
0000
0000
,
0000
0000
0000
0000
,
0000
0000
0000
0000
,
0001
0000
0000
0000
1000
0000
0000
0000
0001
0000
0000
1000
0000
0000
0001
0000
,
0100
0100
0010
0010
,
1000
0000
0000
0000
0001
0000
0000
0000
1000
0000
0000
0001
0000
0000
1000
0000
,
0100
0000
0010
0100
1000
0000
0002
0000
,
1003
0000
0000
1000
0000
0000
0000
0000
0001
0000
0000
0000
0100
0000
0000
0000
,
0001
0000
0000
0001
0000
0000
0000
0000
1000
0000
0000
0000
0100
0000
1000
0000
,
0001
0000
0000
1000
0000
0000
0000
0000
0010
0000
0000
0000
0100
0000
0010
0000
,
1000
0000
0000
0001
0000
0000
0000
0000
1000
0000
0000
1001
0000
0000
0000
0000
,
0010
0000
1000
0000
0001
0100
0000
0001
,
0000
0001
1000
0001
0010
0000
0010
0001
,
0000
1000
0100
0000
0100
1000
0000
0010
,
0000
0010
0100
0001
0100
0000
0100
0001
,
0000
0000
1000
0000
0001
1000
0000
0001
,
0000
0100
0010
1000
0010
0000
0100
0001
,
0000
1000
0100
0000
0010
0000
0100
1000
,
0000
0001
2000
0000
0000
0000
3001
0000
,
1000
0000
0100
1000
0100
0000
1000
0000
,
0001
0000
0100
0001
0100
0000
0001
0000
,
1000
0000
0010
1000
0010
0000
0100
0001
,
0000
0001
0100
0001
0100
0000
0001
0000
,
1000
0100
1000
0000
0001
0100
0001
0000
,
1000
0010
1000
0000
0001
0010
0001
0000
,
0100
0000
0000
1001
0000
0000
0000
0000
0010
0000
0000
1001
0000
0000
0000
0000
,
0100
0000
0000
1100
0000
0000
0000
0000
0010
0000
0000
0011
0000
0000
0001
0000
,
0010
0000
0001
0000
1000
0100
0010
0100
,
1000
0000
0001
0100
0000
0100
0001
0000
,
1000
0000
0001
0000
1000
1000
0001
0001
,
0100
0000
0000
0100
0000
0000
0010
0000
0200
0000
0000
0000
0301
0000
0000
0000
,
1000
0000
0000
0000
0100
0000
0000
0000
0001
0000
0000
0100
0000
0000
1000
0000
,
0000
0000
1000
0000
0001
0000
0000
0000
1000
0000
0000
0100
0000
0000
1000
0000
,
0000
1000
0010
0000
0100
0000
0001
0100
,
0000
0100
0001
0000
1000
0001
0100
0000
,
1000
0000
0000
0000
0100
0000
0000
0000
0001
0000
0000
0100
0000
0000
1000
0000
,
0000
0000
1000
0000
0100
0000
0000
0000
0001
0000
0000
0100
0000
0000
1000
0000
,
0000
1000
0010
0000
0100
0000
0001
1000
,
0000
1000
0001
0000
0010
0001
0100
0001
,
0020
0031
0002
0103
,
0200
1300
2000
3010
,
2000
3100
0200
0301
,
0002
0013
0020
1030
,
0110
1001
0220
0330
,
1000
0001
0220
0330
,
0110
1001
0220
0330
,
0001
1000
0220
0330
,
1000
1100
0022
0033
,
1000
1100
0022
0033
,
0001
0100
2020
3030
,
0001
1000
0220
0330
,
1000
0000
0010
1000
0020
0000
0130
0001
,
0200
0302
2003
3200
,
2300
0000
3100
1000
0200
0000
0310
0100
,
2000
3001
0002
0103
,
0002
0000
0103
0001
0200
0000
0310
1000
,
0020
2030
3002
2003
,
3002
0000
1003
0001
0200
0000
0301
1000
,
0010
0010
0100
0100
0010
0000
0110
0000
,
2002
0000
0000
3003
,
0220
0000
0000
0330
,
2000
0000
0000
3000
,
0002
0000
2000
3003
,
1000
0000
0000
0000
0100
0000
0000
0000
0001
0000
0000
0100
0000
0000
1000
0000
,
0000
0000
1000
0000
0010
0000
0000
0000
0001
0000
0000
0100
0000
0000
0001
0000
,
0000
0001
1000
0000
0010
0000
0100
0001
,
0000
0001
1000
0000
0010
0100
0001
1000
,
0001
0000
0000
0000
0100
0000
0000
0000
1000
0000
0000
0100
0000
0000
0001
0000
,
0000
0000
0001
0000
0100
0000
0000
0000
1000
0000
0000
0100
0000
0000
1000
0000
,
0000
1000
0010
0000
0100
0000
0001
1000
,
0000
1000
0001
0000
0001
1000
0010
0100
,
0002
0103
0200
1300
,
2000
3010
0020
0031
,
2000
3100
0200
0301
,
0002
0013
0020
1030
;

//---------------dance-single - ----------------
#NOTES:
     dance-single:
     :
     Hard:
     11:
     0.621,0.619,0.760,0.311,0.208: // measure 1
0000
0000
0000
0000
,  // measure 2
0000
0000
0000
0000
,  // measure 3
0000
0000
0000
0000
,  // measure 4
0000
0000
0000
0000
,  // measure 5
0010
0000
0010
0000
1000
0000
0001
0000
0100
0000
0000
0100
0000
0000
0100
0000
,  // measure 6
0001
0000
0001
0000
1000
0000
0001
0000
0010
0000
0000
0110
0000
0000
0000
0000
,  // measure 7
0010
0000
0010
0000
0001
0000
1000
0000
0100
0000
0000
0100
0000
0000
0100
0000
,  // measure 8
1000
1000
0010
0100
0001
0000
1001
0000
,  // measure 9
0110
0000
0000
0210
0000
0000
0000
0000
0001
0000
0000
0000
0310
0000
0000
0000
,  // measure 10
0110
0000
0000
0120
0000
0000
0000
0000
1000
0000
0000
0000
0031
0000
0001
0000
,  // measure 11
1100
0000
0000
2100
0000
0000
0000
0000
0001
0000
0000
0000
3010
0000
0100
0000
,  // measure 12
0101
0000
0000
0102
0000
0000
0000
0000
1000
0000
0000
0013
0000
0000
0000
0000
,  // measure 13
1000
0100
0010
0001
0100
0001
0000
0001
,  // measure 14
0100
0001
1000
0010
0100
0000
0100
0010
,  // measure 15
1000
0100
0010
0100
1000
0010
0000
1010
,  // measure 16
0000
0001
0100
1000
0100
0000
0001
1000
,  // measure 17
0100
0000
0110
0000
0001
1000
0000
0011
,  // measure 18
0000
1000
0100
0010
0001
0000
0001
0100
,  // measure 19
0000
0100
0001
1000
0010
0100
0001
1000
,  // measure 20
0000
1000
0002
0000
1000
0000
0103
0000
,  // measure 21
1010
0000
0000
0010
1000
0000
0010
0000
1020
0000
0000
0000
0130
0000
0000
0000
,  // measure 22
0011
0000
0000
0010
0001
0000
0010
0000
0021
0000
0000
0000
0130
0000
0000
0000
,  // measure 23
1001
0000
0000
1000
0001
0000
1000
0000
0001
0000
0100
0000
0010
0000
1000
0000
,  // measure 24
0000
1000
0100
0010
0200
0000
1300
0000
,  // measure 25
1000
0000
0000
1000
0100
0000
0010
0000
0002
0000
0000
0000
0103
0000
0000
0000
,  // measure 26
0001
0000
0000
0001
0100
0000
0001
0000
1000
0000
0000
1000
0010
0000
1000
0000
,  // measure 27
0100
0000
0000
0110
0000
0000
0001
0000
1000
0000
0000
0101
0000
0000
1000
0000
,  // measure 28
0001
0000
0000
1010
0000
0000
0001
0000
0100
0000
0000
0100
0010
0000
0100
0000
,  // measure 29
0001
0000
1001
0000
0010
1000
0100
1000
,  // measure 30
0010
0000
0010
0100
0000
0100
0001
0000
,  // measure 31
1001
0000
0000
0110
0000
0000
1001
0000
0000
1100
0000
0000
0001
0000
0100
0000
,  // measure 32
1000
0000
0000
0101
0000
0000
1100
0000
0002
0000
0000
0000
1003
0000
0000
0000
,  // measure 33
1100
0000
0000
0000
0101
0000
0000
0000
1100
0000
0000
0101
0000
0000
1000
0000
,  // measure 34
0000
0000
1000
0000
0001
0000
0010
0000
0101
0000
0000
1100
0000
0000
0001
0000
,  // measure 35
0000
0001
0100
0000
0010
0000
0010
1000
,  // measure 36
0000
1000
0100
1000
0001
0001
1000
0010
,  // measure 37
0101
0000
0000
0000
1100
0000
0000
0000
0101
0000
0000
1100
0000
0000
0001
0000
,  // measure 38
0000
0000
0001
0000
1000
0000
0001
0000
1100
0000
0000
0101
0000
0000
1000
0000
,  // measure 39
0000
0000
1000
0000
0010
0000
0100
0000
0001
0000
0000
1001
0000
0000
0010
0000
,  // measure 40
0000
0010
0100
0001
1000
0001
1000
0010
,  // measure 41
0200
0010
0010
0310
,  // measure 42
2000
0100
0100
3100
,  // measure 43
0002
0000
0000
0000
0010
0000
0000
0000
0010
0000
0000
0010
0003
0000
0000
0000
,  // measure 44
2000
0000
0000
0000
3100
0000
0000
0000
0001
1000
0000
0000
1001
0000
0000
0000
,  // measure 45
0101
0000
0000
0000
1100
0000
0000
0000
0101
0000
0000
1100
0000
0000
0000
0000
,  // measure 46
0001
0000
0100
0000
1000
0000
0100
0000
0101
0000
0000
1100
0000
0000
0000
0000
,  // measure 47
1100
0000
0000
0000
0101
0000
0000
0000
1100
0000
0000
0101
0000
0000
0000
0000
,  // measure 48
1000
0000
0100
0000
0001
0000
0100
0000
1100
0000
0000
0101
0000
0000
0000
0000
,  // measure 49
1010
0000
0000
0000
0011
0000
0000
0000
1010
0000
0000
0011
0000
0000
0000
0000
,  // measure 50
1000
0000
0100
0000
0010
0000
0100
0000
1000
0000
0000
1000
0000
0000
0000
0000
,  // measure 51
0101
0000
0000
0000
1100
0000
0000
0000
0101
0000
0000
1100
0000
0000
0000
0000
,  // measure 52
0001
0000
0100
0000
1000
0000
0100
0000
0101
0000
0000
1100
0000
0000
0000
0000
,  // measure 53
0002
0000
1003
0010
2000
0000
3001
1000
,  // measure 54
0200
0000
0000
0000
0320
0000
0000
0000
0032
0000
0000
2003
0000
0000
0000
0000
,  // measure 55
3002
0000
0000
0000
0013
0000
0100
0000
2000
0000
0000
3200
0000
0000
0310
0000
,  // measure 56
0002
0000
0103
0010
0200
0000
0302
0000
,  // measure 57
2003
0000
0000
0000
3100
0000
0010
0000
0200
0000
0000
2300
0000
0000
3010
0000
,  // measure 58
2000
0000
0000
0000
3002
0000
0000
0000
2003
0000
0000
3002
0000
0000
1003
0000
,  // measure 59
0020
0000
0000
0000
0130
0000
0001
0000
0200
0000
0000
0302
0000
0000
0013
0000
,  // measure 60
0001
0001
0010
0100
1000
0000
0110
0000
,  // measure 61
1100
0000
0000
0000
0101
0000
0000
0000
1100
0000
0000
0101
0000
0000
1000
0000
,  // measure 62
0000
0000
1000
0000
0001
0000
0010
0000
1100
0000
0000
0101
0000
0000
1001
0000
,  // measure 63
0000
0001
0100
0010
0100
0000
0100
0001
,  // measure 64
2000
0000
3000
0000
0001
1000
0110
0000
,  // measure 65
0101
0000
0000
0000
1100
0000
0000
0000
0101
0000
0000
1100
0000
0000
0001
0000
,  // measure 66
0000
0000
0001
0000
1000
0000
0010
0000
0101
0000
0000
1100
0000
0000
0001
0000
,  // measure 67
0000
0001
1000
0010
0100
0000
0100
1001
,  // measure 68
0000
0010
1000
0000
0001
0100
0010
0100
,  // measure 69
1100
0000
0000
0000
0101
0000
0000
0000
1100
0000
0000
0101
0000
0000
1000
0000
,  // measure 70
0000
0000
1000
0000
0001
0000
0100
0000
1100
0000
0000
0101
0000
0000
1000
0000
,  // measure 71
0000
0000
1000
0000
0001
0000
0010
0000
0100
0000
0000
0010
0000
0000
2001
0000
,  // measure 72
0000
0000
3010
0000
0100
0001
1000
0001
,  // measure 73
0010
0000
0000
1001
0000
0000
0000
0000
0100
0000
0000
0000
0100
0000
0000
0000
,  // measure 74
0010
0000
0000
1100
0000
0000
0000
0000
0001
0000
0000
0000
0001
0000
0100
0000
,  // measure 75
0101
0000
0000
1010
0000
0000
0000
0000
0001
0000
0000
0000
0001
0000
0010
0000
,  // measure 76
0100
0100
0010
0100
0000
1100
0101
0000
;
