#TITLE:Todestrieb;
#SUBTITLE:;
#ARTIST:Rche;
#TITLETRANSLIT:;
#SUBTITLETRANSLIT:;
#ARTISTTRANSLIT:;
#GENRE:;
#CREDIT:;
#MENUCOLOR:;
#METERTYPE:DDR;
#BANNER:Todestrieb.png;
#BACKGROUND:Todestrieb-bg.png;
#LYRICSPATH:;
#CDTITLE:./CDTITLES/BEATMANIA IIDX.PNG;
#MUSIC:Todestrieb.mp3;
#OFFSET:-0.097235;
#SAMPLESTART:83.083;
#SAMPLELENGTH:15.000;
#SELECTABLE:YES;
#LISTSORT:;
#BPMS:0.000=185.000;
#STOPS:;
#BGCHANGES:;
#ATTACKS:;

//---------------dance-single - ----------------
#NOTES:
     dance-single:
     :
     Beginner:
     3:
     0.138,0.188,0.070,0.000,0.000:
0000
0000
0000
0000
,
0000
0000
0000
0000
,
0000
0000
0000
0000
,
0000
0000
0000
0000
,
0010
0000
0000
0000
,
0010
0000
0000
0000
,
0100
0000
0000
0000
,
0100
0000
0000
0000
,
1001
0000
0000
0000
,
1000
0000
0000
0000
,
0001
0000
0000
0000
,
0010
0000
0000
0000
,
1001
0000
0000
0000
,
0010
0000
0000
0000
,
0100
0000
0000
0000
,
0001
0000
0000
0000
,
1000
0000
0000
0000
,
0100
0000
0000
0000
,
0010
0000
0000
0000
,
0001
0000
0000
0000
,
0110
0000
0000
0000
,
0010
0000
0000
0000
,
0100
0000
0000
0000
,
0001
0000
1000
0000
,
1001
0000
0000
0000
,
0000
0000
0000
0000
,
0000
0000
0000
0000
,
0000
0000
0000
0000
,
0000
0000
0000
0000
,
0000
0000
0000
0000
,
0000
0000
0000
0000
,
1001
0000
0000
0000
,
1000
0000
1000
0000
,
0001
0000
0000
0000
,
0001
0000
0001
0000
,
1000
0000
0000
0000
,
0010
0000
0010
0000
,
0100
0000
0000
0000
,
0100
0000
0100
0000
,
0010
0000
0000
0000
,
0000
1000
0000
1000
,
0000
0001
0000
0001
,
0000
1000
0000
1000
,
0000
0001
0000
0001
,
0001
0000
0000
0000
,
0100
0000
0000
0000
,
0010
0000
0000
0000
,
1000
0000
0001
0000
,
1001
0000
0000
0000
,
1000
0000
0000
0000
,
0001
0000
0000
0000
,
0100
0000
0000
0000
,
0010
0000
0000
0000
,
0100
0000
0000
0000
,
0001
0000
0000
0000
,
1000
0000
0000
0000
,
0000
0001
0000
0001
,
0000
1000
0000
1000
,
0000
0010
0000
0010
,
0000
0100
0000
0100
,
0100
0000
0000
0000
,
0001
0000
0000
0000
,
1000
0000
0000
0000
,
0001
0000
0000
0000
,
1001
0000
1000
0000
,
1000
0000
0000
0000
,
0001
0000
0001
0000
,
0010
0000
0000
0000
,
0001
0000
0001
0000
,
0100
0000
0000
0000
,
1000
0000
1000
0000
,
0100
0000
0000
0000
,
0000
0010
0000
0010
,
0000
0100
0000
0000
,
0000
0001
0000
0001
,
0000
1000
0000
0000
,
0000
1000
0000
1000
,
0000
0001
0000
0000
,
0000
0010
0000
0010
,
0000
0100
0000
0000
,
0000
0010
0000
0010
,
0000
0100
0000
0100
,
0000
0001
0000
0001
,
0000
1000
0000
1000
,
1000
0000
0000
0000
,
0001
0000
0000
0000
,
1000
0000
0000
0000
,
0001
0000
1000
0000
,
1001
0000
0000
0000
,
0010
0000
0000
0000
,
0100
0000
0000
0000
,
0001
0000
0000
0000
,
1000
0000
0000
0000
,
0001
0000
0000
0000
,
1000
0000
0000
0000
,
0010
0000
0000
0000
,
1001
0000
0000
0000
;

//---------------dance-single - ----------------
#NOTES:
     dance-single:
     :
     Easy:
     6:
     0.344,0.451,0.125,0.313,0.000:
0000
0000
0000
0000
,
0000
0000
0000
0000
,
0000
0000
0000
0000
,
0000
0000
0000
0000
,
1000
0000
0000
0001
0000
0000
1000
0000
,
0000
0001
0000
0000
0100
0000
0100
0000
,
0010
0000
0000
0100
0000
0000
0001
0000
,
0000
1000
0000
0000
0001
0000
1000
0000
,
1001
0000
0000
0010
0000
0000
0100
0000
,
0000
0001
0000
0000
1000
0000
0100
0000
,
1000
0000
0000
0001
0000
0000
0100
0000
,
0000
0001
0000
0000
0010
0000
0100
0000
,
0010
0000
0000
0001
0000
0000
1000
0000
,
0000
0010
0000
0000
1000
0000
0100
0000
,
0001
0000
0000
0100
0000
0000
1000
0000
,
0000
0010
0000
0000
0001
0000
0010
0000
,
1000
0000
0000
0100
0000
0000
1000
0000
,
0000
0001
0000
0000
0100
0000
0100
0000
,
0001
0000
0000
1000
0000
0000
0001
0000
,
0000
1000
0000
0000
0100
0000
0100
0000
,
0010
0000
0000
0100
0000
0000
1000
0000
,
0000
0010
0000
0000
0100
0000
0001
0000
,
0100
0000
0000
0001
0000
0000
0010
0000
,
0100
0100
0010
0010
,
2000
0000
0000
0000
,
3002
0000
0000
0000
,
0203
0000
0000
0000
,
0320
0000
2030
0000
,
3200
0000
0000
0000
,
2300
0000
0000
0000
,
3020
0000
0000
0000
,
0200
0000
0000
0330
,
1001
0001
0001
1000
,
0001
1000
1000
0001
,
1000
0010
0010
1000
,
0010
0010
1000
0010
,
0100
0001
0100
0100
,
0001
0010
0010
0001
,
1000
0100
0100
1000
,
0010
0100
0001
1000
,
1002
0000
0100
0103
,
2010
0000
0100
3100
,
1002
0000
0010
0013
,
0210
0000
0001
0301
,
1200
0000
1000
1300
,
0012
0000
0010
0013
,
2010
0000
0010
3010
,
0001
0100
0001
1000
,
2001
0000
0000
0000
,
3020
0000
0000
0000
,
0230
0000
0000
0000
,
0302
0000
0000
0000
,
0023
0000
0000
0000
,
0230
0000
0000
0000
,
2300
0000
0000
0000
,
0020
0000
0000
3030
,
0101
0001
0100
0001
,
0000
1000
0100
1000
,
0000
0010
0100
0010
,
0000
1000
0001
1000
,
0000
0001
0010
0001
,
0000
1000
0100
1000
,
0000
0010
0100
0010
,
1001
0100
0010
0100
,
0000
0001
1000
0100
,
0000
1000
0001
1000
,
0000
0001
0010
0001
,
0000
1000
0010
1000
,
0000
0010
0100
0001
,
0000
1000
0010
0100
,
0000
0001
0010
1000
,
0000
0001
0100
1000
,
1001
0010
0100
0001
,
1000
0100
0010
0100
,
1000
0001
0100
0010
,
0001
0010
1000
0100
,
1000
0001
0100
0010
,
1000
0001
1000
0001
,
0010
0100
0010
0100
,
0010
0001
1000
0100
,
1000
0002
0100
1003
,
0000
0002
0010
1003
,
0000
2000
0010
3001
,
0000
2000
0100
3001
,
0000
0020
0100
0031
,
0000
0200
0010
1300
,
0000
0020
0001
1030
,
1001
0020
1000
0031
,
2001
0000
0000
0000
,
3020
0000
0000
0000
,
0230
0000
0000
0300
,
0002
0000
0000
0000
,
0023
0000
0000
0000
,
0230
0000
0000
0000
,
2300
0000
0000
0000
,
3020
0000
0000
0030
,
0110
0000
0000
0000
;

//---------------dance-single - ----------------
#NOTES:
     dance-single:
     :
     Medium:
     11:
     0.588,0.676,0.219,0.243,0.090:
0000
0000
0000
0000
,
0000
0000
0000
0000
,
0000
0000
0000
0000
,
0000
0000
0000
0000
,
0010
0000
0010
1000
0000
1000
0001
0000
,
0001
0100
0000
0100
0001
0000
1001
0000
,
0001
0000
0001
0010
0000
0010
0100
0000
,
0100
1000
0000
1000
0100
0000
1100
0000
,
1001
1000
0000
0001
0001
0000
0100
0100
,
0000
0010
0010
1000
0001
0000
1001
0000
,
0001
0001
0000
0010
0010
0000
0100
0100
,
0000
1000
0100
0010
0001
0000
0011
0000
,
0101
0100
0000
0010
0010
0000
0100
0100
,
0000
0001
1000
0100
1000
0000
1001
0000
,
1000
1000
0000
0100
0100
0000
0010
0010
,
0000
0001
0100
0001
1000
0000
1001
0000
,
0010
0100
0000
0001
0100
0000
0001
0010
,
0000
0100
1000
0001
0100
0000
0101
0000
,
0010
1000
0000
0001
0010
0000
1000
0100
,
0000
0001
0100
1000
0010
0000
0110
0000
,
0100
0001
0000
1000
0010
0000
0001
0100
,
0000
0001
0010
1000
0001
0000
1001
0000
,
1000
0100
0000
0100
0010
0000
0010
0001
,
0100
0100
0100
0000
0110
0001
1000
0001
,
2000
0000
0000
0000
,
3200
0000
0000
0000
,
0320
0000
0000
0000
,
0032
0000
2003
0000
,
3020
0000
0000
0000
,
0230
0000
0000
0000
,
0302
0000
0000
0003
,
2002
0000
3003
0000
0000
0010
0010
0010
,
0100
0000
0001
0000
1000
0000
0000
0000
0001
0000
0000
0010
0000
0000
0001
0000
,
1000
0000
0100
0000
1000
0000
0000
0000
0010
0000
0000
0100
0000
0000
0010
0000
,
1000
0000
0001
0000
0100
0000
0000
0000
0001
0000
0000
1000
0000
0000
0001
0000
,
0010
0000
0001
0000
0100
0000
0000
0000
0010
0000
0000
0100
0000
0000
0001
0000
,
1000
0000
0001
0000
0100
0000
0000
0000
0001
0000
0000
1000
0000
0000
0001
0000
,
0010
0000
1000
0000
0010
0000
0000
0000
0001
0000
0000
0100
0000
0000
0010
0000
,
1000
0000
0010
0000
0100
0000
0000
0000
0010
0000
0000
0100
0000
0000
0001
0000
,
1000
0000
0100
0000
0010
0000
0000
0000
0100
0000
0000
1000
0000
0000
0001
0000
,
1001
0000
0010
0000
0100
0000
0001
0000
1000
0000
0000
0100
0000
0000
1000
0000
,
0010
0000
0100
0000
0001
0000
1000
0000
0001
0000
0000
0010
0000
0000
0001
0000
,
0010
0000
0100
0000
1000
0000
0100
0000
0010
0000
0000
0001
0000
0000
0100
0000
,
0010
0000
0100
0000
0001
0000
1000
0000
0001
0000
0000
0010
0000
0000
0001
0000
,
1000
0000
0100
0000
0010
0000
0001
0000
1000
0000
0000
0100
0000
0000
1000
0000
,
0010
0000
0100
0000
0001
0000
1000
0000
0001
0000
0000
0010
0000
0000
0100
0000
,
0001
0000
0010
0000
1000
0000
0001
0000
1000
0000
0000
0100
0000
0000
0001
0000
,
1000
0100
0001
0100
1000
0010
0001
0010
,
2001
0000
0000
0010
0000
0000
3001
0000
,
0200
0000
0000
0010
0000
0000
0301
0000
,
0020
0000
0000
0100
0000
0000
1030
0000
,
0002
0000
0000
0100
0000
0000
0013
0000
,
0002
0000
0000
1000
0000
0000
0013
0000
,
2000
0000
0000
0100
0000
0000
3010
0000
,
0200
0000
0000
0001
0000
0000
0310
0000
,
0002
0000
0000
1000
0000
0000
0103
0000
,
1001
0000
0010
1000
0010
0100
0010
0000
,
0001
0000
0010
0001
0010
0100
0010
0000
,
0100
0000
0001
1000
0001
0100
0001
0000
,
0010
0000
1000
0100
1000
0001
1000
0000
,
0110
0000
0100
0010
0100
0001
0100
0000
,
0010
0000
0100
0010
0100
1000
0100
0000
,
0001
0000
1000
0010
0001
0010
1000
0000
,
0001
0000
1000
0100
0001
0100
1000
0000
,
0001
0000
1000
0001
0100
0010
0100
0100
,
0002
0000
0013
0000
1000
1000
1000
0000
,
0100
0010
0001
1000
0010
0100
0020
0000
,
0130
0001
1000
0100
1000
0001
0200
0000
,
0310
0000
1000
0010
0100
0001
1000
0100
,
0010
0001
1000
0100
0010
0010
0010
0000
,
0001
0010
0100
1000
0001
0100
0002
0000
,
1003
0010
0100
0001
1000
0100
2000
0000
,
3001
0000
1001
0000
0001
0100
1000
0000
,
0010
0000
0110
0000
1000
0010
0001
0000
,
0100
0000
0101
0000
1000
0100
0001
0000
,
0010
0000
0011
0000
0001
0010
1000
0000
,
0001
0100
0001
1000
0001
0100
0001
0000
,
1000
0100
1000
0010
1000
1000
1000
0000
,
0010
0100
0001
1000
0001
0001
0001
0000
,
0010
0100
1000
0100
1000
1000
1000
0000
,
0010
0000
0100
0000
0001
0000
1000
0000
0001
0000
0000
0010
0000
0000
0001
0000
,
1000
0000
0100
0000
0010
0000
0100
0000
1000
0000
0000
0001
0000
0000
1000
0000
,
0010
0000
0100
0000
0001
0000
1000
0000
0001
0000
0000
0100
0000
0000
0001
0000
,
1000
0000
0100
0000
0010
0000
0001
0000
1000
0000
0000
1001
0000
0000
0110
0000
,
0100
0000
0001
0000
1000
0000
0000
0000
1001
0000
0000
0001
1000
0000
0001
0000
,
0010
0000
0100
0000
1000
0000
0000
0000
1100
0000
0000
0100
1000
0000
0010
0000
,
0100
0000
0001
0000
1000
0000
0000
0000
1001
0000
0000
0001
1000
0000
0001
0000
,
0010
0000
0100
0000
0010
0000
0001
0000
0101
0000
0000
0001
0100
0000
0010
0000
,
2000
0000
0000
0000
,
3002
0000
0000
0000
,
0203
0000
0000
0000
,
0320
0000
0000
0000
,
2030
0000
0000
0000
,
3200
0000
0000
0000
,
0320
0000
0000
0000
,
0032
0000
0000
0003
,
0110
0000
0000
0000
;

//---------------dance-single - ----------------
#NOTES:
     dance-single:
     :
     Hard:
     12:
     0.684,0.714,0.125,0.376,0.117: // measure 1
0000
0000
0000
0000
,  // measure 2
0000
0000
0000
0000
,  // measure 3
0000
0000
0000
0000
,  // measure 4
0000
0000
0000
0000
,  // measure 5
0010
1000
0001
1000
0001
0010
0100
0010
,  // measure 6
0001
0010
0100
0010
0002
0000
0023
0000
,  // measure 7
0031
0010
0100
1000
0100
0010
0001
0010
,  // measure 8
0100
1000
0100
0010
0002
0000
1003
0000
,  // measure 9
1001
1000
1000
0010
0010
0010
0100
0100
,  // measure 10
0100
0001
1000
0100
2000
0000
3002
0000
,  // measure 11
1003
1000
1000
0100
0100
0100
0010
0010
,  // measure 12
0010
0100
0100
0100
2000
0000
3100
0000
,  // measure 13
0110
0010
0010
0100
0100
0100
0001
0001
,  // measure 14
0001
1000
1000
1000
0002
0000
2003
0000
,  // measure 15
3001
0001
0001
0010
0010
0010
0100
0100
,  // measure 16
0100
0010
0010
0010
0002
0000
0013
0000
,  // measure 17
1001
1000
0100
0010
0100
1000
0001
0010
,  // measure 18
0100
0010
0001
1000
0002
0000
0203
0000
,  // measure 19
0310
0100
0001
1000
0010
0100
0010
0100
,  // measure 20
0001
1000
0100
0010
0200
0000
1300
0000
,  // measure 21
1001
1000
0010
1000
0001
0100
0001
1000
,  // measure 22
0001
1000
0010
0100
0020
0000
0230
0000
,  // measure 23
0301
0100
1000
0100
0001
0100
1000
0001
,  // measure 24
1000
0001
1001
0000
0010
0010
0100
0100
,  // measure 25
0020
0000
0000
0000
,  // measure 26
2030
0000
0000
0000
,  // measure 27
3002
0000
0000
0000
,  // measure 28
2003
0000
3002
0000
,  // measure 29
0203
0000
0000
0000
,  // measure 30
0320
0000
0000
0000
,  // measure 31
0200
0000
0000
0330
,  // measure 32
0220
0000
0330
0001
,  // measure 33
1000
0000
0100
0000
0010
0000
0100
0000
1000
0000
0000
0001
0000
0000
0100
0000
,  // measure 34
0001
0000
1000
0000
0001
0000
0010
0000
0100
0000
0000
0010
0000
0000
0001
0000
,  // measure 35
0010
0000
0100
0000
0010
0000
0001
0000
1000
0000
0000
0010
0000
0000
0100
0000
,  // measure 36
0010
0000
1000
0000
0001
0000
0100
0000
0001
0000
0000
1000
0000
0000
1001
0000
,  // measure 37
0010
0000
0100
0000
0010
0000
1000
0000
0001
0000
0000
1000
0000
0000
0100
0000
,  // measure 38
1000
0000
0100
0000
0010
0000
0001
0000
0100
0000
0000
0010
0000
0000
1000
0000
,  // measure 39
0010
0000
1000
0000
0001
0000
0100
0000
0001
0000
0000
0010
0000
0000
0001
0000
,  // measure 40
1000
0000
0100
0000
0010
0000
0001
0000
0100
0000
0000
0110
0000
0000
1001
0000
,  // measure 41
0100
0000
0001
0000
1000
0000
0100
0000
0010
0000
0000
0010
0100
0000
1000
0000
,  // measure 42
0001
0000
0100
0000
0010
0000
0100
0000
0001
0000
0000
0001
1000
0000
0001
0000
,  // measure 43
0010
0000
0001
0000
0010
0000
0100
0000
1000
0000
0000
0100
0010
0000
0100
0000
,  // measure 44
1000
0000
0010
0000
0100
0000
0001
0000
1000
0000
0000
0001
1000
0000
0001
0000
,  // measure 45
1000
0000
0010
0000
1000
0000
0001
0000
0100
0000
0001
0010
0000
0000
0001
0000
,  // measure 46
0010
0000
0100
0000
0010
0000
0001
0000
1000
0000
0100
1000
0000
0000
0010
0000
,  // measure 47
0100
0000
0001
0000
1000
0000
0001
0000
0100
0000
0010
1000
0000
0000
0010
0000
,  // measure 48
0100
0000
1001
0000
0001
1000
0001
1000
,  // measure 49
0001
0010
0100
0020
0000
0000
0130
0000
,  // measure 50
0001
0010
0100
0020
0000
0031
0010
0100
,  // measure 51
0010
0001
1000
0020
0000
0130
0001
1000
,  // measure 52
0010
0100
0001
2000
0000
3010
0100
0010
,  // measure 53
1000
0010
0100
0020
0000
0000
0130
0000
,  // measure 54
1000
0010
0100
0020
0000
1030
0010
0100
,  // measure 55
0001
1000
0001
0200
0000
0301
1000
0001
,  // measure 56
0010
0001
1000
0200
0000
1300
0001
0100
,  // measure 57
0001
0000
0000
1001
0000
0001
0200
0000
0000
0301
0000
0000
,  // measure 58
0100
0000
0000
0010
0000
0010
2000
0000
0000
3010
0000
0000
,  // measure 59
1000
0000
0000
0100
0000
0100
0020
0000
0000
0031
0000
0000
,  // measure 60
1000
0000
0000
0100
0000
0100
2000
0000
0000
3010
0000
0000
,  // measure 61
0100
0000
0001
0010
1000
0010
0001
0000
,  // measure 62
1000
0000
0001
0100
1000
0100
0001
0000
,  // measure 63
0100
0000
0010
1000
0010
0001
0010
0000
,  // measure 64
1000
0000
0100
0001
0100
1000
0100
0000
,  // measure 65
1001
0000
0001
0100
0010
1000
0010
0100
,  // measure 66
0002
0000
1003
0000
0001
0001
0001
0000
,  // measure 67
1000
0000
0100
0010
0001
0010
0100
1000
,  // measure 68
0200
0000
0310
0000
0100
0100
0100
1000
,  // measure 69
0010
0000
0100
0001
1000
0010
1000
0001
,  // measure 70
0200
0000
0301
0000
1000
1000
1000
0000
,  // measure 71
0010
0000
1000
0010
0100
0001
1000
0001
,  // measure 72
2000
0000
3001
0010
0100
0010
0001
1000
,  // measure 73
1001
0000
0001
0100
1000
0100
0001
0100
,  // measure 74
1000
0000
0001
0010
1000
0010
0001
0010
,  // measure 75
1000
0000
1000
0010
0001
0010
1000
0010
,  // measure 76
0001
0000
1000
0100
0001
0100
1000
0100
,  // measure 77
0001
0000
1000
0010
0100
0001
1000
0001
,  // measure 78
0100
0000
0001
0010
0100
1000
0001
1000
,  // measure 79
0100
0000
1000
0001
0100
0010
1000
0001
,  // measure 80
0100
0001
0010
0100
1000
0100
0110
0000
,  // measure 81
1001
0000
0100
0000
0010
0000
0100
0000
1000
0000
0000
1000
0001
0000
0100
0000
,  // measure 82
0001
0000
1000
0000
0001
0000
0100
0000
0001
0000
0000
0001
0010
0000
0001
0000
,  // measure 83
1000
0000
0100
0000
0010
0000
0100
0000
1000
0000
0000
1000
0010
0000
0100
0000
,  // measure 84
0010
0000
0100
0000
0001
0000
1000
0000
0001
0000
0000
0001
0100
0000
0001
0000
,  // measure 85
1000
0000
0100
0000
0010
0000
0100
0000
1000
0000
0001
0100
0000
0001
0100
0000
,  // measure 86
0001
0000
0010
0000
0100
0000
1000
0000
0100
0000
0010
0100
0000
1000
0100
0000
,  // measure 87
1000
0000
0010
0000
0100
0000
0001
0000
1000
0000
0001
1000
0000
0001
0010
0000
,  // measure 88
0001
0000
0100
0000
0010
0000
1000
0000
0010
0000
0000
0010
0100
0000
0001
0000
,  // measure 89
2000
0000
0000
0000
,  // measure 90
3200
0000
0000
0000
,  // measure 91
0320
0000
0000
0000
,  // measure 92
0032
0000
0000
0000
,  // measure 93
0203
0000
0000
0000
,  // measure 94
0320
0000
0000
0000
,  // measure 95
0230
0000
0000
0000
,  // measure 96
0002
0000
0000
0303
,  // measure 97
1001
0000
0000
0000
;

//---------------dance-single - ----------------
#NOTES:
     dance-single:
     :
     Challenge:
     14:
     0.821,0.902,0.626,0.204,0.258:
0000
0000
0000
0000
,
0000
0000
0000
0000
,
0000
0000
0000
0000
,
0000
0000
0000
0000
,
0010
1000
1000
0001
1000
1000
0001
0010
,
0010
0100
0010
0010
0001
0010
0100
0010
,
0001
0100
0100
0010
1000
1000
0100
0010
,
0010
0100
1000
1000
0100
0001
0100
1000
,
0110
0001
1000
0001
0001
0010
0001
0001
,
0100
0010
0010
1000
0010
0100
0001
0100
,
0001
0010
0010
0100
1000
1000
0100
0010
,
0010
0100
1000
1000
0010
0100
0001
1000
,
1001
0010
0010
1000
0100
0100
0001
0010
,
0010
0001
0100
0100
0010
1000
0100
0001
,
0100
1000
1000
0001
0010
0010
1000
0010
,
0010
0001
0100
0100
0010
1000
0001
0100
,
1001
0001
0100
0010
0010
1000
0100
0100
,
0010
0100
0100
0001
0100
1000
0010
0001
,
0010
1000
1000
0001
0100
0100
0001
0010
,
0010
1000
0100
0100
1000
0010
0001
0100
,
1001
1000
1000
0001
0001
0001
0010
0010
,
0010
0100
0100
0100
1000
0010
0100
0001
,
1000
1000
1000
0001
0001
0001
0010
0100
,
1001
0000
1001
0000
1001
0000
0000
0000
0110
0000
1000
0001
1000
0000
0001
0100
,
0002
0000
0000
0000
,
2003
0000
0000
0000
,
3020
0000
0000
0000
,
0230
0000
0002
0300
,
2000
0000
0000
0003
,
3200
0000
0000
0000
,
0020
0000
0000
0330
,
0210
0000
0001
0000
1300
0001
1000
0100
,
1000
0000
0010
0000
0110
0000
0000
0000
0101
0000
0000
0001
0100
0000
0001
0000
,
0010
0000
0001
0000
0101
0000
0000
0000
1100
0000
0000
0100
1000
0000
0010
0000
,
1000
0000
0010
0000
1010
0000
0000
0000
0110
0000
0000
0010
1000
0000
0001
0000
,
1000
0000
0001
0000
1001
0000
0000
0000
0101
0000
0000
1000
0100
0000
1000
0000
,
0001
0000
0010
0000
0110
0000
0000
0000
0011
0000
0000
0001
0100
0000
0001
0000
,
0010
0000
0100
0000
0110
0000
0000
0000
1010
0000
0000
0001
1000
0000
0010
0000
,
1000
0000
0100
0000
1100
0000
0000
0000
0110
0000
0000
1000
0010
0000
1000
0000
,
0001
0000
0100
0000
0110
0000
0000
0000
1001
0000
0000
0010
0100
0000
0010
0000
,
1001
0000
0010
0000
0100
0000
1000
0000
0010
0000
1000
0100
0000
1000
0010
0000
,
0100
0000
0001
0000
0010
0000
0100
0000
1000
0000
0001
0010
0000
0001
0100
0000
,
0010
0000
1000
0000
0001
0000
0100
0000
0001
0000
1000
0001
0000
0100
0001
0000
,
0010
0000
0100
0000
1000
0000
0100
0000
0010
0000
0001
0010
0000
1000
0010
0000
,
1000
0000
0010
0000
0100
0000
0001
0000
1000
0000
0010
1000
0000
0001
0100
0000
,
0001
0000
0010
0000
0100
0000
1000
0000
0100
0000
0010
0001
0000
1000
0010
0000
,
0100
0000
0001
0000
1000
0000
0010
0000
0001
0000
0010
0100
0000
0001
0100
0000
,
0001
0000
1000
0001
1000
0000
0001
0100
0001
0000
0001
0000
1000
0000
1000
0000
,
1001
0100
0010
2000
0000
0000
3001
0000
,
0010
0100
0010
0002
0000
1003
0100
0010
,
0100
1000
0010
0200
0000
0301
1000
0001
,
0100
0001
0010
2000
0000
3010
0001
0100
,
0110
0001
1000
0002
0000
1003
0100
0010
,
1100
0100
1000
0020
0000
0130
0001
0100
,
0011
0001
1000
0020
0000
1030
0001
0100
,
1001
0010
0100
0002
0000
1003
0100
0001
,
0101
0000
0000
0001
0100
1000
0100
0000
0000
0101
0000
0000
,
0011
0000
0000
1000
0100
0001
0100
0000
0000
1100
0000
0000
,
0110
0000
0000
0001
0010
1000
0010
0000
0000
0011
0000
0000
,
1001
0000
0000
1000
0010
0001
0010
0000
0000
1010
0000
0000
,
0110
0000
0001
0100
1000
0100
0001
0100
,
1001
0000
1000
0010
0001
0010
1000
0100
,
1100
0000
0001
0010
0100
0010
0001
1000
,
2001
0000
3010
0010
0100
0010
0110
0001
,
1001
0000
0010
0000
1000
0000
0001
0000
1000
0100
1000
0000
0010
1000
0010
0000
,
0100
0000
0001
0000
1000
0000
0001
0000
1000
0001
1000
0000
0001
1000
0001
0000
,
0010
0000
0100
0000
1000
0000
0100
0000
0010
0001
0010
0000
0001
0010
0001
0000
,
0100
0000
0010
0000
1000
0000
0001
0000
1000
0001
0100
0000
0001
1000
0100
0000
,
1001
0010
0100
0001
1000
0100
0010
0001
,
1000
0000
0100
0000
0010
0000
0100
0000
1000
0010
1000
0000
0010
1000
0010
0000
,
0100
0000
0001
0000
1000
0000
0001
0000
0010
0001
0010
0000
0001
0010
0001
0000
,
1000
0000
0100
0000
0010
0000
0001
0000
1000
0001
0100
0000
0001
1000
0100
0000
,
1001
0000
0010
0000
0101
0000
0010
1000
0100
0000
1000
0000
0001
0000
0100
0000
,
1001
0000
0010
0000
1010
0000
0100
0001
1000
0000
0001
0000
0010
0000
0100
0000
,
0110
0000
0001
0000
1001
0000
0001
0100
0010
0000
1000
0000
0100
0000
1000
0000
,
1100
0000
0010
0000
0011
0000
0010
0001
1000
0000
0001
0000
0100
0000
0010
0000
,
1001
0000
0010
0000
1010
0000
0100
0001
1000
0000
0010
0000
0100
0000
0001
0000
,
1100
0000
0100
0000
1001
0000
0001
0100
0010
0000
0100
0000
0001
0000
1000
0000
,
1001
0000
0001
0000
0011
0000
0100
0010
0001
0000
1000
0000
0100
0000
1000
0000
,
1001
0000
1000
0000
1010
0000
0010
0100
0001
0000
1000
0000
0100
0000
1000
0000
,
1001
0000
0010
0000
0110
0000
0000
0000
0101
0000
0000
0001
0100
0000
0001
0000
,
1000
0000
0100
0000
0110
0000
0000
0000
1100
0000
0000
0100
1000
0000
0010
0000
,
1000
0000
0001
0000
1001
0000
0000
0000
0110
0000
0000
0010
0100
0000
0001
0000
,
1000
0000
0100
0000
1100
0000
0000
0000
0011
0000
0000
0001
0100
0000
0010
0000
,
0100
0000
0001
0000
1001
0000
0000
0000
1010
0000
0010
1000
0000
0010
1000
0000
,
0001
0000
0100
0000
0101
0000
0000
0000
1001
0000
1000
0100
0000
1000
0100
0000
,
0010
0000
0100
0000
1000
0000
0001
0000
0100
0000
0010
0100
0000
0001
1000
0000
,
0011
0000
1001
0000
0110
0010
1001
0001
,
0200
0000
0000
0000
,
0020
0000
0000
0300
,
2000
0000
0000
0030
,
0002
0000
0000
3000
,
0200
0000
0000
0003
,
0020
0000
0000
0300
,
0200
0000
0000
0030
,
0002
0000
0000
0303
,
1001
0000
0000
0000
;
