#TITLE:Time to Air;
#SUBTITLE:;
#ARTIST:青龍;
#TITLETRANSLIT:;
#SUBTITLETRANSLIT:;
#ARTISTTRANSLIT:SEIRYU;
#GENRE:;
#CREDIT:;
#MUSIC:Time to Air.ogg;
#BANNER:Time to Air.png;
#BACKGROUND:Time to Air-bg.png;
#CDTITLE:./CDTITLES/BEATMANIA IIDX.PNG;
#SAMPLESTART:82.932;
#SAMPLELENGTH:15.000;
#SELECTABLE:YES;
#OFFSET:0.000;
#BPMS:0.000=191.000;
#STOPS:;
#MENUCOLOR:;
#METERTYPE:DDR;
#LISTSORT:;
#BGCHANGES:;
#FGCHANGES:;

//--------------- dance-single - t7r ----------------
#NOTES:
     dance-single:
     t7r:
     Beginner:
     5:
     0.169,0.263,0.008,0,0:
0000
0000
0000
0000
,
0000
0000
0000
0000
,
0000
0000
0000
0000
,
0000
0000
0000
0000
,
0000
0000
0000
0000
,
0010
0000
0000
0000
,
0100
0000
0000
0000
,
0001
0000
0001
0000
,
1000
0000
0000
0000
,
0000
1000
0000
1000
,
0000
0001
0000
0001
,
0000
0100
0000
0100
,
0000
0010
0000
0010
,
0000
1000
0000
1000
,
0000
0100
0000
0100
,
0100
0000
0010
0000
,
0001
0000
1000
0000
,
0001
0000
0100
0000
,
0010
0000
1000
0000
,
0001
0000
1000
0000
,
0100
0000
0010
0000
,
0001
0000
0010
0000
,
0100
0000
1000
0000
,
0100
0000
0010
0000
,
0001
0000
1000
0000
,
0001
0000
0000
0000
,
0000
0000
0000
0000
,
0100
0000
0000
0000
,
0000
0000
0000
0000
,
0010
0010
0010
0000
,
0010
0010
0010
0000
,
1000
1000
1000
0000
,
0001
0000
0000
0000
,
0000
0100
0000
0100
,
0000
0010
0000
0010
,
0000
1000
0000
0001
,
0000
1000
0000
0100
,
0000
0010
0000
0001
,
0000
0010
0000
0100
,
0100
0000
0010
0000
,
0001
0000
1000
0000
,
0000
0001
0000
0001
,
0000
0001
0000
0001
,
0000
1000
0000
1000
,
0000
1000
0000
1000
,
1000
0000
0000
0000
,
0010
0000
0000
0000
,
0100
0000
0000
0000
,
0001
0000
1000
0000
,
0001
0000
0000
0000
,
0000
0000
0000
0000
,
0000
0000
0000
0000
,
0000
0000
0000
0000
,
1000
0000
0000
0000
,
1000
0000
0000
0000
,
0001
0000
0000
0000
,
0001
0000
0000
0000
,
0010
0000
0000
0000
,
0010
0000
0000
0000
,
0100
0000
0000
0000
,
0100
0000
0100
0000
,
0010
0000
0000
0000
,
0001
0000
0000
0000
,
1000
0000
1000
0000
,
0001
0000
0001
0000
,
1000
0000
0000
0000
,
0001
0000
1000
0000
,
0001
0000
0100
0000
,
0010
0000
1000
0000
,
0010
0000
0100
0000
,
0001
0000
1000
0000
,
0100
0000
0010
0000
,
0001
0000
0010
0000
,
0100
0000
1000
0000
,
0000
0100
0000
0100
,
0000
0010
0000
0010
,
0000
0001
0000
0001
,
0000
1000
0000
1000
,
1000
0000
0000
0000
,
0010
0000
0000
0000
,
0100
0000
0010
0000
,
0100
0000
0000
0000
,
0010
0000
0010
0000
,
1000
0000
1000
0000
,
0001
0000
0001
0000
,
0100
0000
0100
0000
,
0010
0000
0000
0000
,
0100
0000
0000
0000
,
0010
0000
1000
0000
,
0001
0000
0100
0000
,
1001
0000
0000
0000
;

//--------------- dance-single - t7r ----------------
#NOTES:
     dance-single:
     t7r:
     Easy:
     6:
     0.343,0.427,0.101,0.22,0:
0000
0000
0000
0000
,
0000
0000
0000
0000
,
0000
0000
0000
0000
,
0000
0000
0000
0000
,
0000
0000
0000
0000
,
0010
0010
0100
0100
,
0001
0001
1000
1000
,
0020
0000
0000
0030
,
0200
0000
0000
0300
,
0010
1000
0001
0100
,
0001
1000
0001
1001
,
1000
0100
0010
0001
,
0010
0100
1000
0100
,
1000
0010
0100
0001
,
0100
0010
1000
1001
,
0001
0010
0100
1000
,
0100
0010
0001
0100
,
0010
1000
0000
0001
,
0000
0100
0000
0010
,
0100
0001
0000
1000
,
0000
0100
0000
0010
,
0100
1000
0000
0100
,
0000
1000
0010
0100
,
0001
0000
1000
0000
,
0001
0001
2002
3003
,
0020
0000
0000
0000
,
0000
0000
0000
0030
,
0200
0000
0000
0000
,
0000
0000
0000
0300
,
0010
0010
0010
0010
,
1000
1000
2002
3003
,
0001
0001
0010
0010
,
0200
0000
0000
0300
,
0010
0001
0000
0100
,
0010
1000
0000
0010
,
0100
0001
0000
1000
,
0001
0100
0000
0001
,
1000
0001
1000
0001
,
0100
0010
0100
0010
,
1000
0010
0100
0001
,
1000
0100
0220
0330
,
0010
0001
0010
0001
,
1000
0100
0010
0110
,
0010
0001
1000
0100
,
0010
0100
1000
1001
,
0001
0100
0010
0100
,
0010
1000
0010
0110
,
0010
1000
0001
0100
,
0001
0010
0100
0110
,
2002
0000
0000
0000
,
0000
0000
0000
0000
,
3003
0000
0000
0000
,
0000
0000
0000
0000
,
0010
0000
1000
0000
,
0001
0000
0100
0000
,
0001
0000
0001
0000
,
1000
0000
0100
0000
,
0010
0000
0010
0000
,
0001
0000
0001
0000
,
1000
0000
0100
0000
,
1000
0000
0010
0000
,
0200
0000
0000
0300
,
0020
0000
0000
0030
,
2000
0000
0000
3000
,
0002
0000
0000
0003
,
1000
1000
2000
3000
,
0010
0100
0010
0100
,
0001
1000
0001
1000
,
0001
0010
0001
0010
,
0100
1000
0100
1000
,
0010
1000
0010
1000
,
0001
0100
0001
0100
,
0001
0010
0100
1000
,
0100
0010
0001
1001
,
1000
0010
0100
0001
,
1000
0010
0100
0001
,
1000
0100
0001
0100
,
1000
0100
0001
0100
,
1000
0010
0100
0001
,
1000
0010
0100
0001
,
1000
0010
0001
0010
,
1000
0100
0002
0003
,
0100
0100
0010
0010
,
0001
0001
0010
0010
,
0001
0001
0100
0100
,
0010
0010
1000
1000
,
2001
0000
0000
0000
,
3002
0000
0000
0000
,
0203
0000
0320
0000
,
2030
0000
3002
0000
,
2003
0000
0000
0000
,
0000
0000
0000
0000
,
3000
0000
0000
0000
;

//--------------- dance-single - t7r ----------------
#NOTES:
     dance-single:
     t7r:
     Medium:
     10:
     0.47,0.543,0.152,0.211,0:
0000
0000
0000
0000
,
0000
0000
0000
0000
,
0000
0000
0000
0000
,
0000
0000
0000
0000
,
0000
0000
0000
0000
,
1000
0001
0000
0000
1000
0001
0000
0000
,
1000
0100
0000
0000
1000
0100
0000
0000
,
0010
0001
0000
1000
0001
0000
0001
0000
,
0200
0000
0000
0300
,
0010
0000
1000
0001
0100
0000
0001
0000
,
1000
0001
0010
0100
,
1000
0000
0100
0010
0001
0000
0100
0000
,
0010
1000
0010
0100
,
0010
0000
1000
0001
0100
0000
0001
0000
,
1000
0100
0010
0001
,
0010
0100
1000
0100
,
0010
0010
0010
0010
,
0001
0000
0010
0100
1000
0000
0100
0010
,
0001
0000
0010
0100
1000
0000
0001
0000
,
0100
0000
0010
0100
0001
0000
0100
0010
,
1000
0000
0010
0100
0001
0000
1000
0000
,
0001
0000
1000
0100
0010
0000
0001
0010
,
0100
0000
1000
0100
0010
0000
0001
0000
,
1000
0000
0001
0100
0010
0000
1000
0010
,
0100
0010
1000
0001
,
2000
0000
0000
0000
,
0001
3001
0000
0000
,
0002
0000
0000
0000
,
1000
1003
0000
0000
,
0010
0010
0010
0010
,
0100
0010
0220
0330
,
0010
0010
1000
1000
,
2002
0000
0000
3003
,
0001
0000
0100
0000
0000
0001
0000
1000
,
0001
1000
0000
0001
,
0100
0000
0010
0000
0000
1000
0000
0001
,
1000
1000
0000
0010
,
0100
0000
0001
0000
0000
0010
0000
0100
,
0010
0001
0000
0010
,
0100
0000
1000
0000
0000
0100
0000
1000
,
0001
0100
0010
1000
,
0010
0000
0100
0000
0001
0000
0100
0010
,
1000
0010
0100
1001
,
1000
0000
0100
0000
0010
0000
0001
0010
,
0100
1000
0100
0110
,
0020
0000
0030
0001
,
2002
0000
3003
1000
,
0002
0003
2000
3000
,
0010
0100
0010
1000
,
2002
0000
0000
0000
,
0000
0000
0000
0000
,
3003
0000
0000
0000
,
0000
0000
0000
0000
,
0100
0100
0010
0010
,
0001
0001
0010
0010
,
0100
0100
1000
1000
,
0100
0100
0010
0010
,
1001
1000
0001
0001
,
0100
0100
0010
0010
,
1001
1000
0001
0001
,
0100
0100
0001
0001
,
1001
0000
0000
0000
0000
0000
0000
0001
,
1000
0000
0000
0000
0000
0000
0000
0001
,
1000
0001
1000
0001
,
0100
0110
1000
1001
,
1000
0100
0010
0001
2000
0000
3000
0000
,
0001
0000
0010
0000
0100
0000
1000
0100
,
0010
0000
0001
0000
0010
0000
0100
1000
,
0010
0000
0100
0000
0001
0000
1000
0010
,
0100
0000
0010
0000
0100
0000
0001
1000
,
0001
0000
1000
0000
0100
0000
0010
0001
,
0010
0000
0001
0000
0010
0000
0100
1000
,
0001
0000
0100
0000
0010
0000
1000
0010
,
0100
0010
2002
3003
,
1000
0000
0001
0000
1000
0000
0001
1000
,
0001
0000
0100
0000
0010
0000
0100
0010
,
0100
0000
0010
0000
1000
0000
0001
1000
,
0001
0000
1000
0000
0100
0000
0010
0001
,
0100
0000
0010
0000
1000
0000
0010
1000
,
0100
0000
1000
0000
0100
0000
1000
0100
,
0010
0000
0001
0000
0010
0000
0100
0010
,
0001
0100
0010
1000
,
0001
0100
1000
0000
0001
0100
1000
0000
,
0001
0010
1000
0000
0001
0010
0001
0010
,
1000
0100
0001
0000
1000
0100
0001
0000
,
1000
0010
0001
0000
1000
0010
0001
0010
,
1000
0100
0000
0001
0100
0000
1001
0000
,
0001
0010
0000
1000
0010
0000
0110
0000
,
0010
0100
0110
0001
,
1001
0110
1001
0010
,
2002
0000
0000
0000
,
0000
0000
0000
0000
,
3003
0000
0000
0000
;

//--------------- dance-single - t7r ----------------
#NOTES:
     dance-single:
     t7r:
     Hard:
     16:
     0.88,1,0.981,0.262,0.093:
0000
0000
0000
0000
,
0000
0000
0000
0000
,
0000
0000
0000
0000
,
0000
0000
0000
0000
,
0000
0000
0000
0000
,
1000
0000
0010
0000
0100
0001
0000
0100
0001
0000
0010
0100
0000
1000
0100
0000
,
1000
0000
0010
0000
0100
0001
0000
0100
0001
0000
0010
0100
0010
0000
0001
0000
,
1000
0001
2000
0001
0001
0001
0001
3001
,
0220
0000
0000
0330
,
1001
0100
0001
1000
0010
0100
0001
1000
,
0100
0001
0100
1000
0020
0000
1030
0000
,
0001
0010
0100
1000
0001
0010
0001
1000
,
0010
0100
0001
1000
0010
0100
0001
0001
,
1001
0010
0001
1000
0100
0001
0100
1000
,
0010
0100
0001
1000
0002
0000
0013
0000
,
0100
0010
0001
0010
0100
1000
0001
0100
,
0010
1000
0100
0100
0010
0010
0001
0001
,
1001
0010
1100
0000
0001
0000
0101
0000
,
0010
0000
1010
0000
1100
0000
0001
0100
,
0101
0011
1000
1010
,
0100
0000
0000
0000
0101
0000
0000
0000
1001
0000
0000
0000
0110
0000
0001
1000
,
0001
0010
1100
0010
0001
0100
1010
0100
,
0001
1000
0011
1000
0100
0000
1001
0000
,
0110
0010
1000
0001
1001
1000
0100
0010
,
1100
0100
0010
0100
1000
0001
0100
0010
,
0210
0001
0001
0001
0000
1000
1000
1000
,
0001
0000
0001
0000
0000
0001
0000
0301
,
0020
0100
0100
0100
0000
1000
0100
0100
,
1000
0000
1000
0000
0000
0001
0001
0031
,
1001
0110
1001
0110
,
1001
1100
0202
0303
,
0011
1100
1001
0110
,
2002
0000
0000
3003
,
0001
0100
1100
0100
0000
1000
0100
0001
,
2100
0000
3001
0000
0000
0101
0000
0001
,
1010
0010
0001
1000
0000
0010
1000
0001
,
0012
0000
0013
0000
0000
1000
0100
1000
,
1001
0100
0001
0100
0000
0010
1000
0010
,
2001
0000
3001
0000
0000
0110
0000
1000
,
0101
0100
1000
0100
0000
0001
1000
0001
,
1001
0000
0000
0110
0000
0000
1001
0000
1001
0000
1001
0000
0000
0000
0000
0000
,
0011
0100
1000
0100
0001
0010
1000
0010
,
0001
0100
0010
0100
0001
0000
1001
0000
,
1000
0010
0001
0010
1000
0100
0001
0100
,
1000
0100
0010
0001
1000
0100
0010
0001
,
1001
0000
0010
0000
0100
0000
0010
0000
1000
0010
1000
0010
1000
0000
0001
0000
,
1001
0000
0010
0000
0100
0000
0010
0000
0001
0010
0001
0010
0001
0000
0100
0000
,
1001
0000
0010
0100
1001
0000
0100
0010
,
0210
0000
0000
0000
0001
0000
0000
1000
0000
1000
0000
0000
0301
0000
0000
0000
,
2002
0000
0000
0000
,
0000
0000
0000
0000
,
3003
0000
0000
0000
,
0000
0000
0000
0000
,
0010
0100
1000
0100
0100
0010
0100
1000
,
0010
0100
0001
0100
0100
0010
0100
0001
,
0010
0001
1000
0010
1000
0001
0010
0001
,
1000
0100
0010
0001
1000
0100
0010
0100
,
1001
0010
0001
0010
1000
0001
1000
1000
,
0001
0010
1000
0010
0001
1000
0001
0001
,
0110
0100
0001
0010
0100
1000
0010
0100
,
0001
0010
1000
0001
0100
1000
0001
0010
,
1001
0000
1000
0000
0000
0000
0001
0000
0100
0000
0001
0010
0000
0001
0010
0000
,
0001
0000
1000
0000
0000
0000
0100
0000
1000
0000
0100
0000
0010
0100
1000
0000
,
0010
0100
1001
0001
1001
1000
1001
0001
,
0110
0000
0010
0000
0110
0000
0010
0100
0001
0000
1000
0000
0001
0000
0001
0000
,
0110
0110
0110
0110
0210
0001
0001
0301
,
1001
0010
0100
1000
1001
0010
0100
0001
,
1001
0010
1000
0001
1001
0100
0001
1000
,
0011
0100
1000
0100
1010
0100
0001
0100
,
1001
0100
0010
1000
1001
0010
0100
0001
,
1001
0010
0100
1000
0100
0010
0001
1000
,
1001
0010
0100
0001
0100
0010
1000
0001
,
1001
0100
0010
0100
1001
0010
0100
0010
,
1100
0000
0000
0101
0000
0000
1100
0000
0101
0000
0202
0000
0000
0000
0303
0000
,
0011
0001
0001
0001
0101
0100
0100
0100
,
1010
0010
0010
0010
1100
0100
0100
0100
,
1001
1000
1000
1000
0110
0010
0010
0010
,
0101
0100
0100
0100
0101
0001
0010
0100
,
1001
0001
0001
0001
1000
0001
1000
0001
,
0110
0010
0010
0010
0100
0010
0100
0010
,
1010
1000
1000
1000
0101
0000
1001
0000
,
2100
0000
0000
0000
0001
0000
0000
0100
0000
0100
0000
0000
3001
0000
0000
0000
,
1010
0010
1000
0010
0101
0100
0001
0100
,
1001
0001
0001
0001
1001
1000
1001
1000
,
0011
0010
0001
0010
1100
0100
1000
0100
,
0110
0100
0110
0000
1001
0001
1001
1000
,
2001
0000
0010
0000
0010
0000
3010
0000
0100
0010
0100
0010
0100
0010
0100
0000
,
1002
0000
0100
0000
0100
0000
0103
0000
0010
0100
0010
0100
0010
0100
0010
0000
,
1001
0010
1000
0001
0010
1000
0100
0001
,
0010
1000
0010
0001
0100
0010
0100
0001
,
2002
0000
0000
0000
,
0000
0000
0000
0000
,
3003
0000
0000
0000
;

//--------------- dance-single - t7r ----------------
#NOTES:
     dance-single:
     t7r:
     Challenge:
     13:
     0.638,0.698,0.448,0.237,0.013:
0000
0000
0000
0000
,
0000
0000
0000
0000
,
0000
0000
0000
0000
,
0000
0000
0000
0000
,
0000
0000
0000
0000
,
0001
1000
MMMM
0010
0100
0010
0000
1000
,
0010
1000
MMMM
0001
0100
0001
0000
1000
,
0100
0010
0001
0001
0001
0001
0001
0001
,
2000
0000
3000
MMMM
,
0001
0100
0001
0000
1000
0010
0100
0000
,
0010
0100
0001
1000
0100
0000
MMMM
0000
,
1000
0010
1000
0000
0001
0100
0010
0000
,
1000
0100
0010
0001
1000
0010
0100
0001
,
1000
0100
0010
0000
0001
0010
0100
0000
,
1000
0100
0010
0001
1000
0000
MMMM
0000
,
0001
0100
0010
0000
1000
0010
1000
0000
,
0001
0100
0001
0001
1000
1000
0001
0001
,
1000
MMMM
0001
MMMM
,
1000
0000
1001
0000
0110
0000
0010
0100
,
0100
MMMM
1000
MMMM
,
0001
0000
0110
0000
1001
0000
0001
1000
,
MMMM
0101
MMMM
1100
,
MMMM
0000
0011
0000
1100
0000
0001
0010
,
0010
MMMM
0001
MMMM
,
1000
0010
1000
0100
0010
0001
0010
0100
,
1000
0100
1000
0001
0000
0101
0000
0001
,
1000
0000
2002
3003
MMMM
0110
0000
0010
,
0100
0001
1000
0100
0000
1100
0000
0010
,
0001
0000
0022
0033
MMMM
1100
0000
1000
,
0001
1001
1001
1001
,
0110
0000
1001
0000
0220
0330
MMMM
0000
,
1100
0101
1100
0101
,
2002
0000
3003
MMMM
,
1000
0001
0100
0001
0000
1100
0000
0100
,
0010
0000
0220
0330
MMMM
0011
0000
0001
,
0010
0100
1000
0100
0000
1100
0000
1000
,
0010
0000
2020
3030
MMMM
0101
0000
0001
,
1000
0100
1000
0001
0000
0101
0000
0001
,
0010
0000
0220
0330
MMMM
1001
0000
1000
,
0001
0100
0001
1000
0000
0110
0000
0001
,
1000
0000
0000
0101
0000
0000
0001
0000
2000
0000
3000
0000
MMMM
0000
0000
0000
,
0001
0010
0100
1000
0001
0010
0001
0000
,
1000
0100
0010
0001
1000
0010
MMMM
0000
,
0001
0010
0100
1000
0100
0010
0001
0010
,
0100
1000
0100
0010
0100
1000
MMMM
0100
,
0010
1000
0001
0100
0001
0100
MMMM
0000
,
1000
0010
0100
0001
1000
0100
MMMM
0000
,
0001
0010
0001
0100
0001
0010
0100
1000
,
0100
0000
0000
0000
MMMM
0000
0000
1001
0000
1001
0000
0000
1001
0000
0000
0000
,
0020
0000
2030
0000
,
3002
0000
0203
0000
,
0320
0000
2030
0000
,
3002
0000
1003
MMMM
,
0001
0100
0001
MMMM
,
0001
0100
0001
MMMM
,
0100
0010
0001
MMMM
,
0100
0010
0001
MMMM
,
0001
1000
MMMM
0001
0100
0001
0000
1000
,
0100
1000
MMMM
0100
0010
0001
0000
0010
,
0100
1000
MMMM
0100
1000
1000
0000
0001
,
0100
0000
MMMM
0000
0001
1000
0100
0000
,
1000
0010
MMMM
0100
0010
1000
0000
0010
,
0100
0001
MMMM
1000
0100
0010
0000
0001
,
0010
0100
1000
1000
1000
1000
1000
1000
,
0001
0001
0001
0001
0001
0001
0001
0001
,
0101
0001
1000
0001
2000
3000
MMMM
0000
,
0001
0010
0001
0100
0001
0010
MMMM
0000
,
1000
0010
1000
0100
1000
0010
MMMM
0000
,
0001
0010
0100
1000
0001
0010
0100
1000
,
0001
0100
0001
1000
0001
0100
MMMM
1000
,
0100
0010
0001
1000
0100
0010
MMMM
0000
,
1000
0100
0010
0100
1000
0001
MMMM
0000
,
0010
1000
0001
0100
0001
0010
0001
1000
,
0010
0100
0001
1000
0100
0010
MMMM
0100
,
0010
0000
MMMM
0000
0101
0000
1000
0001
,
0100
0000
MMMM
0000
1100
0000
0001
0010
,
0100
0000
MMMM
0000
1001
0000
1000
0100
,
0010
0000
MMMM
0000
1001
0000
0001
1000
,
MMMM
0000
0101
0000
1001
0000
1000
0001
,
MMMM
0000
0011
0000
0110
0000
0010
0100
,
MMMM
1100
0101
1100
,
1000
0001
1000
0001
2002
3003
MMMM
0000
,
0001
0100
0001
0100
0010
0010
0010
MMMM
,
1000
0100
1000
0100
0010
0001
0001
MMMM
,
1000
0010
1000
0010
0100
0010
0100
MMMM
,
0010
1000
0001
1000
0100
0010
0001
MMMM
,
1000
0100
0100
0100
1000
1000
0001
0001
,
0100
0010
0010
0010
1000
1000
0010
0010
,
0100
0001
0001
0001
1000
1000
0001
0001
,
1000
0100
0010
0001
1000
0100
0010
0001
,
2002
0000
0000
0000
,
0000
0000
3003
MMMM
;
