#TITLE:すみれSeptember Love (feat.IZAM);
#SUBTITLE:;
#ARTIST:メガマソ;
#TITLETRANSLIT:Sumire September Love (feat.IZAM);
#SUBTITLETRANSLIT:;
#ARTISTTRANSLIT:MEGAMASSO;
#GENRE:;
#CREDIT:;
#MUSIC:Sumire September Love (feat.IZAM).ogg;
#BANNER:Sumire September Love (feat.IZAM).png;
#BACKGROUND:Sumire September Love (feat.IZAM)-bg.png;
#CDTITLE:./CDTITLES/NONE.PNG;
#SAMPLESTART:67.702;
#SAMPLELENGTH:15.000;
#SELECTABLE:YES;
#OFFSET:0.000;
#BPMS:0.000=130.000;
#STOPS:;
#MENUCOLOR:;
#METERTYPE:DDR;
#LISTSORT:;
#BGCHANGES:0.000=Sumire September Love (feat.IZAM).avi=1.000=0=0=0=StretchNoLoop====,
99999.000=-nosongbg-=1.000=0=0=0=StretchNoLoop====
;
#FGCHANGES:;

//--------------- dance-single - t7r ----------------
#NOTES:
     dance-single:
     t7r:
     Beginner:
     1:
     0.12,0.175,0.042,0,0:
0000
0000
0000
0000
,
0000
0000
0000
0000
,
0000
0000
0000
0000
,
0000
0000
0000
0000
,
0000
0000
0000
0000
,
1000
0000
0000
0000
,
0010
0000
0000
0000
,
0100
0000
0000
0000
,
0001
0000
0000
0000
,
1000
1000
1000
0000
,
0001
0001
0001
0000
,
0010
0000
0000
0000
,
0100
0000
0000
0000
,
0001
0001
0001
0000
,
1000
1000
1000
0000
,
0010
0000
0000
0000
,
0100
0000
0000
0000
,
0000
0001
0000
0001
,
0000
1000
0000
1000
,
0000
0010
0000
0010
,
0000
0100
0000
0100
,
0100
0000
0000
0000
,
0001
0000
0000
0000
,
1000
0000
0000
0000
,
0010
0000
0010
0010
,
0010
0000
1000
0000
,
0001
0000
0100
0000
,
0001
0000
1000
0000
,
0000
0010
0000
0010
,
0010
0000
0100
0000
,
0001
0000
1000
0000
,
0001
0000
0001
0000
,
1000
0000
0001
0000
,
1001
0000
0000
0000
,
1000
0000
1000
0000
,
1001
0000
0000
0000
,
0001
0000
0001
0000
,
1000
0000
0000
0000
,
0010
0000
0000
0000
,
0100
0000
0000
0000
,
0001
0000
0000
0000
,
0010
0000
0010
0000
,
0100
0000
0100
0000
,
0001
0000
0001
0000
,
1000
0000
1000
0000
,
1001
0000
0000
0000
,
0010
0000
0000
0000
,
0100
0000
0000
0000
,
0001
0000
0000
0000
,
1000
0000
1000
0000
,
1000
0000
1000
1000
,
1000
0000
0000
0000
,
1001
0000
0000
0000
,
0100
0000
0100
0000
,
0010
0000
0010
0000
,
1000
0000
0001
0000
,
1000
0000
1000
0000
,
0000
0001
0000
0001
,
0000
0001
0000
0001
,
0001
0000
1000
0000
,
0010
0000
0100
0000
,
1001
0000
0000
0000
;

//--------------- dance-single - t7r ----------------
#NOTES:
     dance-single:
     t7r:
     Easy:
     4:
     0.2,0.231,0.05,0.067,0:
0000
0000
0000
0000
,
0000
0000
0000
0000
,
0000
0000
0000
0000
,
0000
0000
0000
0000
,
0000
0000
0000
0000
,
1000
0000
1000
0000
,
0001
0000
0001
0001
,
0010
0000
0010
0000
,
0100
0000
0100
0100
,
1000
1000
1000
1000
,
0001
0001
0001
0001
,
0010
0000
0010
0000
,
0100
0000
0100
0000
,
0001
0001
0001
0001
,
1000
1000
1000
1000
,
0100
0000
0100
0000
,
0010
0000
0220
0330
,
1000
0000
0001
0000
,
1000
1000
0001
0000
,
0001
0000
1000
0000
,
0001
0001
1000
0000
,
0010
0100
0001
1000
,
0010
0010
0100
0000
,
1000
0100
0010
0001
,
1000
1000
0001
0000
,
1000
0000
1000
0000
,
0001
0000
0001
0000
,
0010
0000
0010
0000
,
0100
0000
0100
0000
,
0001
0010
0100
1000
,
0001
0001
0010
0000
,
0100
0001
1000
0010
,
0100
0100
0010
0000
,
2002
0000
0000
3003
,
0010
0000
0010
0000
,
2002
0000
0000
3003
,
0100
0000
0100
0000
,
1000
1000
1000
0000
,
0001
0001
0010
0000
,
0001
0001
0001
0000
,
1000
1000
0100
0000
,
1000
0000
0010
0000
,
0100
0001
0100
0000
,
0001
0000
0010
0000
,
0100
1000
0100
0000
,
1001
0000
0010
0000
,
0100
0001
1000
0000
,
0010
0000
0100
0000
,
0001
1000
0100
0000
,
0010
0000
0001
0000
,
1000
0100
1000
0000
,
0001
1000
0001
1000
,
1001
0000
0000
0000
,
0010
0010
0010
0010
,
0100
0100
0100
0100
,
0001
0000
1000
0000
,
0001
0000
1000
0001
,
1000
1000
1000
1000
,
0010
0010
0010
0010
,
0100
0000
0001
0000
,
1000
0000
0001
0000
,
2002
0000
0000
0000
,
0000
0000
0000
0000
,
3003
0000
0000
0000
;

//--------------- dance-single - t7r ----------------
#NOTES:
     dance-single:
     t7r:
     Medium:
     8:
     0.372,0.385,0.108,0.208,0.092:
0000
0000
0000
0000
,
0000
0000
0000
0000
,
0000
0000
0000
0000
,
0000
0000
0000
0000
,
0000
0000
0000
0000
,
0001
0000
0000
1000
2000
0000
3000
0000
,
0010
0000
0000
0100
0200
0000
0310
0000
,
1000
0000
0000
0001
0002
0000
0003
0000
,
1000
0000
0000
0010
0020
0000
0130
0000
,
0001
0000
1000
0000
0001
0001
1000
0000
,
0001
0000
0100
0000
0001
0001
1000
0000
,
0200
0310
0002
0103
,
2000
3010
0100
1001
,
1000
0000
0001
0000
1000
1000
0001
0000
,
1000
0000
0010
0000
1000
1000
0001
0000
,
0200
0301
0020
0130
,
2000
3001
0100
1001
,
0001
0000
0010
0000
0001
0100
0001
0000
,
1000
0000
0010
0000
1000
0100
1000
0000
,
0010
0000
0100
0000
0001
1000
0001
0000
,
0100
0000
0010
0000
1000
0001
0100
0000
,
0001
0000
0000
0001
0000
0000
0100
0000
0001
0000
0000
0000
0100
0000
0000
0000
,
1000
0000
0000
1000
0000
0000
0100
0000
1000
0000
0000
0000
0010
0000
0000
0000
,
0100
0000
0000
0100
0000
0000
0010
0000
1000
0000
0000
0000
0001
0000
0000
0000
,
1000
0000
0000
0100
0000
0000
0010
0000
0001
0000
0000
0000
1100
0000
0000
0000
,
0001
0000
1000
0000
0001
0010
0001
0000
,
1000
0000
0001
0000
1000
0010
1000
0000
,
0001
0000
0100
0000
0010
1000
0100
0000
,
1000
0000
0001
0000
0100
0001
0010
0000
,
0010
0000
0000
0010
0000
0000
0100
0000
0001
0000
0000
0000
0100
0000
0000
0000
,
0010
0000
0000
0010
0000
0000
1000
0000
0010
0000
0000
0000
1000
0000
0000
0000
,
0100
0000
0000
0100
0000
0000
1000
0000
0100
0000
0000
0000
0010
0000
0000
0000
,
0001
0000
0000
0001
0000
0000
1000
0000
0002
0000
0000
0000
1003
0000
0000
0000
,
0001
0000
0000
1001
0000
0000
0210
0000
0000
0000
0000
0000
0310
0000
0000
0000
,
1000
0000
0001
0000
1000
0001
0001
0000
,
1000
0000
0000
1001
0000
0000
0120
0000
0000
0000
0000
0000
0130
0000
0000
0000
,
0001
0000
0100
0010
0100
0000
0110
0000
,
1000
0000
0010
0000
1000
0001
1000
0000
,
0001
0000
0010
0000
0001
1000
0001
0000
,
0100
0000
0001
0000
0100
0010
0100
0000
,
0010
0000
1000
0000
0010
0100
0010
0000
,
1000
0000
0000
1000
0000
0000
0100
0000
0001
0000
0000
0001
0000
0000
0100
0000
,
1000
0000
0000
0010
0000
0000
0100
0000
0002
0000
0000
0000
0103
0000
0000
0000
,
0001
0000
0000
0001
0000
0000
0010
0000
1000
0000
0000
1000
0000
0000
0010
0000
,
0001
0000
0000
0100
0000
0000
0010
0000
1000
0000
0000
0000
1001
0000
0000
0000
,
0001
0000
1000
0000
0001
0010
0001
0000
,
1000
0000
0001
0000
1000
0010
1000
0000
,
0010
0000
0100
0000
0001
0010
0001
0000
,
0100
0000
0010
0000
1000
0100
1000
0001
,
0200
0000
0310
1000
0002
0000
1003
0001
,
1000
1001
0001
1001
,
0010
0000
0100
0000
0010
0100
0020
0000
,
0130
0000
0000
1001
0000
0000
0000
0000
,
1000
0000
0100
0000
1000
0000
0000
0001
0000
0000
0001
0000
0100
0000
0001
0000
,
0100
0000
0001
0000
0100
0000
0000
0010
0000
0000
0010
0000
0100
0000
0010
0000
,
0100
0000
0000
0010
0000
0000
1000
0000
0002
0000
0000
0000
1003
0000
0000
0000
,
2000
3100
0002
0103
,
0001
0000
0010
0000
0001
0000
0000
1000
0000
0000
1000
0000
0010
0000
1000
0000
,
0010
0000
1000
0000
0010
0000
0000
0100
0000
0000
0100
0000
0010
0000
0100
0000
,
0010
0000
0000
0100
0000
0000
0001
0000
2000
0000
0000
0000
3001
0000
0000
0000
,
0002
0013
2000
3010
,
2002
0000
0000
0000
,
0000
0000
0000
0000
,
3003
0000
0000
0000
;

//--------------- dance-single - t7r ----------------
#NOTES:
     dance-single:
     t7r:
     Hard:
     10:
     0.442,0.437,0.166,0.308,0.208:
0000
0000
0000
0000
,
0000
0000
0000
0000
,
0000
0000
0000
0000
,
0000
0000
0000
0000
,
0000
0000
0000
0000
,
1001
0000
0000
0110
0220
0000
0330
0000
,
1001
0000
0000
0000
0000
0000
1000
0000
0001
0000
0000
0001
0000
0000
1000
0000
,
1001
0000
0000
0110
0220
0000
0330
0000
,
1001
0000
0000
0001
1000
0000
1001
0000
,
0001
0000
0100
0000
0001
0000
0000
1000
0000
0000
1000
0000
0100
0000
1000
0000
,
0001
0000
0100
0000
0001
0000
0000
1000
0000
0000
1000
0000
0100
0000
1000
0000
,
0010
0000
0000
0010
0000
0000
0020
0000
0000
0000
0030
0000
0000
0000
0100
0000
,
0002
1003
0200
1300
,
1000
0000
0100
0000
1000
0000
0000
0001
0000
0000
0001
0000
0100
0000
0001
0000
,
1000
0000
0100
0000
1000
0000
0000
0001
0000
0000
0001
0000
0100
0000
0001
0000
,
0100
0000
0000
0010
0000
0000
2000
0000
0000
0000
3000
0000
0000
0000
1000
0000
,
0002
1003
2002
3003
,
2000
0000
3010
0000
1000
0001
1000
0001
,
0200
0000
0301
0000
0010
0001
0010
0000
,
0002
0000
1003
0000
0010
1000
0010
1000
,
0200
0000
0310
0000
0100
1000
0100
0000
,
1000
0000
0000
1000
0100
0000
1000
0000
0100
0000
0000
0000
0100
0000
1000
0000
,
0010
0000
0000
0010
0100
0000
0010
0000
0100
0000
0000
0000
0100
0000
0001
0000
,
1000
0000
0000
1000
0001
0000
1000
0000
0001
0000
0000
0000
0001
0000
1000
0000
,
0001
0000
0000
0001
1000
0000
0001
0000
0020
0000
0000
0000
0030
0000
0000
0000
,
0200
0000
0301
0000
1000
0010
1000
0001
,
2000
0000
3001
0000
1000
0100
1000
0000
,
0002
0000
1003
0000
0001
0010
0001
1000
,
0020
0000
0130
0000
0001
0100
1000
0000
,
0100
0000
0000
0010
0100
0000
0001
0000
0100
0000
0000
0000
0010
0000
1000
0000
,
0010
0000
0000
1000
0010
0000
1000
0000
0100
0000
0000
0000
0100
0000
1000
0000
,
0001
0000
0000
1000
0001
0000
1000
0000
0001
0000
0000
0000
0100
0000
0010
0000
,
1000
0000
0000
0010
1000
0000
0010
0000
0200
0000
0000
0000
0301
0000
0000
0000
,
1000
0000
0000
1001
0000
0000
0201
0000
0000
0000
0000
0000
0301
0000
0000
0000
,
0010
0000
0000
0010
0001
0000
0010
0000
0100
0000
0000
0100
1000
0000
0100
0000
,
0010
0000
0000
0110
0000
0000
1002
0000
0000
0000
0000
0000
1003
0000
0000
0000
,
0010
0000
0010
0100
0002
0000
1003
0000
,
1000
0000
0000
0100
0000
0000
0100
0000
0010
0000
0000
0010
0000
0000
0010
0000
,
0001
0000
0000
0001
0000
0000
0100
0000
0010
0000
0000
0100
0000
0000
0001
0000
,
1000
0000
0000
0100
0000
0000
0001
0000
0100
0000
0000
1000
0000
0000
0010
0000
,
0001
0000
0000
0010
0000
0000
1000
0000
0010
0000
0000
0100
0000
0000
0001
0000
,
1000
0000
0000
1000
0100
0000
0000
0000
0001
0000
0000
0001
0100
0000
0000
0000
,
1000
0000
0000
1000
0001
0000
1000
0000
0001
0000
0000
0000
1001
0000
0000
0000
,
0001
0000
0000
0001
0100
0000
0000
0000
1000
0000
0000
1000
0100
0000
0000
0000
,
0001
0000
0000
0010
0000
0000
0100
0000
2000
0000
0000
0000
3001
0000
0000
0000
,
0001
0000
0000
0001
0000
0000
0100
0000
0010
0000
0000
0010
0000
0000
0100
0000
,
0001
0000
0000
1000
0000
0000
0100
0000
1000
0000
0000
1000
0000
0000
0010
0000
,
1000
0000
0000
0100
0000
0000
0001
0000
0100
0000
0000
1000
0000
0000
0010
0000
,
0001
0000
0000
0010
0000
0000
1000
0000
0010
0000
0000
0100
0000
0000
0001
0000
,
2000
0000
3100
1000
0200
0000
1300
0001
,
1000
0000
0000
1000
0001
0000
1000
0000
0001
0000
0000
0000
1001
0000
0000
0000
,
0001
0000
0100
0000
0001
0100
0001
0000
,
1000
0001
0000
0000
0000
0000
0100
0010
0000
0000
0100
0000
0100
0000
0000
0000
,
0010
0000
1000
0000
0010
0000
0000
2000
0000
0000
3001
0000
1000
0000
0001
0000
,
0010
0000
0001
0000
0010
0000
0000
0002
0000
0000
1003
0000
0001
0000
1000
0000
,
0100
0000
0000
0010
0000
0000
0002
0000
0000
0000
0003
0000
0000
0000
0100
0000
,
0002
1003
2000
3100
,
1000
0000
0100
0000
1000
0000
0000
0020
0000
0000
0130
0000
0001
0000
0100
0000
,
0001
0000
0010
0000
0001
0000
0000
2000
0000
0000
3100
0000
1000
0000
0100
0000
,
0010
0000
0000
0100
0000
0000
2000
0000
0000
0000
3000
0000
0000
0000
0001
0000
,
0010
0110
1001
0110
,
2002
0000
0000
0000
,
0000
0000
0000
0000
,
3003
0000
0000
0000
;

//--------------- dance-single - t7r ----------------
#NOTES:
     dance-single:
     t7r:
     Challenge:
     11:
     0.509,0.488,0.275,0.3,0.237:
0000
0000
0000
0000
,
0000
0000
0000
0000
,
0000
0000
0000
0000
,
0000
0000
0000
0000
,
0000
0000
0000
0000
,
1001
0000
0000
0010
0220
0000
0330
0000
,
1001
0000
0000
0000
0000
0000
1000
0000
0100
0000
0000
1100
0000
0000
0101
0000
,
1001
0000
0000
0010
0220
0000
0330
0000
,
1001
0000
0000
0000
0000
0000
0001
0000
1001
0000
0000
1001
0000
0000
0110
0000
,
0010
0000
0100
0000
0001
0000
1000
0010
0000
1000
0010
0000
1000
0000
0100
0000
,
1000
0000
0010
0000
0100
0000
0001
0010
0000
0001
0010
0000
0001
0000
0100
0000
,
0010
0000
0000
1010
0000
0000
2002
0000
0000
0000
0000
0000
3003
0000
0001
0010
,
0200
0000
0320
0031
,
1000
0000
0010
0000
0100
0000
0010
1000
0000
0010
1000
0000
0001
0000
0100
0000
,
0001
0000
0010
0000
0100
0000
0010
0001
0000
0010
0001
0000
1000
0000
0100
0000
,
0010
0000
0000
0110
0000
0000
0022
0000
0000
0000
0000
0000
0033
0000
1000
0010
,
0200
0320
2030
3000
,
1001
0000
0010
0000
0100
0001
1000
0001
,
0020
0000
0130
0000
1000
0010
0100
0001
,
0020
0000
0031
0000
1000
0001
0100
0010
,
2000
0000
3001
0000
0100
0001
0100
0000
,
0001
0000
0000
0010
0001
0000
0010
0000
0100
0000
0000
0000
1000
0000
0010
0000
,
0100
0000
0000
0010
1000
0000
0010
0000
0100
0000
0000
0000
0001
0000
1000
0000
,
0100
0000
0000
1000
0001
0000
0100
0000
0001
0000
0000
0000
1000
0000
0001
0000
,
0100
0000
0000
0001
1000
0000
0010
0000
0100
0000
0000
0000
0110
0000
0000
0000
,
1010
0000
0001
0000
0100
0001
0010
0100
,
0020
0000
0031
0000
1000
0100
0010
0100
,
2000
0000
3001
0000
0100
0001
0100
0010
,
0200
0000
0301
0000
1000
0001
0100
0000
,
0010
0000
0000
1000
0010
0000
0100
0000
0010
0000
0000
0000
1000
0000
0100
0000
,
0010
0000
0000
0001
0010
0000
0100
0000
1000
0000
0000
0000
0001
0000
0100
0000
,
0001
0000
0000
0100
0001
0000
0100
0000
0010
0000
0000
0000
1000
0000
0100
0000
,
1000
0000
0000
0100
1000
0000
0100
0000
0010
0000
0000
0000
0110
0000
0000
0000
,
1001
0000
0000
1100
0000
0000
2001
0000
0000
0000
0000
0000
3001
0000
0100
0000
,
0001
0000
0000
0100
0001
0000
0100
0000
0001
0000
0000
1000
0100
0000
1000
0000
,
1001
0000
0000
0101
0000
0000
1002
0000
0000
0000
0000
0000
1003
0000
0100
0000
,
0010
0000
0000
0010
0100
0000
0010
0000
0002
0000
0000
0000
1003
0000
0000
0000
,
0001
0000
0010
0000
0100
0000
0010
0000
0001
0000
0000
0001
0000
0000
0100
0000
,
0010
0000
1000
0000
0010
0000
0100
0000
0010
0000
0000
0010
0000
0000
1000
0000
,
0100
0000
1000
0000
0100
0000
0010
0000
0001
0000
0000
0001
0000
0000
1000
0000
,
0001
0000
0100
0000
0010
0000
1000
0000
0010
0000
0000
0010
0000
0000
0100
0000
,
0010
0000
0000
0010
1000
0000
0010
0000
0100
0000
0000
0100
0001
0000
0100
0000
,
0001
0000
0000
1000
0001
0000
1000
0000
0002
0000
0000
0000
1003
0000
0000
0000
,
0001
0000
0000
0001
0010
0000
0100
0000
0010
0000
0000
0010
0001
0000
1000
0000
,
0100
0000
0000
0100
1000
0000
0010
0000
0100
0000
0000
0000
0110
0000
0000
0000
,
0001
0000
1000
0000
0100
0000
1000
0000
0010
0000
0000
0100
0000
0000
0001
0000
,
0010
0000
0001
0000
1000
0000
0100
0000
0001
0000
0000
0100
0000
0000
1000
0000
,
0010
0000
0100
0000
0001
0000
0010
0000
1000
0000
0000
0010
0000
0000
0001
0000
,
1000
0000
0100
0000
0010
0000
0100
0000
1000
0000
0000
0010
0000
0000
0001
0000
,
0020
0000
0130
0001
0200
0000
0301
1000
,
0001
0000
0000
0001
1000
0000
0100
0000
1000
0000
0000
1000
0010
0000
0100
0000
,
0010
1000
0001
0100
0010
1000
0001
0100
,
0001
1000
0000
0000
0100
0000
0001
1000
0000
0000
1001
0000
1001
0000
0000
0000
,
0010
0000
0001
0000
1000
0000
0001
0100
0000
0001
0100
0000
0001
0000
0010
0000
,
0001
0000
0100
0000
0010
0000
1000
0100
0000
1000
0100
0000
1000
0000
0010
0000
,
0100
0000
0000
0101
0000
0000
2002
0000
0000
0000
0000
0000
3003
0000
1000
0100
,
0020
0000
0230
1300
,
0001
0000
0100
0000
0010
0000
0100
0001
0000
0100
0001
0000
1000
0000
0010
0000
,
1000
0000
0100
0000
0010
0000
0100
1000
0000
0100
1000
0000
0001
0000
0010
0000
,
0100
0000
0000
0110
0000
0000
2200
0000
0000
0000
0000
0000
3300
0000
0001
0100
,
0020
0230
0302
1003
,
2002
0000
0000
0000
,
0000
0000
0000
0000
,
3003
0000
0000
0000
;
