#TITLE:此岸の戯事;
#SUBTITLE:;
#ARTIST:Akhuta;
#TITLETRANSLIT:Shigan no zaregoto;
#SUBTITLETRANSLIT:;
#ARTISTTRANSLIT:;
#GENRE:;
#CREDIT:;
#MUSIC:Shigan no zaregoto.ogg;
#BANNER:Shigan no zaregoto.png;
#BACKGROUND:Shigan no zaregoto-bg.png;
#CDTITLE:./CDTITLES/JUBEAT.PNG;
#SAMPLESTART:57.538;
#SAMPLELENGTH:15.000;
#SELECTABLE:YES;
#OFFSET:0.000;
#BPMS:0.000=195.000;
#STOPS:;
#MENUCOLOR:;
#METERTYPE:DDR;
#LISTSORT:;
#BGCHANGES:;
#FGCHANGES:;

//--------------- dance-single - t7r ----------------
#NOTES:
     dance-single:
     t7r:
     Beginner:
     4:
     0.174,0.236,0.034,0.009,0:
0000
0000
0000
0000
,
0000
0000
0000
0000
,
0000
0000
0000
0000
,
0000
0000
0000
0000
,
0000
0000
0000
0000
,
0000
0000
0000
0000
,
0000
0000
0000
0000
,
0100
0000
0000
0000
,
0010
0000
0000
0000
,
0100
0000
0000
0000
,
0010
0000
0010
0000
,
1000
0000
0000
0000
,
0001
0000
0000
0000
,
1000
0000
0000
0000
,
0001
0000
0010
0000
,
0100
0000
0000
0000
,
0010
0000
0000
0000
,
0001
0000
0000
0000
,
0000
0000
1001
0000
,
0000
1000
0000
1000
,
1000
0000
0000
0000
,
0000
0001
0000
0001
,
0001
0000
0000
0000
,
0000
0100
0000
0100
,
0000
0100
0100
0000
,
0000
0010
0000
0000
,
0010
0010
0010
0000
,
0000
1000
0000
1000
,
0000
1000
1000
1000
,
1000
0000
0000
0000
,
0001
0000
0000
0000
,
0000
0010
0000
0010
,
0010
0010
0010
0000
,
0000
0100
0000
0000
,
0100
0100
0100
0000
,
0001
0000
0000
0000
,
1000
0000
0000
0000
,
1001
0000
0000
0000
,
0010
0000
0000
0000
,
0110
0000
0000
0000
,
1000
0000
0000
0000
,
0001
0000
1000
0000
,
0001
0000
1000
0000
,
0001
0000
1000
0000
,
0001
0001
0001
0000
,
1000
0000
0001
0000
,
1000
1000
1000
0000
,
0010
0000
0000
0000
,
0100
0000
0000
0000
,
0001
0000
0001
0000
,
1000
0000
1000
0000
,
0010
0000
0000
0000
,
1000
0000
0000
0000
,
0000
0100
0000
0100
,
0000
0100
0100
0000
,
0000
0010
0000
0000
,
0000
0000
0010
0000
,
0000
0000
0001
0000
,
1000
0000
0001
0000
,
1000
0000
0000
0000
,
0010
0000
0000
0000
,
0000
0100
0000
0000
,
0010
0010
0010
0000
,
0000
0000
0000
0000
,
0000
1000
0000
1000
,
0000
0001
0000
0001
,
0000
0010
0000
0010
,
0010
0000
0000
0000
,
0000
0100
0000
0100
,
0000
1000
0000
1000
,
1000
0000
0000
0000
,
0001
0000
0000
0000
,
2000
0000
3000
0000
,
0000
0000
0000
0000
,
0001
0000
0000
0000
,
0000
0000
0000
0000
,
1000
1000
1000
0000
,
0010
0000
0000
0000
,
0100
0000
0000
0000
,
0001
0000
1000
0000
,
0001
0001
0001
0000
,
0010
0000
0000
0000
,
0001
0000
0100
0000
,
1000
0000
0000
0000
,
1000
0000
0010
0000
,
0001
0000
0000
0000
,
1000
0000
0100
0000
,
0001
0000
0000
0000
,
1000
0000
0001
0000
,
1000
0000
0000
0000
,
0001
0000
0000
0000
,
0000
1001
0000
1000
,
1000
1000
1000
0000
;

//--------------- dance-single - t7r ----------------
#NOTES:
     dance-single:
     t7r:
     Easy:
     7:
     0.443,0.589,0.257,0.18,0:
0000
0000
0000
0000
,
0000
0000
0000
0000
,
0000
0000
0000
0000
,
0000
0000
0000
0000
,
0000
0000
0000
0000
,
0000
0000
0000
0000
,
0000
0000
0000
0000
,
0010
0000
0100
0000
,
0001
1000
0010
0100
,
0001
0000
0010
0000
,
0001
0010
0100
1000
,
0020
0000
1000
0030
,
0100
0100
0100
0001
,
0020
0000
0001
0030
,
0100
0100
0100
1000
,
0020
0000
1000
0030
,
1000
0001
0100
0001
,
1000
0000
0000
0000
,
0110
1001
0220
0330
,
0010
0010
1000
1000
,
0001
0001
0100
0001
,
0010
0010
0001
0001
,
1000
0100
0020
0030
,
0100
0100
1000
1000
,
0001
0001
0100
0010
,
0100
0100
0001
1000
,
0010
0100
2002
3003
,
0001
0100
0001
0010
,
0100
1000
0100
0010
,
0100
1000
0010
0100
,
0001
1000
0002
0003
,
1000
0010
1000
0001
,
1000
0100
0010
0001
,
1000
0100
0001
0100
,
1000
0110
2002
3003
,
0010
0000
0010
0000
,
0100
0001
0100
0000
,
0010
0000
0010
0000
,
0100
1000
0100
0000
,
0010
0000
0010
0000
,
0001
0010
0100
1000
,
0001
1000
0001
1000
,
0010
0100
0010
0100
,
0001
1001
1000
1001
,
0010
0100
0001
1000
,
0001
0001
0001
0000
1000
1000
1000
0000
,
0010
0100
0010
0100
0002
0000
0003
0000
,
1000
0100
0010
0001
,
0100
0001
1000
0010
,
0100
0010
1000
0100
,
0001
0100
1000
0010
,
1000
0001
0010
0100
,
0010
0001
0100
0010
,
0100
1001
0010
1001
,
0110
1001
0102
1003
,
1000
0100
0010
0001
,
0100
0001
1000
0010
,
0001
0010
1000
0100
,
0001
0100
1000
0001
,
0101
0000
1000
0100
,
1000
0010
0100
0001
,
0100
1010
0100
0011
,
0110
1001
0220
0000
,
0000
0000
0000
0330
,
1000
0001
1000
0001
,
0100
0010
0100
0010
,
1000
0100
0010
0001
,
0100
0100
0002
0003
,
0001
0010
0001
0010
,
0100
1000
0100
1000
,
0010
0100
0001
1000
,
0010
0110
1001
0110
,
2002
0000
0000
3003
,
1000
0000
1000
0000
,
0001
0010
0100
0010
,
0001
0000
0001
0000
,
1000
0010
0100
0010
,
1000
0100
0010
0001
,
1000
0100
0010
0001
,
0100
0000
0100
0000
,
0010
1000
0001
0100
,
0001
0001
1000
1000
,
0001
0010
0100
1000
,
0100
0100
0010
0010
,
1000
0100
0020
0030
,
1000
0010
0100
0001
,
1001
0010
0100
0001
,
1001
0010
0100
1000
,
0100
0010
0001
1000
,
0002
0000
0000
0000
,
2003
0000
3000
1001
,
0100
1010
0100
0011
,
1001
0110
1100
0000
;

//--------------- dance-single - t7r ----------------
#NOTES:
     dance-single:
     t7r:
     Medium:
     11:
     0.618,0.589,0.309,0.215,0:
0000
0000
0000
0000
,
0000
0000
0000
0000
,
0000
0000
0000
0000
,
0000
0000
0000
0000
,
0000
0000
0000
0000
,
0000
0000
0000
0000
,
0000
0000
0000
0000
,
0100
0000
0100
0001
0000
0001
1000
0000
,
0001
0010
0100
1000
,
0100
0000
0010
0001
0000
0001
1000
0000
,
0001
0100
0010
0100
0002
0000
0003
0000
,
1000
0000
0010
2000
0000
0000
3001
0000
,
0010
0001
0010
0000
0200
0000
1300
0000
,
0010
0000
0100
0002
0000
0000
1003
0000
,
0010
1000
0010
0000
0200
0000
0301
0000
,
1000
0000
0100
2000
0000
0000
3010
0000
,
0100
0001
0100
0001
0020
0000
0030
0000
,
0001
0000
0000
0000
,
0000
0110
2002
3003
,
0010
1000
0010
1010
,
0001
0000
0100
0001
0010
0000
0100
0000
,
0010
0001
0010
0011
,
0001
0000
1000
0100
0020
0000
0130
0000
,
1000
0100
1000
1010
,
0100
0000
0100
0001
1000
0000
0001
0000
,
0010
0000
0001
0100
0010
0000
0100
0000
,
0001
1001
0220
0330
,
1000
0000
1000
0010
0100
0000
0100
0010
,
1000
0000
1000
0010
0100
0001
1000
0000
,
0001
0000
0001
0010
0100
0000
0100
0010
,
0001
0010
0100
1000
0200
0000
1300
0000
,
1000
0000
1000
0010
1000
0000
1000
0010
,
0100
0000
0100
0010
1000
0001
1000
0000
,
0001
0000
0001
0010
0100
0010
0001
0100
,
0010
0110
2002
3003
,
0010
0000
1000
0001
0000
1000
0100
0000
,
0010
0000
0001
1000
0000
0001
0100
0000
,
0010
0000
0100
0001
0000
0010
0001
0000
,
1000
0000
0100
0010
0200
0000
1300
0000
,
0010
0000
0100
0010
0000
1000
0100
0000
,
0010
0000
0001
0100
0000
0001
0010
0100
,
1000
0100
0010
0001
,
1000
0010
0100
0001
,
1000
0001
1000
0000
0001
1000
0001
0000
,
1000
0001
1000
0001
1000
0001
1001
0000
,
0100
0100
0100
0000
0010
0010
0010
0000
,
0100
0100
0010
0100
0210
0000
0301
0000
,
0010
0000
0001
0010
0000
0100
1000
0000
,
0010
0000
0100
0001
0000
1000
0010
0000
,
0100
0000
0100
0010
1000
0000
1000
0010
,
0100
0001
0010
0001
0010
0000
0100
0000
,
1100
0000
1000
0001
0000
0001
0100
0000
,
0001
0000
1000
0001
0010
0000
0100
0000
,
0010
0001
0100
0000
0010
1000
0100
0000
,
0010
0001
0100
0010
0100
0000
1001
0000
,
0011
0000
0001
0100
0000
0100
0010
0000
,
1000
0000
0100
1000
0001
0000
1000
0000
,
0010
0000
0010
1000
0100
0000
0100
1000
,
0010
0100
0010
0100
0001
0000
0010
0000
,
0011
0000
0001
0100
0000
1000
0100
0000
,
1100
0000
1000
0100
0000
0001
0100
0000
,
0001
1001
0010
0110
,
0001
0110
2002
0000
,
0000
0000
0000
3003
,
0100
0101
0100
0101
,
1001
0000
0001
0010
0100
0010
0001
0000
,
0100
1100
0100
1100
,
0010
1000
0100
0001
0200
0000
1300
0000
,
0010
1010
0010
1010
,
0101
0000
1000
0010
0100
0010
1000
0000
,
0001
0000
0001
0100
0010
0000
0010
1000
,
0100
0000
0100
0010
0001
0000
0100
0000
,
0210
0000
0000
0301
,
1001
0000
1000
0010
0000
0010
1000
0001
,
0100
0000
0100
0001
1000
0000
0001
0000
,
0010
0000
0010
0000
0010
0001
0010
0100
,
1000
0000
0100
1000
0010
0000
0100
0000
,
1010
0000
0000
0010
0000
0000
1000
0000
0010
0000
0100
0000
0010
0000
0000
0000
,
1000
0000
0000
0001
0000
0000
1000
0000
0100
0000
0010
0000
0100
0000
0000
0000
,
1000
0000
0000
0100
0000
0000
1000
0000
0010
0000
1000
0000
0001
0000
0000
0000
,
1000
0100
0010
0001
1000
0000
1001
0000
,
0110
0000
0010
0010
1000
0000
0001
0000
,
0100
0000
0100
0100
0001
0000
1000
0000
,
0100
0000
0100
0100
0010
0000
0001
0000
,
0010
0100
1000
0100
0010
0000
0002
0000
,
1003
0000
1000
1000
0010
0010
1000
0000
,
0001
0000
0001
0001
0010
0010
0001
0000
,
1000
0000
1000
1000
0100
0100
0001
0001
,
0100
0100
1000
1000
0010
0010
0200
0000
,
0302
0000
0000
0000
,
2003
0000
3000
1001
,
0100
1010
0100
0011
,
1001
0110
1100
0000
;

//--------------- dance-single - t7r ----------------
#NOTES:
     dance-single:
     t7r:
     Hard:
     15:
     0,0,0,0,0:
0000
0000
0000
0000
,
0000
0000
0000
0000
,
0000
0000
0000
0000
,
0000
0000
0000
0000
,
0000
0000
0000
0000
,
0000
0000
0000
0000
,
0000
0000
0000
0000
,
1100
0000
0000
0100
1000
0000
0002
0000
0000
0000
0103
0000
0001
0000
1000
0000
,
0100
0001
0100
1000
0100
0000
0010
0000
,
0011
0000
0000
0001
1000
0000
0200
0000
0000
0000
1300
0000
0010
0000
0100
0000
,
0010
0010
1000
1000
0001
0001
0100
0000
,
0001
0000
0000
0100
0010
0000
0200
0000
0000
0000
0301
0000
0100
0000
1000
0000
,
0100
0010
1000
0000
1010
0000
1001
0000
,
1100
0000
0000
0100
0010
0000
0200
0000
0000
0000
1300
0000
0100
0000
0001
0000
,
0100
0000
1000
0010
0100
0000
0001
0010
0100
0000
1000
0010
0100
0000
0000
0000
,
1010
0000
0000
0010
0100
0000
0002
0000
0000
0000
0013
0000
1000
0000
0010
0000
,
0100
1000
0001
0100
0020
0000
0030
0000
,
1001
0000
0000
0000
,
0000
0110
1001
0000
,
1000
1100
1000
1100
,
1000
0100
0001
0100
0010
0001
1000
0000
,
0001
0101
0001
0101
,
0001
0010
0100
1000
0001
0010
1000
0010
,
0001
0011
0001
0011
,
0001
0100
1000
0100
0010
1000
0001
0000
,
1000
0000
1010
0000
1000
0000
0010
0100
,
0001
1001
0210
0301
,
1000
0100
1000
0100
0001
0100
0001
0100
,
0010
0100
0010
0001
1000
0010
0001
0010
,
1000
0010
1000
0010
0001
0010
0001
0010
,
0100
0010
0001
0010
1000
0100
0010
0001
,
1000
0100
1000
0100
0001
0100
0001
0100
,
0010
0100
0010
0001
1000
0010
0100
0001
,
1000
0010
1000
0010
0001
0010
0001
0010
,
1000
0000
0000
0000
1010
0000
0000
0000
0110
0000
0010
0100
0010
0000
1000
0000
,
0001
0000
0000
0100
0001
0000
1000
0000
0100
0000
0010
0000
0001
0000
0000
0000
,
1000
0000
0000
0100
1000
0000
0001
0000
0100
0000
0010
0000
1000
0000
0000
0000
,
0010
0000
0000
0100
0001
0000
0100
0000
0010
0000
1000
0000
0100
0000
0000
0000
,
0010
0000
0000
0100
1000
0000
0100
0000
0010
0000
0001
0000
0100
0000
0010
0000
,
1000
0000
0000
0010
0100
0000
0010
0000
1000
0000
0001
0000
0010
0000
0000
0000
,
0001
0000
0000
0010
0100
0000
0010
0000
0001
0000
1000
0000
0010
0000
0000
0000
,
0100
0000
0000
0100
0010
0000
0100
0000
0001
0000
0100
0000
1000
0000
0100
0000
,
0010
0000
0000
0010
0100
0000
0010
0000
1000
0000
0010
0000
0001
0000
0010
0000
,
1000
0000
0100
0000
0001
0000
0100
0010
0100
0000
0010
0000
0001
0000
1000
0010
,
1000
0000
0001
0000
0100
0000
0001
0010
0001
0000
1000
0000
1001
0000
0000
0000
,
0001
0100
0101
0000
1000
0100
1100
0000
,
1000
0000
0000
0000
0001
0000
0000
0000
1000
0000
0000
0000
0001
0000
0000
0000
1001
0000
0000
0000
0000
0000
0000
0100
0010
0000
0000
0000
0000
0000
0000
0000
,
1010
0000
0000
1000
0100
0000
0100
0000
0001
0000
0100
0000
1000
0000
0000
0000
,
0101
0000
0000
0001
0100
0000
0100
0000
1000
0000
0100
0000
0001
0000
0000
0000
,
1100
0000
0100
1000
0010
0000
0100
1000
,
0010
0100
1000
0010
0100
0010
0110
0000
,
0101
0000
0001
0100
0100
1000
0001
0000
,
1100
0000
1000
0100
0100
0001
1000
0000
,
0010
0100
0110
0000
0100
0001
0011
0000
,
1000
0001
0101
0000
1100
0000
1001
0000
,
0011
0000
0000
0001
0010
0000
0010
0000
1000
0000
0010
0000
0001
0000
0000
0000
,
1100
0000
0000
1000
0010
0000
0010
0000
0001
0000
0010
0000
1000
0000
0000
0000
,
0101
0000
0100
0001
0010
0000
0100
0001
,
0010
0100
0001
0010
0100
0010
0110
0000
,
1100
0000
1000
0010
0010
0001
1000
0000
,
0101
0000
0001
0010
0010
1000
0001
0000
,
0100
1010
0100
0011
,
1001
0000
0110
0000
1001
0000
0001
1000
,
0001
0100
0001
0000
1000
0000
0001
1000
0010
0000
0100
0000
0010
0000
0100
0000
,
0110
0101
0110
0101
,
1000
0100
0001
1000
0100
0000
1100
0000
,
0110
1100
0110
1100
,
0001
0100
1000
0001
0200
0000
0310
0000
,
1010
0110
1010
0110
,
0001
0010
1000
0001
0010
0000
1010
0000
,
0101
0000
0001
0100
1000
0000
0110
0000
,
1001
0000
1000
0100
0001
0000
0110
0000
,
2001
0000
0000
0000
0000
0000
0000
0000
3001
1000
0001
1000
0001
1000
0001
1000
,
0020
0000
0130
0002
0000
0103
1000
0100
,
0001
0010
0100
0000
1000
0000
0100
0000
0001
0000
0100
0000
1000
0000
0001
0000
,
1000
0000
0000
1000
0010
0000
0000
0010
0100
0000
0100
0000
0001
0000
0001
0000
,
1000
0100
0001
0100
0010
0001
1000
0010
,
0100
0000
0000
0101
0000
0000
0001
0000
0100
0000
0010
0000
1000
0000
0100
0000
,
0010
0000
0000
0011
0000
0000
0001
0000
0100
0000
0010
0000
1000
0000
0001
0000
,
0010
0000
0000
0110
0000
0000
0010
0000
0100
0000
0010
0000
0001
0000
1000
0000
,
0001
0100
1000
0100
0020
0000
1030
0000
,
0001
0000
0010
0000
0001
0000
0100
0001
0100
0000
0001
0000
1000
0000
0000
0000
,
0001
0000
0100
0000
0010
0000
0100
0001
0100
0000
0010
0000
1000
0000
0000
0000
,
0010
0000
1000
0000
0100
0000
0010
0001
1000
0000
0010
0000
0100
0000
0000
0000
,
0010
0010
0010
0100
0100
0001
1000
0000
,
0001
0010
0001
0010
0001
0000
1000
0000
0100
0000
0010
0000
0001
0000
0000
0000
,
1000
0010
1000
0010
1000
0000
0001
0000
0100
0000
0010
0000
1000
0000
0000
0000
,
0001
1000
0001
1000
0001
0000
0100
0000
0010
0000
1000
0000
0001
0000
0000
0000
,
0010
0000
0100
0010
0000
0010
0001
0000
0100
0000
0000
0000
0120
0000
0000
0000
,
2030
0000
0000
0000
,
0002
0000
3003
0110
,
0100
1010
0100
0011
,
1001
0110
1100
0000
;

//--------------- dance-single - t7r ----------------
#NOTES:
     dance-single:
     t7r:
     Challenge:
     15:
     0,0,0,0,0:
0000
0000
0000
0000
,
0000
0000
0000
0000
,
0000
0000
0000
0000
,
0000
0000
0000
0000
,
0000
0000
0000
0000
,
0000
0000
0000
0000
,
0000
0000
0000
0000
,
1000
0000
0000
1000
0100
0000
0020
0000
0000
0000
0031
0000
0100
0000
0010
0000
,
1000
0100
1000
0100
0010
0000
0001
0000
,
0101
0000
0000
0001
0010
0000
0100
0000
0000
0000
0100
0000
1000
0000
0010
0000
,
1000
0000
0001
0100
0001
0000
1000
0100
1000
0000
0001
0010
0001
0000
1000
0001
,
1000
0000
0000
1000
0010
0000
0200
0000
0000
0000
0310
0000
1000
0000
0001
0000
,
1000
0010
0001
0000
0210
0000
0301
0000
,
0010
0000
0000
0010
0001
0000
0200
0000
0000
0000
0301
0000
0010
0000
1000
0000
,
0010
0000
0000
0010
0001
0000
0000
0001
0100
0000
0000
0100
0010
0000
0000
0010
,
1000
0000
0000
1000
0010
0000
0200
0000
0000
0000
0301
0000
0100
0000
1000
0000
,
0100
0001
0010
1000
0020
0000
0031
0000
,
2002
0000
0000
0000
,
3003
0110
1001
0000
,
0101
MMMM
0101
MMMM
,
1000
0100
0010
0001
0100
0000
MMMM
0000
,
1010
MMMM
1010
MMMM
,
0001
0010
0100
1000
0001
0100
1000
0100
,
0110
MMMM
0110
MMMM
,
1000
0010
0100
0001
1001
0000
MMMM
0000
,
1010
MMMM
0110
MMMM
,
1001
0110
2001
3001
,
1000
0100
MMMM
0000
0001
0100
MMMM
0000
,
0001
0010
0100
1000
0001
0010
MMMM
0000
,
1000
0010
MMMM
0000
0001
0010
MMMM
0000
,
1000
0010
0100
0001
1000
0001
0100
0001
,
1000
0100
MMMM
0000
0001
0010
MMMM
0000
,
0001
0100
0010
1000
0001
0010
MMMM
0000
,
1000
0010
MMMM
0000
0001
0100
MMMM
0000
,
1001
0110
2001
3001
,
1000
0000
0000
1000
0100
0000
0020
0000
0000
0000
0031
0000
0100
0000
0000
0000
,
0001
0000
0000
0001
0010
0000
0100
0000
1000
0000
0010
0000
0100
0000
0010
0000
,
1000
0000
0000
1000
0010
0000
0200
0000
0000
0000
0301
0000
0010
0000
0000
0000
,
0001
0000
0000
0001
0100
0000
0001
0000
1000
0010
1000
0010
0100
0001
0100
0001
,
1000
0000
0000
1000
0100
0000
2000
0000
0000
0000
3001
0000
0100
0000
0000
0000
,
0001
0000
0000
0001
0010
0000
0002
0000
0000
0000
1003
0000
0010
0000
0100
0000
,
0110
MMMM
0101
MMMM
,
1100
MMMM
0011
MMMM
,
0001
0000
0100
0000
1000
0000
0000
1000
0100
0000
0010
0000
1000
0000
0000
0000
,
0001
0010
1000
0010
0001
0100
0110
0000
,
0001
MMMM
0001
MMMM
0001
MMMM
0000
0000
1000
MMMM
1000
MMMM
1000
MMMM
0000
0000
,
0010
MMMM
0010
MMMM
0010
MMMM
0010
MMMM
0010
MMMM
0000
0000
1001
0000
0000
0000
,
1100
0000
1000
0100
MMMM
0100
0001
0000
,
0101
0000
0001
0100
MMMM
0100
1000
0000
,
1100
0000
1000
0100
0010
0000
1000
0100
,
0001
0100
0010
0001
0010
0100
0110
0000
,
1001
0000
0001
0010
MMMM
0010
1000
0000
,
1100
0000
1000
0010
MMMM
0010
0001
0000
,
0100
0010
0110
0000
1000
0001
1001
0000
,
0001
0100
0110
0000
0101
0000
MMMM
0000
,
1010
0000
1000
0100
MMMM
0100
0010
0000
,
0011
0000
0001
0100
MMMM
0100
0010
0000
,
1010
0000
0001
0010
0100
0000
0001
0010
,
0100
1000
0100
0001
0100
0010
0110
0000
,
1001
0000
0001
0010
MMMM
0010
0100
0000
,
0011
0000
1000
0010
MMMM
0010
0100
0000
,
0110
MMMM
1100
MMMM
,
0110
0000
0000
0000
1001
0000
0000
0000
0110
0000
0010
0100
0010
0000
1000
0000
,
0000
1000
0100
0000
0110
0000
0000
0001
1000
0000
0001
0000
1000
0000
0001
0000
,
1001
MMMM
1001
MMMM
,
0001
0100
1000
0100
0001
0010
0011
0000
,
1010
MMMM
1010
MMMM
,
1000
0100
0010
0001
1000
0010
0110
0000
,
0101
MMMM
0101
MMMM
,
0001
0010
1000
0010
0100
0010
0011
0000
,
0110
MMMM
0110
MMMM
,
1010
0000
0010
1000
1100
0000
0110
0000
,
0012
0000
0000
0000
0000
0000
0000
0000
1003
0100
1000
0100
0010
0001
0010
0001
,
1000
0000
0000
1000
0010
0000
0200
0000
0000
0000
0301
0000
0010
0000
0001
0000
,
1000
0100
0001
1000
0100
0001
0100
0010
,
0001
0010
1000
0001
0010
1000
0010
0100
,
1000
0100
0001
1000
0010
0001
0010
0100
,
1000
0000
0100
0001
0000
0001
0100
0000
1000
0000
0010
0000
0100
0000
0001
0000
,
1000
0000
0010
0001
0000
0001
0010
0000
1000
0000
0010
0000
0100
0000
0001
0000
,
1000
0000
0100
0001
0000
0001
0100
0000
1000
0000
0010
0000
0001
0000
0010
0000
,
1000
0100
1000
0010
2000
0000
0000
0000
,
3001
0000
0010
0001
0010
0000
0100
1000
0100
0000
1000
0000
0001
0000
0100
0000
,
1000
0000
0100
0001
0100
0000
0001
0000
0010
0000
1000
0000
0020
0000
0000
0000
,
0031
0000
0100
0000
1000
0000
0100
0000
0001
0000
0001
0010
0001
0000
1000
0000
,
0001
0100
0001
0100
0001
0000
1000
0100
1000
0100
1000
0000
0010
0000
0000
0000
,
1000
0100
MMMM
0000
0100
0001
MMMM
0000
1000
0100
MMMM
0000
0100
0001
MMMM
0000
,
1000
0010
MMMM
0000
0010
0001
MMMM
0000
1000
0010
MMMM
0000
0010
0001
MMMM
0000
,
1000
0100
MMMM
0000
0100
0010
MMMM
0000
1000
0100
MMMM
0000
0100
0010
MMMM
0000
,
0001
0100
MMMM
0000
0100
0010
MMMM
0000
0001
0100
MMMM
0000
0110
0000
0000
0000
,
2002
0000
0000
3003
,
0220
0000
0330
MMMM
,
0100
1010
0100
0011
,
1001
0110
MMMM
0000
;
