#TITLE:SPRING RAIN(LLUVIA DE PRIMAVERA);
#SUBTITLE:;
#ARTIST:Remixed by DJ YOSHITAKA;
#TITLETRANSLIT:;
#SUBTITLETRANSLIT:;
#ARTISTTRANSLIT:;
#GENRE:;
#CREDIT:;
#MENUCOLOR:;
#METERTYPE:DDR;
#BANNER:SPRING RAIN(LLUVIA DE PRIMAVERA).png;
#BACKGROUND:SPRING RAIN(LLUVIA DE PRIMAVERA)-bg.png;
#LYRICSPATH:;
#CDTITLE:./CDTITLES/BEATMANIA IIDX.PNG;
#MUSIC:SPRING RAIN(LLUVIA DE PRIMAVERA).ogg;
#OFFSET:0.000;
#SAMPLESTART:28.138;
#SAMPLELENGTH:15.000;
#SELECTABLE:YES;
#LISTSORT:;
#BPMS:0.000=145.000;
#STOPS:;
#BGCHANGES:;
#ATTACKS:;

//---------------dance-single - ----------------
#NOTES:
     dance-single:
     :
     Beginner:
     1:
     0.108,0.138,0.056,0.000,0.000:
0000
0000
0000
0000
,
0000
0000
0000
0000
,
0000
0000
0000
0000
,
0000
0000
0000
0000
,
0000
0000
0000
0000
,
1000
0000
0000
0000
,
0001
0000
0000
0000
,
0010
0000
0000
0000
,
0100
0000
0000
0000
,
1001
0000
0000
0000
,
1000
0000
0000
0000
,
0001
0000
0000
0000
,
0010
0000
0000
0000
,
0001
0000
0000
0000
,
0100
0000
0000
0000
,
0010
0000
0000
0000
,
1000
0000
0000
0000
,
1001
0000
1000
0000
,
1000
0000
0000
0000
,
0001
0000
0001
0000
,
0001
0000
0000
0000
,
0010
0000
0010
0000
,
0010
0000
0000
0000
,
0100
0000
0100
0000
,
0100
0000
0000
0000
,
1001
0000
0000
0100
,
0100
0000
0000
0000
,
0001
0000
0000
0010
,
0010
0000
0000
0000
,
1000
0000
0000
0100
,
0100
0000
0000
0000
,
0001
0000
0000
0010
,
0010
0000
0000
0000
,
1001
0000
0000
0000
,
0100
0000
0010
0000
,
0100
0000
0100
0000
,
0001
0000
0000
0000
,
1000
0000
0000
0000
,
0001
0000
1000
0000
,
1001
0000
0000
0000
,
1000
0000
1000
1000
,
1000
0000
0000
0000
,
0010
0000
0000
0000
,
0001
0000
0000
0000
,
0100
0000
0000
0000
,
1000
0000
0000
0000
,
0100
0000
0000
0000
,
0001
0000
0000
0000
,
0010
0000
0000
0000
,
0001
0000
0001
0000
,
0001
0000
0000
1000
,
1000
0000
0000
0000
,
0100
0000
0010
0000
,
0100
0000
0000
0010
,
0010
0000
0000
0000
,
0100
0000
0000
0000
,
0010
0000
0001
0000
,
1001
0000
0000
0000
,
0100
0000
0100
0100
,
0100
0000
0000
0000
;

//---------------dance-single - ----------------
#NOTES:
     dance-single:
     :
     Easy:
     5:
     0.207,0.255,0.075,0.112,0.000:
0000
0000
0000
0000
,
0000
0000
0000
0000
,
0000
0000
0000
0000
,
0000
0000
0000
0000
,
0000
0000
0000
0000
,
0001
0000
0001
0000
,
2000
0000
0000
3000
,
0010
0000
0010
0000
,
0200
0000
0000
0300
,
0001
0000
1000
0000
,
0200
0000
0000
0300
,
1000
0000
0001
0000
,
0100
0000
0010
0010
,
0010
0000
1000
0000
,
0002
0000
0000
0003
,
1000
0000
0100
0000
,
0220
0000
0000
0330
,
0001
0000
1000
0001
,
1000
0000
0010
0100
,
0010
0000
1000
0001
,
1000
0000
1000
0000
,
0001
0000
0010
0100
,
0010
0000
0001
1000
,
0001
0000
1000
0001
,
1000
0000
1000
0000
,
0110
0000
0001
0100
,
0010
0000
1000
0100
,
0010
0000
0001
0100
,
0001
0000
1000
0000
,
0100
0000
1000
0100
,
0010
0000
0001
0100
,
0010
0000
1000
0001
,
0100
0000
0000
0000
,
0110
0000
0000
0000
,
1001
0000
0100
0000
,
1001
0000
0010
0000
,
1000
1000
1000
1000
,
0001
0001
0001
0001
,
0100
0100
0100
0100
,
0220
0000
0000
0330
,
0001
0100
0010
1000
,
0001
0010
0000
0010
,
0001
0000
1000
0000
,
0100
1000
0000
0100
,
0010
0000
0001
0000
,
1000
0010
0000
0010
,
1000
0000
0001
0000
,
0100
0000
0010
0000
,
1000
0000
0001
0100
,
0010
0010
1000
1000
,
0001
0000
0100
0000
,
0001
0001
0010
0010
,
0100
0000
1000
0000
,
0100
0100
1000
1000
,
0010
0000
1000
0000
,
0001
0000
0100
0000
,
0001
0010
0100
1000
,
0220
0000
0000
0330
,
0001
1000
0100
0010
,
2002
0000
0000
0000
,
0000
0000
0000
3003
;

//---------------dance-single - ----------------
#NOTES:
     dance-single:
     :
     Medium:
     8:
     0.384,0.482,0.168,0.270,0.065:
0000
0000
0000
0000
,
0000
0000
0000
0000
,
0000
0000
0000
0000
,
0000
0000
0000
0000
,
0000
0000
0000
0000
,
1000
0001
0100
0000
0100
0000
0100
0000
,
0020
1000
0000
1030
,
0001
1000
0001
1000
,
0010
0100
0100
0000
0001
0000
1000
0000
,
0001
0010
0001
0000
0001
0000
0001
0000
,
2000
0100
0000
3001
,
1000
0100
0010
0001
,
1000
0010
2000
3100
,
0010
0100
1000
0000
1000
0000
1000
0000
,
0020
0100
0000
0031
,
0100
0000
0001
0000
1000
0001
0000
0010
,
0010
0000
0000
0100
0000
0000
0000
0000
1000
0000
0000
0001
0000
0000
0000
0000
,
1001
0000
0100
0000
1000
0100
1000
0000
,
0001
0000
0100
0000
0001
0100
0001
0000
,
1000
0000
0100
0000
1000
0010
1000
0000
,
0001
0100
0002
0013
,
0001
0000
1000
0000
0001
1000
0100
0000
,
1000
0000
0001
0000
1000
0001
0100
0000
,
0010
0000
0100
0000
0001
0010
0100
0000
,
2000
3000
0002
0003
,
1001
0000
0000
0000
0100
0000
0000
0010
0000
0000
0010
0000
0001
0000
0000
0000
,
0001
0000
0000
0000
0100
0000
0000
0010
0000
0000
0010
0000
1000
0000
0000
0000
,
0100
0000
0000
0000
1000
0000
0000
0001
0000
0000
1000
0000
0100
0000
0000
0000
,
1000
0000
0010
0100
0002
0000
0013
0000
,
0100
0000
0010
0000
0001
0000
0000
1000
0000
0000
0100
0000
1000
0000
0010
0000
,
1000
0000
0100
0000
0010
0000
0000
0001
0000
0000
0100
0000
0001
0000
0010
0000
,
0001
0000
0100
0000
0010
0000
0000
1000
0000
0000
0002
0000
0000
0000
1003
0000
,
0001
0000
0000
0000
,
1001
0000
0000
0000
,
0110
0000
1001
0000
,
1010
0000
0011
0000
,
1100
1100
0101
0101
,
1010
1010
0011
0011
,
1000
0100
1000
0000
0001
0100
0001
0000
,
2002
0000
0000
3003
,
0010
0100
0010
0100
0010
1000
0001
0000
,
1000
0000
0100
0000
1000
0010
0001
0000
,
0010
0100
0002
0203
,
0310
0000
1000
0001
0200
0000
0301
0000
,
1000
0100
0020
0032
,
1003
0000
0010
0000
1000
0100
0001
0000
,
0100
0010
2000
3020
,
0032
0000
0100
0000
0000
0103
0000
0010
,
1000
0000
0000
1000
0000
0000
1000
0000
0001
0000
0000
0100
0000
0000
0100
0000
,
0010
0000
1000
0000
0010
0000
0000
1000
0000
0000
1000
0000
0001
0000
1000
0000
,
0100
0100
0020
0031
,
2000
0000
3100
1000
0020
0000
0130
0000
,
0001
0100
0002
0013
,
0100
0000
0010
0000
0001
0000
0000
1000
0000
0000
0100
0000
1000
0000
0010
0000
,
0100
0100
0002
1003
,
0020
0000
0100
0000
0000
0130
0000
0001
,
1000
0000
0000
1000
0000
0000
0001
0000
0100
0000
0000
0100
0000
0000
0010
0000
,
2002
0000
0000
3003
,
0001
0100
1000
0100
0001
1000
0001
0000
,
0220
0000
0000
0000
,
0000
0000
0000
0330
;

//---------------dance-single - ----------------
#NOTES:
     dance-single:
     :
     Hard:
     11:
     0.509,0.538,0.149,0.177,0.252: // measure 1
0000
0000
0000
0000
,  // measure 2
0000
0000
0000
0000
,  // measure 3
0000
0000
0000
0000
,  // measure 4
0000
0000
0000
0000
,  // measure 5
0000
0000
0000
0000
,  // measure 6
1000
0010
0100
0010
1000
0010
0100
0010
,  // measure 7
2000
0100
0001
3010
,  // measure 8
0001
0000
0100
0000
0001
1000
0100
0000
,  // measure 9
0010
0000
0010
0000
0001
0000
0000
0000
1000
0001
0000
0000
1001
0000
0000
0000
,  // measure 10
0100
0010
0001
0010
0100
0010
0001
1000
,  // measure 11
0002
0010
1000
0103
,  // measure 12
1000
0000
0010
0000
0100
0001
1000
0000
,  // measure 13
0010
1000
0002
2003
,  // measure 14
3010
1000
0100
1000
0010
1000
0100
1000
,  // measure 15
0200
0010
1000
0301
,  // measure 16
1000
0000
0100
0000
0001
0200
0000
0310
,  // measure 17
0010
0000
0000
0001
0000
0000
1000
0000
0010
0000
0000
0100
0000
0000
0010
0000
,  // measure 18
1000
0000
0001
0000
0010
0000
0000
0001
0000
0000
0001
0000
0100
0000
0010
0000
,  // measure 19
1000
0000
0001
0000
0010
0000
0000
0001
0000
0000
0001
0000
1000
0000
0100
0000
,  // measure 20
0010
0000
0001
0000
0100
0000
0000
0010
0000
0000
0100
0000
0001
0000
0010
0000
,  // measure 21
0100
1000
0010
0000
2000
0000
3002
0000
,  // measure 22
1003
0000
0010
0000
1000
0000
0000
0001
0000
0000
0001
0000
1000
0000
0010
0000
,  // measure 23
1000
0000
0100
0000
0010
0000
0000
0001
0000
0000
0001
0000
0100
0000
0010
0000
,  // measure 24
0100
0000
0001
0000
0010
0000
0000
0100
0000
0000
1000
0000
0010
0000
0100
0000
,  // measure 25
0010
0000
0000
1000
0000
0000
0100
0000
0001
0000
0000
0010
0000
0000
0100
0000
,  // measure 26
1001
0000
0010
0000
0100
0000
0000
0010
0000
0010
0001
0000
1000
0000
0100
0000
,  // measure 27
1000
0000
0010
0000
0100
0000
0000
0010
0000
0010
1000
0000
0001
0000
0100
0000
,  // measure 28
0001
0000
0010
0000
0001
0000
0000
1000
0000
1000
0001
0000
1000
0000
0100
0000
,  // measure 29
1000
0010
1000
0000
0002
0000
0203
0000
,  // measure 30
0310
0000
1000
0000
0100
0000
0000
1000
0000
0001
1000
0000
0001
0000
0100
0000
,  // measure 31
0010
0000
0100
0000
0001
0000
0000
0010
0000
0001
0010
0000
0100
0000
1000
0000
,  // measure 32
0001
0000
1000
0000
0100
0000
0000
1000
0000
0010
1000
0000
0010
0000
0100
0000
,  // measure 33
0001
0000
0000
0000
,  // measure 34
1001
0000
0000
0000
,  // measure 35
0110
0000
1001
0000
,  // measure 36
1100
0000
0101
0000
,  // measure 37
1001
0000
0000
0000
0110
0000
0000
0000
1001
0000
0000
0000
1001
0000
0000
1000
,  // measure 38
0100
0000
0000
1000
0100
0000
0000
0001
0100
0000
0000
0001
0100
0000
0000
1000
,  // measure 39
0100
0100
0100
0100
0010
0010
0010
0010
,  // measure 40
1001
0000
0001
0100
0000
0100
0001
0000
,  // measure 41
0001
1000
0001
0100
1000
0100
0010
0000
,  // measure 42
1100
0000
0001
0000
0010
0000
0000
0001
0000
0001
0100
0000
0001
0000
1000
0000
,  // measure 43
0010
0000
1000
0000
0100
0000
0000
1000
0000
1000
0100
0000
1000
0000
0000
0000
,  // measure 44
0010
0000
0100
0000
0001
0000
0000
0010
0000
0010
0001
0000
1000
0000
0001
0000
,  // measure 45
0100
0010
1000
0000
0002
0000
2003
0000
,  // measure 46
3100
0000
0010
0000
0001
0000
0000
1000
0000
0100
1000
0000
0100
0000
0010
0000
,  // measure 47
0001
0100
0010
0000
2000
0000
3020
0000
,  // measure 48
1030
0010
0100
0000
0001
2000
0000
3001
,  // measure 49
0100
0000
0000
0100
0000
0000
0100
0000
0010
0000
0000
1000
0000
0000
0001
0000
,  // measure 50
1001
0000
0010
0000
0100
0000
0010
0001
0000
0010
0001
0000
1000
0000
0100
0000
,  // measure 51
0010
0000
0100
0000
1000
0000
0010
1000
0000
0010
1000
0000
0001
0000
0100
0000
,  // measure 52
0001
0000
0010
0000
0001
0000
0100
0010
0000
1000
0001
0000
1000
0000
0100
0000
,  // measure 53
1000
0010
0100
0000
0020
0000
2030
0000
,  // measure 54
3001
0000
0100
0000
1000
0000
0100
0001
0000
0100
0001
0000
1000
0000
0100
0000
,  // measure 55
1000
0000
0100
0000
0001
0000
0100
1000
0000
0100
1000
0000
0010
0000
0100
0000
,  // measure 56
0001
0000
0010
0000
1000
0000
0010
0001
0000
1000
0001
0000
0100
0000
0010
0000
,  // measure 57
1000
0000
0000
0001
0100
0000
1000
0000
0010
0000
0000
1000
0100
0000
0001
0000
,  // measure 58
1001
0000
0001
0100
0000
0100
0001
0000
,  // measure 59
1000
0000
0001
0000
0100
0000
0010
0000
1000
0001
1000
0001
1000
0000
0000
0000
,  // measure 60
0220
0000
0000
0000
,  // measure 61
0000
0000
0000
0330
;

//---------------dance-single - ----------------
#NOTES:
     dance-single:
     :
     Challenge:
     15:
     0.696,0.737,0.233,0.233,0.564: // measure 1
0000
0000
0000
0000
,  // measure 2
0000
0000
0000
0000
,  // measure 3
0000
0000
0000
0000
,  // measure 4
0000
0000
0000
0000
,  // measure 5
0000
0000
0000
0000
,  // measure 6
1000
0010
0100
0010
1000
0010
0100
0010
,  // measure 7
1100
0001
0010
0001
0100
0001
0010
0001
,  // measure 8
1000
0010
0100
0010
1000
0100
0010
0100
,  // measure 9
1000
0000
0001
0000
0001
0000
0100
0001
1000
0001
0000
0001
1000
0000
0000
0000
,  // measure 10
0101
0010
1000
0100
1000
0010
0100
0001
,  // measure 11
1100
0001
0010
0100
0010
0001
0100
0010
,  // measure 12
1010
0001
0100
0001
0010
0100
0010
0001
,  // measure 13
0011
0001
0100
0010
1010
0000
1001
0000
,  // measure 14
1100
0100
1000
0010
0100
0010
1000
0100
,  // measure 15
0110
0010
0001
0100
0010
0100
0001
1000
,  // measure 16
0010
0100
0001
1000
0100
0020
0000
0130
,  // measure 17
1000
0000
0000
0010
0000
0000
0100
0000
0001
0000
1000
0000
0001
0100
0000
0100
,  // measure 18
0001
0000
1000
0000
0001
0000
0010
0001
0000
0100
0001
0100
0010
0000
0100
0000
,  // measure 19
0001
0000
1000
0000
0001
0000
0010
0001
0000
0100
0001
0100
0010
0000
1000
0000
,  // measure 20
0100
0000
0010
0000
0100
0000
1000
0010
0000
0100
0010
1000
0010
0000
0100
0000
,  // measure 21
0010
0000
1000
0000
0100
0000
0010
0100
1000
0000
0000
0000
1001
0000
0000
0000
,  // measure 22
1000
0000
0010
0000
0100
0000
0010
1000
0000
0100
1000
0010
1000
0000
0001
0000
,  // measure 23
1000
0000
0010
0000
0100
0000
0010
1000
0000
0100
1000
0010
0100
0000
0010
0000
,  // measure 24
1000
0000
0100
0000
0010
0000
0100
1000
0000
0001
0010
0100
0010
0000
0001
0000
,  // measure 25
0100
0000
0000
0010
0000
0000
1000
0000
0001
0000
1000
0000
0100
0010
0000
0010
,  // measure 26
0100
0000
1000
0000
0100
0000
0010
0001
0000
0100
0001
1000
0001
0000
1000
0000
,  // measure 27
0010
0000
0100
0000
0001
0000
1000
0010
0000
0100
0010
1000
0010
0000
1000
0000
,  // measure 28
0001
0000
0010
0000
0100
0000
0010
0001
0000
0100
0001
0100
0010
0000
1000
0000
,  // measure 29
0001
0010
0100
1000
0002
0000
2003
0000
,  // measure 30
3010
0000
0100
0000
0001
0000
0100
0010
0000
1000
0100
0010
0001
0000
1000
0000
,  // measure 31
0010
0000
0100
0000
0001
0000
1000
0010
0000
1000
0100
0010
0001
0000
0010
0000
,  // measure 32
0001
0000
0100
0000
0010
0000
0100
0001
0000
1000
0001
0100
0010
0000
1000
0000
,  // measure 33
2001
0000
0000
0010
0000
0000
0100
0000
0001
0000
0000
3100
0000
0000
0010
0000
,  // measure 34
1002
0000
0000
0010
0000
0000
0100
0000
1000
0000
0000
0013
0000
0000
0100
0000
,  // measure 35
0210
0000
0000
0001
0000
0000
0310
0000
0120
0000
0000
1000
0000
0000
0130
0000
,  // measure 36
2001
0000
0000
0100
0000
0000
3001
0000
1002
0000
0000
0010
0000
0000
1003
0000
,  // measure 37
0210
0000
0000
0301
2000
0000
0000
3100
0020
0000
0000
0130
2000
0000
0000
3010
,  // measure 38
0200
0000
0000
0301
0020
0000
0000
0031
2000
0000
0000
3100
0020
0000
0000
0130
,  // measure 39
1000
0100
1000
0100
0010
0001
0010
0001
1000
0100
0010
0001
1000
0100
0010
0001
,  // measure 40
1000
0000
0000
0000
0010
0000
0100
0000
0000
0000
0100
0001
1000
0000
0000
0000
,  // measure 41
0001
0000
0010
0001
0010
0000
0001
0000
0100
0000
0010
1000
0001
0000
0000
0000
,  // measure 42
1100
0000
0010
0000
0001
0000
0100
0001
0000
1000
0001
0100
0001
0000
1000
0000
,  // measure 43
0001
0000
0010
0000
0100
0000
1000
0001
0000
0010
0001
1000
0001
0000
1000
0000
,  // measure 44
0010
0000
0100
0000
0001
0000
0100
0010
0000
1000
0100
1000
0010
0000
0100
0000
,  // measure 45
0010
1000
0100
0010
0012
0000
2003
0000
,  // measure 46
3010
0000
0100
0000
0001
0000
0100
0010
0000
1000
0100
0010
0100
0000
1000
0000
,  // measure 47
0100
0000
0010
0000
0001
0000
0100
0010
0000
0100
0001
0010
0100
0000
0010
0000
,  // measure 48
0001
0000
1000
0000
0010
0000
0100
0001
0000
1000
0001
0100
0001
0000
1000
0000
,  // measure 49
0001
0000
0000
0010
0000
0000
0100
0000
1000
0000
0001
0000
0100
0010
0000
0010
,  // measure 50
1000
0000
0010
0000
0100
0000
0010
1000
0000
0001
1000
0001
1000
0000
0001
0000
,  // measure 51
0010
0000
0001
0000
0100
0000
0001
0010
0000
0100
0010
0100
0010
0000
0001
0000
,  // measure 52
0100
0000
0010
0000
1000
0000
0010
0100
0000
0001
0010
0100
1000
0000
0100
0000
,  // measure 53
0010
0001
0100
0010
2010
0000
3002
0000
,  // measure 54
1003
0000
0100
0000
0001
0000
0100
1000
0000
0001
0100
0010
1000
0000
0001
0000
,  // measure 55
1000
0000
0010
0000
0001
0000
0010
1000
0000
0001
0010
0100
1000
0000
0001
0000
,  // measure 56
0100
0000
0010
0000
1000
0000
0010
0100
0000
0001
1000
0100
0010
0000
0100
0000
,  // measure 57
2100
0000
0000
0010
0000
0000
3001
0000
0210
0000
0000
0001
0000
0000
1300
0000
,  // measure 58
1001
0000
0000
0000
0011
0000
0100
0000
0000
0000
0100
1000
0001
0000
0000
0000
,  // measure 59
1000
0010
1000
0010
0100
0001
0100
0001
1000
0100
0010
0001
1000
0000
0000
0000
,  // measure 60
2002
0000
0000
0000
,  // measure 61
0000
0000
0000
3003
;
