#TITLE:双璧のVANESSA;
#SUBTITLE:;
#ARTIST:Remixed by REINHARD;
#TITLETRANSLIT:SOUHEKI NO VANESSA;
#SUBTITLETRANSLIT:;
#ARTISTTRANSLIT:;
#GENRE:;
#CREDIT:;
#MENUCOLOR:;
#METERTYPE:DDR;
#BANNER:SOUHEKI NO VANESSA.png;
#BACKGROUND:SOUHEKI NO VANESSA-bg.png;
#LYRICSPATH:;
#CDTITLE:./CDTITLES/REFLEC BEAT.PNG;
#MUSIC:SOUHEKI NO VANESSA.mp3;
#OFFSET:-0.158;
#SAMPLESTART:78.840;
#SAMPLELENGTH:15.000;
#SELECTABLE:YES;
#LISTSORT:;
#BPMS:0.000=180.000,68.000=90.000,72.000=360.000,88.000=180.000,92.000=360.000,100.000=180.000,108.000=360.000,236.000=180.000,258.000=90.000,259.000=180.000,267.000=90.000,283.000=180.000,291.000=360.000;
#STOPS:;
#BGCHANGES:;
#ATTACKS:;

//---------------dance-single - ----------------
#NOTES:
     dance-single:
     :
     Beginner:
     4:
     0.105,0.194,0.055,0.000,0.000:
0000
0000
0000
0000
,
0000
0000
0000
0000
,
0000
0000
0000
0000
,
0000
0000
0000
0000
,
0000
0000
0000
0000
,
0100
0000
0000
0000
,
0000
0000
0000
0000
,
0010
0000
0000
0000
,
0000
0000
0000
0000
,
1001
0000
0000
0000
,
1000
0000
0000
0000
,
0001
0000
0000
0000
,
0010
0000
0000
0000
,
0100
0000
0000
0000
,
0100
0000
0000
0000
,
0010
0000
0000
0000
,
0001
0000
1000
0000
,
0000
0000
0000
0000
,
0000
0000
0000
0000
,
1000
0000
0000
0000
,
0000
0000
0000
0000
,
0001
0000
0001
0000
,
0000
0000
0000
0000
,
0100
0000
0000
0000
,
0000
0000
0000
0000
,
0100
0000
0000
0000
,
0000
0000
0000
0000
,
0010
0000
0000
0000
,
0000
0000
0000
0000
,
0010
0000
0000
0000
,
0000
0000
0000
0000
,
0000
0000
0000
0000
,
1000
0000
0000
0000
,
0000
0000
0000
0000
,
1000
0000
0000
0000
,
0001
0000
0000
0000
,
0001
0000
0000
0000
,
1000
0000
0000
0000
,
1000
0000
0000
0000
,
0001
0000
0000
0000
,
0001
0000
0000
0000
,
1000
0000
0000
0000
,
0000
0000
0000
0000
,
1001
0000
0000
0000
,
0000
0000
0000
0000
,
1000
0000
0000
0000
,
0000
0000
0000
0000
,
0000
0000
0000
0000
,
0000
0000
0000
0000
,
0001
0000
0000
0000
,
0000
0000
0000
0000
,
1000
0000
0000
0000
,
1000
0000
0000
0000
,
0001
0000
0000
0000
,
0001
0000
0000
0000
,
1000
0000
0000
0000
,
0010
0000
0000
0000
,
0100
0000
0000
0000
,
0001
0000
0000
0000
,
1001
0000
0000
0000
,
0001
0000
0000
0000
,
1000
0000
0000
0000
,
0001
0000
0000
0000
,
0010
0000
0000
0000
,
0100
0000
0000
1000
,
0000
0000
0000
0001
,
0000
0000
0000
1000
,
0000
0000
0000
0001
,
0000
0000
0000
0100
,
0000
0100
0000
0010
,
0000
0010
0000
1001
,
0000
0000
0000
0100
,
0000
0000
0000
0010
,
0000
0000
0000
0000
,
0000
0000
0000
0010
,
0000
0000
0000
0000
,
0000
0000
0000
0000
,
0000
0000
0000
0000
,
0000
0000
0000
0100
,
0000
0000
0000
0000
,
0000
0000
0000
0001
,
0000
0000
0000
1000
,
0000
0000
0000
0001
,
0000
0000
0000
1000
,
0000
0000
0000
0001
,
0000
0000
0000
0000
,
0000
0000
0000
1000
,
0000
0000
0000
0000
,
0000
0000
0000
1001
,
0000
0000
0000
0000
,
0000
0000
0000
0010
,
0000
0000
0000
0000
,
0000
0000
0000
0000
,
0000
0000
0000
0000
,
0000
0000
0000
0100
,
0000
0000
0000
0000
,
0000
0000
0000
0010
,
0000
0000
0000
0010
,
0000
0000
0000
0100
,
0000
0000
0000
0100
,
0000
0000
0000
0001
,
0000
0000
0000
1000
,
0000
0000
0000
0001
,
0000
0000
0000
1000
,
0000
0000
0000
0000
,
0000
0000
0000
0000
,
0000
0000
0000
1001
;

//---------------dance-single - ----------------
#NOTES:
     dance-single:
     :
     Easy:
     9:
     0.513,0.991,0.255,0.291,0.009: // measure 1
0000
0000
0000
0000
,  // measure 2
0000
0000
0000
0000
,  // measure 3
0000
0000
0000
0000
,  // measure 4
0000
0000
0000
0000
,  // measure 5
0000
0000
0000
0000
,  // measure 6
0200
0000
0000
0300
,  // measure 7
0020
0000
0000
0030
,  // measure 8
2000
0000
0000
3000
,  // measure 9
0002
0000
0000
0003
,  // measure 10
1000
0010
2000
3000
,  // measure 11
0001
0100
0002
0003
,  // measure 12
0010
0100
2000
3000
,  // measure 13
0100
0010
0200
0300
,  // measure 14
0010
0010
0001
0001
,  // measure 15
0100
0100
1000
1000
,  // measure 16
0010
0001
0100
1000
,  // measure 17
0010
0100
0001
1000
,  // measure 18
2002
0000
0000
3003
,  // measure 19
0010
0010
0010
0010
,  // measure 20
0010
0000
0110
0000
,  // measure 21
0100
0100
0100
0100
,  // measure 22
0001
1000
0001
0000
,  // measure 23
2002
0000
0000
3003
,  // measure 24
1000
0000
0001
0000
,  // measure 25
1000
0000
0001
0000
,  // measure 26
1001
2002
0000
0000
,  // measure 27
0000
0000
3003
0100
,  // measure 28
0010
0100
0010
0100
,  // measure 29
0010
0100
0010
0000
,  // measure 30
0100
0010
0100
0010
,  // measure 31
0100
0001
1000
0001
,  // measure 32
0001
1000
0001
1000
,  // measure 33
1000
0001
1000
0000
,  // measure 34
0001
1000
0001
1000
,  // measure 35
0001
0010
0100
1000
,  // measure 36
0010
0010
0000
0100
,  // measure 37
0001
0100
0001
0000
,  // measure 38
0010
0010
0000
0100
,  // measure 39
1000
0100
1000
0000
,  // measure 40
0010
0000
0001
0000
,  // measure 41
0100
0000
1000
0000
,  // measure 42
0010
0100
0010
0100
,  // measure 43
0001
1000
0002
0003
,  // measure 44
1000
0001
1000
0001
,  // measure 45
1000
0010
1000
0000
,  // measure 46
0001
1000
0001
1000
,  // measure 47
0001
0010
0100
1000
,  // measure 48
0010
0010
1000
0010
,  // measure 49
1000
0010
1000
0000
,  // measure 50
0001
0100
0001
0100
,  // measure 51
0001
0010
0100
1000
,  // measure 52
0100
0100
0010
0001
,  // measure 53
1000
0000
1001
0000
,  // measure 54
0100
0100
0010
1000
,  // measure 55
0001
0000
1001
0000
,  // measure 56
0010
1000
0010
0000
,  // measure 57
0100
0001
0100
0000
,  // measure 58
0001
0010
0100
1000
,  // measure 59
0001
0010
0100
1000
,  // measure 60
0001
2002
3003
1000
,  // measure 61
0110
0001
0100
1000
,  // measure 62
0100
0220
0330
0010
,  // measure 63
1001
0100
0010
0100
,  // measure 64
0001
0010
0100
1000
,  // measure 65
0100
0000
0000
0010
0000
0000
0001
0001
0001
0010
0000
0000
,  // measure 66
0100
1000
0100
0010
,  // measure 67
0001
1000
0001
2002
,  // measure 68
3003
2020
3030
0202
,  // measure 69
0303
0000
2200
0000
3300
0000
0001
0010
,  // measure 70
1100
0001
0100
0010
1001
0010
1001
0100
,  // measure 71
1001
0100
0010
0010
1000
0001
1001
0000
,  // measure 72
0010
0100
0001
1000
,  // measure 73
2002
0000
3003
0010
,  // measure 74
0100
0010
0100
0001
,  // measure 75
0010
1000
0000
0010
,  // measure 76
0100
0010
0100
1000
,  // measure 77
0010
0001
0010
1000
,  // measure 78
0001
1000
0001
1000
,  // measure 79
0100
0001
0000
0100
,  // measure 80
1000
0100
1000
0010
,  // measure 81
0100
0001
0010
0100
,  // measure 82
0100
0000
0010
1000
,  // measure 83
0000
1001
0000
0100
,  // measure 84
0100
0000
0010
0001
,  // measure 85
0000
1001
0000
0010
,  // measure 86
1000
0100
0000
0010
,  // measure 87
0001
0100
0000
0010
,  // measure 88
1000
0001
0100
0001
,  // measure 89
1000
0002
0000
1003
,  // measure 90
0010
1000
0010
1000
,  // measure 91
0010
0100
0000
0001
,  // measure 92
0010
0001
0010
0100
,  // measure 93
1000
0010
0100
0001
,  // measure 94
0001
1000
0001
1000
,  // measure 95
0001
1000
0000
0010
,  // measure 96
1000
0001
0100
0010
,  // measure 97
0100
0001
0010
0100
,  // measure 98
0100
1000
0010
0101
,  // measure 99
0000
1100
0000
0100
,  // measure 100
0100
0001
0010
1100
,  // measure 101
0000
0101
0000
1000
,  // measure 102
0001
1000
0001
0010
,  // measure 103
0100
0010
0100
1000
,  // measure 104
0100
0010
0001
1000
,  // measure 105
0010
0001
0100
0010
,  // measure 106
0000
0000
0000
0000
,  // measure 107
0000
0100
0000
2002
,  // measure 108
0000
0000
0000
0000
,  // measure 109
0000
0000
0000
0000
,  // measure 110
0000
0000
0000
0000
,  // measure 111
0000
0000
0000
0000
,  // measure 112
0000
0000
0000
0000
,  // measure 113
0000
0000
0000
0000
,  // measure 114
0000
0000
0000
0000
,  // measure 115
0000
0000
3003
0000
;

//---------------dance-single - ----------------
#NOTES:
     dance-single:
     :
     Medium:
     14:
     0.666,1.000,0.164,0.264,0.747:
0000
0000
0000
0000
,
0000
0000
0000
0000
,
0000
0000
0000
0000
,
0000
0000
0000
0000
,
0000
0000
0000
0000
,
0020
0000
0000
0030
,
0200
0000
0000
0300
,
0002
0000
0000
0003
,
2000
0000
0000
3000
,
0001
0000
0000
0010
0000
0000
0100
0000
0000
1000
0000
0100
,
1000
0000
0000
0010
0000
0000
0100
0000
0000
0001
0000
0100
,
0001
0000
0000
0010
0000
0000
0100
0000
0000
1000
0000
0100
,
1000
0000
0000
0010
0000
0000
1000
0000
0000
0001
0000
1000
,
0001
0000
0000
0001
0000
0001
1000
0000
0000
1000
0000
1000
,
0001
0000
0000
0001
0000
0001
0100
0000
0010
1000
0000
0001
,
0010
1100
0101
1100
,
0001
0000
1000
0010
0000
0100
0001
0000
1000
0100
0000
0010
,
0002
0000
0000
0003
,
1000
0100
0010
0001
,
1000
0100
1000
0100
2000
0000
3000
0000
,
0001
0000
0100
0000
0001
0000
1000
0010
,
2000
0000
3002
0000
,
2003
0000
0000
3000
,
0001
0000
0000
0000
0010
0000
0001
0000
0000
0000
0001
0000
,
0100
0000
0000
0000
0100
0000
0010
0000
0000
0000
0010
0000
,
2000
0002
0000
3000
,
0200
0000
0303
0010
,
1000
0000
0000
0010
1000
0000
0000
1000
,
0100
0000
0000
0100
0010
0000
0000
0010
,
0001
0000
0000
0001
0100
0000
0000
0100
,
0001
0000
0000
0000
1000
0000
0001
0000
0000
0000
0010
0000
,
0001
0000
0000
0000
0000
0000
0000
0000
1000
0000
0000
0000
0100
0000
0000
0000
0000
0000
0000
0000
0000
0100
0000
0000
,
1000
0000
0000
1000
0010
0000
0000
0010
,
1000
0000
0000
1000
0001
0000
0000
0001
,
0100
0000
0000
0000
0001
0000
0100
0000
0000
0000
0001
0000
,
1000
1000
0010
0100
,
0001
1000
1001
0000
,
0110
0110
0000
0001
,
0100
0001
1001
0000
,
0001
0000
0000
0000
0010
0000
0001
0000
0000
0000
1000
0000
,
0100
0000
0000
0000
0001
0000
0100
0000
0000
0000
1000
0000
,
0100
0000
1000
0000
0100
0000
0010
0000
0100
0000
0010
0000
,
0001
0000
0010
0000
0001
0000
1000
0000
0001
0000
1000
0000
,
0001
0000
0000
0100
0001
0000
0000
1000
,
0100
0000
0000
0001
0100
0000
0000
1000
,
0010
0000
0000
0100
0001
0000
0000
1000
,
0001
0000
0010
0000
0001
0000
1000
0000
0100
0000
1000
0000
,
0010
0000
0000
0100
0010
0000
0000
1000
,
0001
0000
0000
0010
0001
0000
0000
1000
,
0001
0000
0000
1000
0010
0000
0000
0100
,
0010
0000
0100
0000
0010
0000
1000
0000
0010
0000
0100
0000
,
0001
0001
1000
1000
,
0001
0000
1000
0000
0100
0000
2000
0000
0000
0000
0000
0000
,
3010
0010
0100
0100
,
0001
0000
1000
0000
0010
0000
2000
0000
0000
0000
0000
0000
,
3001
0000
0000
0010
0100
0000
0000
1000
,
0010
0000
0000
0100
0001
0000
0000
1000
,
0100
0000
0000
0100
0010
0000
0000
0010
,
0001
0000
0010
0000
0100
0000
1000
0000
0100
0000
0010
0000
,
0001
0000
0000
2002
0000
0000
3003
0000
0000
0001
0000
0001
,
0100
0000
0000
1000
0000
1000
0100
0000
0000
0001
0000
0001
,
0010
0000
0000
0220
0000
0000
0330
0000
0000
0010
0000
0010
,
1000
0000
0000
0001
0000
0100
0001
1000
0001
0100
0000
0000
,
0001
0010
0100
1000
0100
0010
0001
0100
1000
0100
0001
0100
,
1000
0100
0010
1000
0001
1000
0010
0010
0010
0100
0001
0100
,
0010
1000
0010
0100
0001
0100
0001
1000
0001
0010
0001
0010
,
1000
0010
0001
0010
0100
0010
1000
0010
0100
2000
0000
0000
,
3010
0020
0031
0002
,
0103
0000
0000
0000
0000
0000
0200
0000
0000
0000
0000
0000
1300
0000
0000
0000
0000
0000
1000
0000
0000
0100
0000
0100
,
1000
0000
0000
1100
0000
0000
0001
0000
0000
0100
0000
0100
0001
0000
0000
0101
0000
0000
0010
0000
0100
0001
0000
0000
,
0010
0000
0100
1000
0000
0000
0001
0000
0100
0001
0000
0001
1000
0000
1000
0001
0000
0000
0110
0000
0000
0000
0010
0000
,
0100
0000
0100
0001
0000
0001
1000
0000
0000
0001
0000
0000
,
2002
0000
3003
0110
,
0000
0001
0000
0100
0000
0000
0000
1000
0000
0100
0000
0000
,
0000
0010
0000
0001
0000
0000
0000
1000
0000
0001
0000
0000
,
0000
0001
0000
1000
0000
0000
0000
1000
0000
0001
0000
0010
,
0000
0001
0000
0100
0000
0010
0000
0100
0000
0010
0000
0000
,
0000
0100
0000
0010
0000
0000
0000
0100
0000
0001
0000
0000
,
0000
1000
0000
0100
0000
0000
0000
0100
0000
1000
0000
0000
,
0000
0001
0000
1000
0000
0000
0000
1000
0000
0010
0000
1000
,
0000
0010
0000
0100
0000
0001
0000
0100
0000
0001
0000
1000
,
0000
0001
0000
0000
0000
0000
0110
0000
0000
0001
0000
0000
,
0100
0000
0000
1000
0000
0000
0000
0000
0000
1000
0000
0001
,
0000
1000
0000
0000
0000
0000
0110
0000
0000
1000
0000
0000
,
0100
0001
0000
0010
,
0000
0001
0000
0010
0000
0000
0000
0010
0000
0100
0000
0000
,
0000
0100
0000
1000
0000
0000
0000
1000
0000
0010
0000
0000
,
0000
0010
0000
1000
0000
0000
0000
1000
0000
0001
0000
0100
,
0000
0001
0000
2000
0000
0000
0000
0000
0000
3001
0000
0100
,
0000
0010
0000
0100
0000
0001
0000
0100
0000
0010
0000
0100
,
0000
1000
0000
0100
0000
0000
0000
0100
0000
1000
0000
0100
,
0000
0010
0000
0100
0000
1000
0000
0100
0000
0010
0000
1000
,
0000
0001
0000
0100
0000
0001
0000
1000
0000
0001
0000
0000
,
0001
0000
0000
1001
0000
0000
0000
0010
0000
0100
0000
0001
,
0000
0100
0000
0001
0000
0000
0000
1000
0000
0010
0000
1000
,
0000
0100
0000
0001
0000
0100
0000
1000
0000
0010
0000
1000
,
0000
0001
0000
0100
0000
0001
0000
1000
0000
0001
0000
0000
,
1000
0000
0000
0010
0000
0000
0100
0000
0000
0001
0000
1000
,
0000
0100
0000
2000
0000
0000
0000
0000
0000
3010
0000
0000
,
1000
0000
0000
0001
0000
0000
0100
0000
0000
0001
0000
0010
,
0000
0100
0000
2000
0000
0000
0000
0000
0000
3001
0000
0000
,
0000
0010
0000
0001
0000
0000
0000
0001
0000
0100
0000
0000
,
0000
0100
0000
0001
0000
0000
0000
0001
0000
1000
0000
0000
,
1000
1000
1000
0010
,
0010
0100
0001
1000
,
0000
0000
0000
0000
,
0000
0100
0000
2002
,
0000
0000
0000
0000
,
0000
0000
0000
0000
,
0000
0000
0000
0000
,
0000
0000
0000
0000
,
0000
0000
0000
0000
,
0000
0000
0000
0000
,
0000
0000
0000
0000
,
0000
0000
3003
0000
;

//---------------dance-single - ----------------
#NOTES:
     dance-single:
     :
     Hard:
     17:
     0.873,1.000,0.319,0.264,1.000:
0000
0000
0000
0000
,
0000
0000
0000
0000
,
0000
0000
0000
0000
,
0000
0000
0000
0000
,
0000
0000
0000
0000
,
0200
0000
0000
0300
,
0020
0000
0000
0030
,
2000
0000
0000
3000
,
0002
0000
0000
0003
,
1000
0000
0000
0010
0000
0000
0101
0000
0000
0010
0000
1000
,
0100
0000
1000
0010
0000
0000
0110
0000
0000
0001
0000
0100
,
0001
0000
0000
0010
0000
0000
0011
0000
0000
0001
0000
0100
,
0001
0000
1000
0010
0000
0000
0110
0000
0000
0010
0000
1000
,
0100
0000
0100
1000
0100
0010
0001
0000
0001
0100
0010
1000
,
0001
0000
0001
1000
0100
0010
0100
0000
0100
1000
0000
0010
,
0100
0000
0001
0010
0000
1000
0100
0000
1000
0010
0000
0001
,
0100
0010
0100
0010
1000
0001
0100
0001
1000
0010
1000
0001
,
2002
0000
0000
3003
,
1010
1010
1100
1100
,
0001
0100
0010
0100
0002
0000
0000
0000
,
1003
0000
0100
1000
0001
0000
0100
0001
,
1000
0010
0100
0001
0010
0100
1000
0001
,
2000
0000
0000
3000
,
0001
0000
0100
0000
0010
0000
0100
0000
0001
0000
1000
0000
,
0010
0000
0100
0000
0010
0000
1000
0000
0001
0000
1000
0000
,
1001
0000
0000
0000
2001
0000
0000
0000
3010
0100
0010
0100
0010
0100
0010
0100
,
0010
0120
0000
0130
,
0010
0000
1000
0010
0100
0000
0010
1000
,
0100
0000
1000
0010
0100
0000
0010
0100
,
0001
0000
0010
0001
0100
0000
0001
0010
,
0001
0000
0010
0000
0100
0000
1000
0000
0100
0000
0010
0000
,
0100
0000
0100
0000
1001
0000
0010
1000
,
0010
0000
0100
0001
0100
0000
0001
1000
,
0001
0000
1000
0100
0010
0000
0100
1000
,
0010
0000
0100
0000
0001
0000
1000
0000
0010
0000
0100
0000
,
0001
0000
0000
0000
1000
0000
0000
0000
0001
0000
0000
0000
1000
0000
0000
0010
0000
0000
1000
0000
0000
0010
0000
0000
,
0100
0100
0010
1001
,
0010
0000
0100
0000
0101
0000
0000
0000
0000
1100
0000
0000
,
0001
0010
0100
1000
,
0001
0000
0001
0010
0100
0000
0100
0010
,
0001
0000
0100
0000
0010
0000
1000
0000
0100
0000
0001
0000
,
0100
0000
1000
0010
1000
0000
0001
0100
,
0001
0000
0010
0001
0010
0000
0001
1000
,
0001
0000
0001
0010
0100
0000
0100
0010
,
0001
0000
0001
0100
0010
0000
0010
0000
,
1001
0000
0010
1000
0100
0000
0100
1000
,
0010
0000
0100
0000
0001
0000
1000
0000
0010
0000
0100
0000
,
0001
0000
0100
0000
1001
0000
0010
1000
,
0010
0000
0100
0001
0100
0000
0001
1000
,
0001
0000
1000
0100
0010
0000
0100
1000
,
0010
0000
0100
0000
0001
0000
1000
0000
0010
0000
0100
0000
,
1001
1001
0001
0100
,
0001
0000
1000
0000
0001
0000
2000
0000
0000
0000
0000
0000
,
3010
0110
0001
0100
,
0010
0000
1000
0000
0001
0000
0020
0000
0000
0000
0000
0000
,
0130
0000
1000
0010
0100
0000
0001
0100
,
0010
0000
1000
0001
0100
0000
0001
1000
,
0010
0000
1000
0000
0010
0000
0100
0000
0001
0000
0100
0000
,
0010
1000
0010
1000
0001
0100
0001
0100
,
0010
0000
0000
0202
0000
0000
0303
0000
0000
1000
0000
1000
,
0100
1000
0100
0010
0000
0010
0001
1000
0001
0010
0000
0001
,
0100
0000
0000
0220
0000
0000
0330
0000
0000
0010
0000
0010
,
1000
0001
0100
0002
0000
0000
1003
0010
0100
0001
1000
0001
,
0010
0001
0100
0010
1000
0100
0010
0100
1000
0010
0100
0001
,
0100
0001
1000
0010
1000
0001
1000
1000
1000
0001
0010
0100
,
1000
0100
0010
0001
0100
0010
1000
0010
0100
0001
1000
0010
,
0100
0010
1000
0100
0001
0100
1000
0010
0100
0002
0000
0000
,
0103
0200
1300
2000
,
3010
0000
0000
0000
0000
0000
0020
0000
0000
0000
0000
0000
0031
0000
0000
0000
0000
0000
1000
0000
0100
1000
0001
1000
,
0010
0000
0100
0001
1000
0001
0010
0000
0001
0100
0000
0100
0010
0000
0010
1000
0000
1000
0001
0000
0100
0001
0000
1000
,
0010
0000
0100
0010
0000
1000
0100
0100
0100
0010
0010
0010
0001
0001
0001
1000
1000
1000
0001
0000
0010
0000
0100
0000
,
1000
0100
0010
0001
0100
0010
1000
0010
0100
0002
0000
0000
,
2003
0000
0000
3020
0000
0000
0230
0000
0000
0310
0000
1000
,
0000
0010
0000
0100
0000
0001
0000
0100
0000
0001
0000
0010
,
0000
0100
0000
1000
0000
0000
0000
1000
0000
0100
0000
1000
,
0000
0010
0000
0100
0000
0001
0000
0010
0000
0001
0000
0100
,
0000
0010
0000
1000
0000
0001
0000
0100
0000
0010
0000
0000
,
0010
0000
0000
1001
0000
0000
0000
0001
0000
0100
0000
0001
,
0000
1000
0000
0001
0000
0000
0000
0001
0000
1000
0000
0010
,
0000
0100
0000
0010
0000
1000
0000
0100
0000
0001
0000
0100
,
0000
1000
0000
0010
0000
0001
0000
0010
0000
1000
0000
0001
,
0000
1001
0000
0000
0000
0000
0110
0000
0000
0010
0000
0000
,
0010
0000
0000
0100
0000
0000
0100
0000
0000
0001
0000
1000
,
0000
1001
0000
0000
0000
0000
0110
0000
0000
0010
0000
0000
,
0010
0000
0000
0001
0000
0000
0001
0000
0000
1000
0000
0100
,
0000
0010
0000
0001
0000
0100
0000
0010
0000
1000
0000
0010
,
0000
0100
0000
0001
0000
0100
0000
0010
0000
1000
0000
0100
,
0000
0001
0000
0100
0000
1000
0000
0010
0000
0001
0000
0010
,
0000
1000
0000
0100
0000
0001
0000
0100
0000
1001
0000
0010
,
0000
1000
0000
0010
0000
0100
0000
0001
0000
0010
0000
0001
,
0000
0010
0000
0001
0000
0000
0000
0001
0000
1000
0000
0010
,
0000
0100
0000
0010
0000
1000
0000
0100
0000
0001
0000
0100
,
0000
1000
0000
0010
0000
1000
0000
0001
0000
0100
0000
0000
,
0100
0000
0000
1001
0000
0000
0000
0010
0000
1000
0000
0010
,
0000
0100
0000
0001
0000
0000
0000
0001
0000
1000
0000
0001
,
0000
0010
0000
0001
0000
0100
0000
0010
0000
1000
0000
0100
,
0000
0010
0000
0100
0000
1000
0000
0001
0000
1001
0000
0000
,
1001
0000
0000
0010
0000
0000
0010
1000
0010
0100
0000
0001
,
0000
0100
0000
0002
0000
0000
0003
0000
0000
1001
0000
0000
,
1001
0000
0000
0010
0000
0000
0010
0001
0010
0100
0000
1000
,
0000
0100
0000
2000
0000
0000
0000
0000
0000
3010
0000
0000
,
0100
0001
1000
0000
0001
1000
0100
0000
,
1000
0001
0010
0000
0001
0100
0010
1000
,
0010
1000
0001
0100
0001
0100
0010
1000
,
0001
0100
0010
1000
0001
0100
0010
0000
,
0000
0000
0000
0000
,
0000
0100
0000
2002
,
0000
0000
0000
0000
,
0000
0000
0000
0000
,
0000
0000
0000
0000
,
0000
0000
0000
0000
,
0000
0000
0000
0000
,
0000
0000
0000
0000
,
0000
0000
0000
0000
,
0000
0000
3003
0000
;
