#TITLE:去る金合戦;
#SUBTITLE:;
#ARTIST:あさきのくりむ童話;
#TITLETRANSLIT:SARU KANEGASSEN;
#SUBTITLETRANSLIT:;
#ARTISTTRANSLIT:Asaki no crimm DOUWA;
#GENRE:;
#CREDIT:;
#MENUCOLOR:;
#METERTYPE:DDR;
#BANNER:SARU KANEGASSEN.png;
#BACKGROUND:SARU KANEGASSEN-bg.png;
#LYRICSPATH:;
#CDTITLE:./CDTITLES/GITADORA.PNG;
#MUSIC:SARU KANEGASSEN.mp3;
#OFFSET:-0.130;
#SAMPLESTART:65.560;
#SAMPLELENGTH:15.000;
#SELECTABLE:YES;
#LISTSORT:;
#BPMS:0.000=164.000;
#STOPS:;
#BGCHANGES:;
#ATTACKS:;

//---------------dance-single - ----------------
#NOTES:
     dance-single:
     :
     Beginner:
     1:
     0.116,0.195,0.051,0.000,0.000:
0000
0000
0000
0000
,
0000
0000
0000
0000
,
0000
0000
0000
0000
,
0000
0000
0000
0000
,
1000
0000
0000
0000
,
0001
0000
0000
0000
,
0100
0000
0100
0000
,
0100
0000
0000
0000
,
0110
0000
0000
0000
,
1000
0000
0000
0000
,
0001
0000
0000
0000
,
1000
0000
0000
0000
,
0001
0000
0000
0000
,
1000
0000
0000
0000
,
0010
0000
0000
0000
,
0100
0100
0100
0000
,
0000
0000
0000
0000
,
0001
0000
0000
0000
,
1000
0000
0000
0000
,
0001
0000
0010
0000
,
0100
0000
0000
0000
,
1000
0000
0010
0000
,
0100
0000
0000
0000
,
0001
0000
1000
0000
,
0001
0000
0000
0000
,
0001
0000
0000
0000
,
0001
0000
0001
0000
,
0001
0001
0001
0000
,
1000
0000
0000
0000
,
1000
0000
0000
0000
,
0010
0000
0000
0000
,
0010
0000
0000
0000
,
0100
0000
0000
0000
,
0100
0000
0000
0000
,
0010
0000
1000
0000
,
0001
0000
0100
0000
,
1001
0000
0000
0000
,
0000
0000
0000
0000
,
1001
0000
0000
0000
,
0000
0000
0000
0000
,
0110
0000
0000
0000
,
0000
0000
0000
0000
,
0010
0000
0000
0000
,
0010
0000
0000
0000
,
0100
0000
0000
0000
,
1001
0000
0000
0000
,
1000
0000
0000
0000
,
0001
0000
0000
0000
,
1000
0000
1000
0000
,
0001
0000
0000
0000
,
0001
0000
0000
0000
,
1000
0000
0001
0000
,
1000
0000
0000
0000
,
0000
0001
0000
0001
,
0000
0001
0000
0000
,
1000
0000
1000
0000
,
0000
0000
0000
0000
,
0010
0000
0010
0000
,
0100
0000
0000
0000
,
0001
0000
0001
0000
,
1000
0000
0000
0000
,
0100
0000
0100
0000
,
0010
0000
0000
0000
,
1000
0000
1000
0000
,
0001
0000
0000
0000
;

//---------------dance-single - ----------------
#NOTES:
     dance-single:
     :
     Easy:
     5:
     0.271,0.427,0.071,0.233,0.000:
0000
0000
0000
0000
,
0000
0000
0000
0000
,
0000
0000
0000
0000
,
0000
0000
0000
0000
,
2000
0000
0000
3001
,
0001
0000
0000
0200
,
0310
0000
0010
0000
,
0010
0010
0010
1001
,
0100
0000
0100
0000
,
0010
0000
0010
1000
,
0001
0000
0001
0000
,
1000
0000
1000
0001
,
0200
0300
0000
0010
,
0020
2030
3002
0003
,
1000
1000
0200
0310
,
0001
0110
2002
3003
,
2000
0000
0000
0000
,
0000
0000
3000
0010
,
0200
0000
0000
0000
,
0000
0000
0300
0001
,
0020
0000
0000
0000
,
0000
0000
0030
0001
,
0200
0300
0020
0030
,
2000
3000
0001
1000
,
0001
0010
0010
0010
,
0001
1000
0002
0003
,
1000
0010
1000
0010
,
1000
0001
2000
3000
,
0010
1000
0100
0000
,
0010
0001
0100
0000
,
0010
1000
0001
0000
,
0100
0001
1000
0000
,
0010
1000
0100
0000
,
0010
0001
0100
0000
,
0001
0000
0100
0000
,
0010
1000
0001
0100
,
0001
0000
0000
0001
0000
0000
0002
0000
,
0000
0000
0000
0003
,
1000
0000
0000
1000
0000
0000
2000
0000
,
0000
0000
0000
3000
,
0010
0000
0000
0010
0000
0000
0020
0000
,
0000
0000
0000
0030
,
0100
0000
0000
0100
0000
0000
0100
0000
,
0000
0100
0000
0000
0010
0000
0100
0000
,
0002
0000
0000
0003
,
1000
0000
1000
1000
,
0001
0000
0001
0001
,
0100
0000
0100
0100
,
0010
0000
1000
0100
,
0010
0000
1001
0000
,
0100
0000
1001
0000
,
0010
0100
0001
0000
,
0010
0100
1000
0000
,
0100
0000
0100
0000
,
0100
0000
0010
0001
,
1000
1000
0000
0001
0001
0001
0000
1000
,
0000
0000
0000
0000
,
0010
0010
0010
0010
,
0100
0000
0001
0000
,
0010
0010
0010
0010
,
0100
1000
0010
0000
,
0100
0100
0100
0100
,
0001
1000
0010
0000
,
1000
1000
0001
1000
,
0100
0110
2002
3003
;

//---------------dance-single - ----------------
#NOTES:
     dance-single:
     :
     Medium:
     9:
     0.497,0.656,0.314,0.335,0.061:
0000
0000
0000
0000
,
0000
0000
0000
0000
,
0000
0000
0000
0000
,
0000
0000
0000
0000
,
0020
0000
0000
0000
0000
0000
0000
0130
,
0001
0100
0001
0000
0000
0000
2000
0000
,
3001
0000
0000
2000
3001
0000
0000
2000
,
3001
2000
3001
2000
3001
0000
0110
0000
,
1001
0000
0000
0010
0100
0000
0000
0100
,
0001
0000
0000
0001
1000
0001
0100
0000
,
0001
0000
0000
0001
1000
0000
0000
1000
,
0010
0000
0000
1000
0200
0000
2300
0000
,
3002
0000
0003
0000
0000
1000
0010
1000
,
0200
0320
0230
0300
,
2000
0000
3000
0000
1000
0010
0100
0000
,
0100
0110
2002
3003
,
0002
0010
0000
0010
,
0000
0000
0010
0000
0003
0100
1000
0010
,
2000
0100
0000
0100
,
0000
0000
0100
0000
3000
0100
0010
0001
,
0200
0010
0000
0010
,
0000
0010
0000
0310
,
1000
0001
0100
0010
,
1000
0000
0100
0000
0010
0001
0100
0000
,
0001
0000
0001
1000
0010
0000
0010
0000
,
0010
0000
0010
0100
0002
0000
0103
0000
,
1000
0100
0001
0000
0001
0100
1000
0000
,
1000
0001
1000
0001
2000
0000
3001
0000
,
0210
0000
0001
0000
0310
0000
0001
0100
,
0010
0000
1000
0000
0100
0010
0100
0000
,
2000
0000
0010
0000
3001
0000
1000
0001
,
0100
0000
0010
0000
0100
0001
1000
0010
,
0200
0001
0310
0001
,
0100
0000
0001
0100
0010
0000
1000
0100
,
0010
0000
0010
0001
0100
0000
0001
1000
,
0100
0000
1000
0001
0100
0010
0100
0000
,
0110
0000
0000
0101
0000
0000
2100
0000
,
0000
0001
0010
3001
,
0101
0000
0000
1010
0000
0000
1002
0000
,
0000
0010
1000
0103
,
1100
0000
0000
0101
0000
0000
1020
0000
,
0000
1000
0100
0031
,
1000
1000
0000
0001
0001
0000
0010
0010
,
0000
0110
0110
0000
1001
0000
0101
0000
,
0020
0100
0100
0130
,
0100
0000
0100
0000
0100
0010
0100
0010
,
0100
0000
0100
0000
0001
0000
0001
1000
,
0001
0000
0001
0000
0001
1000
0001
1000
,
0010
0000
0010
0100
0001
0000
0100
0000
,
0010
1001
0100
1001
,
0010
1100
0010
0101
,
0001
1000
0100
0000
1000
0001
0010
0000
,
0001
0100
0010
0100
0001
0100
0010
0000
,
1001
0000
0010
1000
0100
0100
0000
0010
,
0001
1000
0000
0001
1000
0100
0010
0100
,
1001
1001
0000
0110
0110
0110
0000
1001
,
0020
0000
0000
0130
,
0001
0000
0000
0001
0100
0000
0000
0100
0001
0000
0000
0001
1000
0000
0000
0000
,
0001
0010
0100
0000
0200
0000
0300
0000
,
1000
0000
0000
1000
0010
0000
0000
0010
0100
0000
0000
0100
0001
0000
0000
0000
,
1000
0100
0010
0000
0200
0000
0300
0000
,
0001
0000
0000
0001
1000
0000
0000
1000
0010
0000
0000
0010
1000
0000
0000
0000
,
0001
0100
0010
0000
0200
0000
0300
0000
,
0001
0000
0000
0001
1000
0000
0000
1000
0001
0000
0000
0001
1000
0000
0000
0000
,
0010
0110
2002
3003
;

//---------------dance-single - ----------------
#NOTES:
     dance-single:
     :
     Hard:
     13:
     0.662,0.755,0.405,0.466,0.076: // measure 1
0000
0000
0000
0000
,  // measure 2
0000
0000
0000
0000
,  // measure 3
0000
0000
0000
0000
,  // measure 4
0000
0000
0000
0000
,  // measure 5
1000
0000
0010
1000
0100
0000
0010
0001
,  // measure 6
1000
0000
1000
0000
1000
0001
0200
0000
,  // measure 7
0301
0000
0000
0002
1003
0000
0000
0002
,  // measure 8
1003
0002
1003
0002
1003
0000
0110
0000
,  // measure 9
1001
0000
0001
0100
0010
0000
1000
0100
,  // measure 10
0010
0000
0001
0100
0010
0100
0001
0010
,  // measure 11
0100
0000
1000
0100
0010
0000
0001
0100
,  // measure 12
0010
0000
1000
0010
0200
0000
0302
0000
,  // measure 13
2003
0000
3001
0010
0001
1000
0010
0100
,  // measure 14
0020
2030
3002
1003
,  // measure 15
0200
0000
0000
0000
0310
0000
0100
0000
1000
0000
0001
1000
0001
0000
1000
0000
,  // measure 16
0010
0110
2002
3003
,  // measure 17
2000
0000
0010
0000
3100
1000
0100
0000
,  // measure 18
0010
0000
0100
0001
0010
0001
0100
0000
,  // measure 19
0002
0000
0010
0000
0103
0001
0100
0000
,  // measure 20
0010
0000
0100
0001
1000
0010
0100
0000
,  // measure 21
2001
0000
0010
0000
3001
1000
0001
0000
,  // measure 22
0100
0000
0001
0010
0100
0010
0001
0000
,  // measure 23
2000
0000
0100
0000
3010
1000
0001
0000
,  // measure 24
0100
0001
1000
0010
0100
0000
0110
0000
,  // measure 25
1001
0000
0001
1000
0001
0000
1000
0000
0001
0000
0010
0001
0010
0000
0001
0000
,  // measure 26
0010
0000
0010
0100
0010
0000
0100
0000
2000
0000
0000
0000
3001
0000
0000
0000
,  // measure 27
1000
0000
1000
0010
1000
0000
0001
0000
1000
0000
1000
0010
1000
0000
0001
0000
,  // measure 28
1000
0000
1000
0100
1000
0000
0001
0000
2000
0000
0000
0000
3001
0000
0000
0000
,  // measure 29
2001
0000
0010
0000
3100
0010
1000
0000
,  // measure 30
0010
0000
0100
0001
1000
0010
0001
0000
,  // measure 31
0200
0000
0001
0000
0310
1000
0100
0000
,  // measure 32
0010
0000
0100
0001
0010
1000
0100
0000
,  // measure 33
2000
0000
0001
0000
3100
0001
0010
0000
,  // measure 34
0100
0000
0010
1000
0100
0001
1000
0000
,  // measure 35
0001
0000
0100
0010
0001
0000
1000
0100
,  // measure 36
0010
0100
1000
0010
0100
0000
0110
0000
,  // measure 37
1002
0000
0013
1100
0000
1000
1002
0000
,  // measure 38
0000
0010
1000
0103
,  // measure 39
1001
0000
1000
0011
0000
0100
1020
0000
,  // measure 40
0000
0100
1000
0031
,  // measure 41
0110
0000
1001
1001
0000
0110
1200
0000
,  // measure 42
0000
1000
0010
0301
,  // measure 43
1000
0001
0000
0100
0010
0000
1000
0001
,  // measure 44
0000
0100
0001
0010
0100
0000
0110
0000
,  // measure 45
1002
1000
1000
1000
1000
0000
1003
0000
,  // measure 46
0010
0000
0010
1000
0010
1000
0010
1000
,  // measure 47
0100
0000
0100
0010
0001
0000
0010
0001
,  // measure 48
1000
0000
1000
0001
1000
0001
0100
0010
,  // measure 49
1000
0010
1000
0010
0100
0001
0100
0001
,  // measure 50
0010
0100
1100
0000
0010
0100
0101
0000
,  // measure 51
1000
0010
1010
0000
0001
0010
0011
0000
,  // measure 52
1000
0100
0001
0000
0001
0100
1000
0000
,  // measure 53
0010
0100
0001
0010
0100
1000
0100
0001
,  // measure 54
0101
0000
1000
0010
1010
0010
1000
0100
,  // measure 55
0110
0100
1000
0001
0101
0001
0100
0001
,  // measure 56
0100
0110
0000
1100
1100
1100
0000
0010
,  // measure 57
0110
1001
0120
1030
,  // measure 58
0001
0000
0100
0100
0100
0000
0010
0000
1000
0000
0100
0100
0100
0000
0010
0000
,  // measure 59
0002
0023
0230
2300
3200
0000
1300
0000
,  // measure 60
1000
0000
0010
0010
0010
0000
0100
0000
0001
0000
0010
0010
0010
0000
0100
0000
,  // measure 61
2000
3020
0230
0302
0203
0000
0301
0000
,  // measure 62
0100
0000
0010
0010
0010
0000
1000
0000
0001
0000
0100
0100
0100
0000
0001
0000
,  // measure 63
2000
3200
0302
0203
2300
0000
3001
0000
,  // measure 64
1000
0000
0010
0010
0010
0000
0100
0000
0001
0000
1000
1000
1000
0000
0001
0000
,  // measure 65
1001
0110
2002
3003
;
