#TITLE:見習い天使と星降りの丘;
#SUBTITLE:;
#ARTIST:DJ TOTTO;
#TITLETRANSLIT:Minarai tenshi to hoshifuri no oka;
#SUBTITLETRANSLIT:;
#ARTISTTRANSLIT:;
#GENRE:;
#CREDIT:;
#MENUCOLOR:;
#METERTYPE:DDR;
#BANNER:Minarai tenshi to hoshifuri no oka.png;
#BACKGROUND:Minarai tenshi to hoshifuri no oka-bg.png;
#LYRICSPATH:;
#CDTITLE:./CDTITLES/GITADORA.PNG;
#MUSIC:Minarai tenshi to hoshifuri no oka.mp3;
#OFFSET:-0.435;
#SAMPLESTART:56.280;
#SAMPLELENGTH:15.000;
#SELECTABLE:YES;
#LISTSORT:;
#BPMS:0.000=174.000;
#STOPS:;
#BGCHANGES:-4.000=Minarai tenshi to hoshifuri no oka.avi=1.000=1=0=0,
99999=-nosongbg-=1.000=0=0=0 // don't automatically add -songbackground-
;
#ATTACKS:;

//---------------dance-single - ----------------
#NOTES:
     dance-single:
     :
     Beginner:
     3:
     0.135,0.172,0.054,0.000,0.000:
0000
0000
0000
0000
,
0000
0000
0000
0000
,
0000
0000
0000
0000
,
0000
0000
0010
0000
,
0000
0100
0000
0000
,
0000
0001
0000
0000
,
1000
0000
0000
0000
,
0001
0000
0000
0000
,
0000
0000
0000
0000
,
0000
0100
0000
0100
,
0000
0100
0000
0000
,
0000
0010
0000
0010
,
0000
0010
0000
0000
,
0000
1000
0000
1000
,
1000
0000
0000
0000
,
1001
0000
0000
0010
,
0000
0000
0000
0000
,
0100
0000
0000
0000
,
0001
0000
0000
0000
,
1000
0000
0000
0000
,
0010
0000
0100
0000
,
0100
0000
0000
0000
,
0001
0000
1000
0000
,
0001
0000
0000
0010
,
0000
0000
0000
0000
,
0100
0000
0100
0000
,
0100
0000
0000
0000
,
0010
0000
0010
0000
,
0010
0000
0000
0000
,
1001
0000
1000
0000
,
1000
0000
0000
0000
,
0001
0000
0001
0000
,
0001
0000
0000
0000
,
1000
0000
1000
0000
,
1000
0000
1000
0000
,
1000
0000
0000
0000
,
0001
0000
0000
0000
,
0010
0000
0010
0000
,
0010
0000
0010
0000
,
0100
0000
0000
0000
,
1001
0000
0000
0000
,
1000
0000
0000
0000
,
0001
0000
0000
0000
,
0010
0000
0000
0000
,
0100
0000
0000
0000
,
1000
0000
0000
0000
,
0001
0000
0000
0000
,
0000
0000
0100
0000
,
0100
0000
0100
0000
,
0010
0000
0000
0000
,
1000
0000
0000
0000
,
0001
0000
0000
0000
,
0010
0000
0000
0000
,
0100
0000
0000
0000
,
1000
0000
0000
0000
,
0000
1001
0000
0000
,
1000
0000
1000
0000
,
0001
0000
0001
0000
,
0001
0000
0001
0000
,
0001
0000
0001
0000
,
0001
0000
0000
0000
,
0000
1000
0000
1000
,
0000
1000
0000
1000
,
1000
0000
0000
0000
,
0010
0000
0000
0000
,
0100
0000
0100
0000
,
0100
0000
0100
0000
,
0010
0000
0010
0000
,
0010
0000
0000
0000
,
1000
0000
1000
0000
,
1000
0000
1000
0000
,
0001
0000
0001
0000
,
0001
0000
0000
0000
,
1001
0000
0000
0000
,
1000
0000
0000
0000
,
0110
0000
0000
0000
,
0000
0000
0010
0000
;

//---------------dance-single - ----------------
#NOTES:
     dance-single:
     :
     Easy:
     7:
     0.358,0.426,0.324,0.369,0.059: // measure 1
0000
0000
0000
0000
,  // measure 2
0000
0000
0000
0000
,  // measure 3
0000
0000
0000
0000
,  // measure 4
0000
0000
1000
0000
,  // measure 5
0000
0011
0000
0000
,  // measure 6
0100
1000
0000
0000
,  // measure 7
0110
0000
0000
0001
,  // measure 8
0010
0000
0000
0000
,  // measure 9
0220
0000
0000
0330
,  // measure 10
1000
0000
0001
0000
,  // measure 11
1000
0100
0010
0010
,  // measure 12
0001
0000
0100
0000
,  // measure 13
0001
0100
0010
0010
,  // measure 14
1000
0000
0001
0000
,  // measure 15
1000
0000
0100
0000
,  // measure 16
0001
0000
0000
1010
,  // measure 17
0000
0100
0100
0000
,  // measure 18
0002
0000
0000
1003
,  // measure 19
2000
0000
0000
3010
,  // measure 20
0020
0000
0000
0130
,  // measure 21
0200
0000
0000
0301
,  // measure 22
1000
0000
0001
0000
,  // measure 23
0100
0000
0010
0000
,  // measure 24
1001
0000
0000
1100
,  // measure 25
0000
0000
0001
1000
,  // measure 26
0001
0000
0011
0000
,  // measure 27
1000
0000
2200
3300
,  // measure 28
0010
0000
0100
0000
,  // measure 29
0220
0000
0000
0330
,  // measure 30
0001
0000
1100
0000
,  // measure 31
0100
0000
0011
0000
,  // measure 32
1000
0000
1010
0000
,  // measure 33
0001
0000
0101
0000
,  // measure 34
0001
0000
0000
0000
0001
0000
0010
0000
0000
0000
0010
0000
,  // measure 35
0100
0000
0000
0000
0100
0000
2000
0000
0000
0000
0000
0000
,  // measure 36
3010
0000
0000
0000
0010
0000
0100
0000
0000
0000
0100
0000
,  // measure 37
0002
0000
1003
0000
,  // measure 38
0001
0000
0010
0000
0100
0000
2000
0000
0000
3000
0000
0000
,  // measure 39
1000
0000
0010
0000
0100
0000
0002
0000
0000
0003
0000
0000
,  // measure 40
1000
0000
0001
0000
,  // measure 41
1000
0001
0220
0330
,  // measure 42
0001
0010
0100
0120
,  // measure 43
1000
0001
2000
3030
,  // measure 44
1000
0010
0100
0210
,  // measure 45
0001
1000
0002
0303
,  // measure 46
0010
0001
1100
0002
,  // measure 47
0010
1000
0200
0303
,  // measure 48
1000
0000
0001
0000
,  // measure 49
1000
0001
1000
1001
,  // measure 50
0010
0100
1010
0002
,  // measure 51
0100
1000
0100
0013
,  // measure 52
1000
0100
0011
2000
,  // measure 53
0100
0001
0010
3001
,  // measure 54
0100
0010
1001
0200
,  // measure 55
0001
0010
1000
0301
,  // measure 56
1000
0000
0001
0000
,  // measure 57
1000
0001
0220
0330
,  // measure 58
1010
0000
1010
0000
,  // measure 59
0001
0100
1000
0100
,  // measure 60
0011
0000
0011
0000
,  // measure 61
1000
0100
0001
0100
,  // measure 62
0110
0000
0110
0000
,  // measure 63
1000
0001
0100
0010
,  // measure 64
1001
0000
1001
0000
,  // measure 65
0010
1000
0002
0003
,  // measure 66
1000
1100
0020
0030
,  // measure 67
0001
0101
0020
0030
,  // measure 68
0100
0110
0002
0003
,  // measure 69
0010
0110
2000
3000
,  // measure 70
0001
0000
0100
0100
0002
0000
0003
0000
,  // measure 71
1000
0000
0100
0100
2000
0000
3000
0000
,  // measure 72
0010
0000
1000
1000
0002
0000
0003
0000
,  // measure 73
0100
0001
0001
0000
2000
0000
3000
0000
,  // measure 74
2002
0000
0000
3003
,  // measure 75
0001
0000
1000
0000
0001
0000
0100
0000
0010
0000
0100
0000
,  // measure 76
2002
0000
0000
0000
,  // measure 77
0000
0003
0020
0000
,  // measure 78
0000
0000
0000
0000
,  // measure 79
0000
0000
0000
3030
;

//---------------dance-single - ----------------
#NOTES:
     dance-single:
     :
     Medium:
     11:
     0.598,0.603,0.252,0.450,0.279:
0000
0000
0000
0000
,
0000
0000
0000
0000
,
0000
0000
0000
0000
,
0000
0000
0000
0000
0000
0000
0000
0000
1000
0000
0000
0001
0000
0000
0100
0000
,
0100
0000
0000
0000
0001
0000
0000
1000
0000
0000
0100
0000
0100
0000
0000
0000
,
0011
0000
0000
0000
0100
0000
0000
0010
0000
0000
1000
0000
1000
0000
0000
0000
,
0100
0000
0000
0010
0000
0000
0001
0000
0001
0000
0000
0000
1010
0000
0000
0000
,
0001
0000
0000
1000
0000
0000
1000
0000
0001
0000
0000
0000
0110
0000
0000
0000
,
2002
0000
0000
3003
,
1010
0000
0001
0100
0002
0000
0023
0000
,
0000
0001
0100
1030
,
0010
0000
1000
0100
2000
0000
3020
0000
,
0000
0000
1000
0000
0031
0100
0001
0000
,
2000
0000
3010
0100
0020
0000
0100
0000
,
1000
0001
0200
0330
,
1000
0000
0000
0001
0000
0000
0100
0000
0100
0000
0000
0000
0001
0000
0000
1000
,
0000
0100
0100
0000
1001
0000
0010
0000
,
2000
0000
3100
1000
0002
0000
0103
0000
,
0002
0000
0013
0000
1000
0100
0010
0100
,
2000
0000
3010
1000
0010
0000
0200
0000
,
0001
0000
0310
0000
0001
0010
0100
1000
,
0001
0010
0100
0010
1001
0000
1000
0000
,
0001
0100
0210
0301
,
1000
0000
0000
0001
0000
0000
0100
0000
0100
0000
0000
0000
0001
0000
0000
1000
,
0000
0100
0100
0000
1001
0000
0110
0000
,
1000
0000
0100
0000
0010
0000
0001
0000
0100
0000
0010
0000
,
1000
0000
0010
0000
0001
0000
1000
0000
0100
0000
0001
0000
,
0200
0000
0000
0000
0301
0000
0010
0000
0100
0000
0100
0000
,
2000
0000
0000
0000
3001
0000
0100
0000
0100
0000
0100
0000
,
0001
0000
0010
0000
0100
0000
1000
0000
0001
0000
0010
0000
,
1000
0000
0001
0000
0100
0000
1000
0000
0001
0000
0010
0000
,
0001
0000
0100
0000
0100
0000
0002
0000
0000
0003
0000
0000
,
1000
0000
0100
0000
0100
0000
2000
0000
0000
3000
0000
0000
,
0001
0000
0100
0001
0100
0000
0001
0000
1000
0100
1000
0000
,
0001
0000
0100
0001
0100
0000
0001
0000
0010
0000
0100
0000
,
2000
0000
0010
0000
3010
0000
0100
0000
0001
0000
0010
0100
,
2000
0000
0000
0000
0000
0000
3001
0000
0100
0001
1000
0000
,
0002
0000
0010
0000
1003
0000
0200
0000
0000
0300
0000
0000
,
2000
0000
0010
0000
3001
0000
0100
0000
0001
1000
0000
0000
,
1001
1001
0110
0110
,
1000
0100
0010
0001
0100
0100
0001
0010
,
0200
0000
0310
0001
1000
0001
2000
0000
,
0010
0000
0001
0000
3100
0001
0010
0001
,
0200
0000
1300
0010
0100
0001
0020
0000
,
0001
0000
0100
0000
1030
0100
0010
1000
,
0002
0000
1003
0010
0100
0001
0200
0000
,
0010
0000
1300
0000
0001
1000
0001
1000
,
0000
0000
1001
0000
0000
0110
0000
0000
1000
0000
0000
0000
0001
0000
0000
0000
,
1000
0100
0010
0001
0100
0000
0100
0000
,
0002
0000
0013
0001
0010
0001
0200
0000
,
1000
0000
0010
0000
1300
0001
0100
0010
,
2000
0000
3100
1000
0100
1000
0020
0000
,
0100
0000
0001
0000
1030
0001
0100
0001
,
0020
0000
0031
0100
0001
1000
2000
0000
,
0010
0000
3001
0000
0100
0001
1000
0001
,
2000
0000
0001
0000
0000
0001
0000
0000
0001
0000
0000
0000
3001
0000
0000
0000
,
1000
0010
0100
0001
0200
0000
0300
0000
,
0001
0000
0011
0000
1000
0100
1000
0100
,
0001
0000
0101
0000
0001
0100
1000
0000
,
0010
0000
1010
0000
0001
0010
0001
0010
,
1000
0000
0011
0000
1000
0100
0001
0000
,
0100
0000
0110
0000
0010
1000
0010
1000
,
0001
0000
0101
0000
0001
0100
0010
0000
,
1000
0100
0010
0000
0001
0100
1000
0000
,
0001
0100
0010
0000
1000
0100
0001
0000
,
1000
0200
0010
0300
0001
0200
0010
0300
,
1000
0002
0100
0003
1001
0000
1001
0000
,
0010
2000
0001
3000
0010
0002
1000
0003
,
0100
0000
0002
0000
0010
0000
0003
0000
0100
0000
0000
0110
0000
0000
0001
0000
,
1000
0100
0001
0100
1000
0100
0001
0100
,
1000
2001
0010
3001
,
0001
0100
1000
0001
0010
1000
0001
0100
,
1000
0001
0010
0100
1000
0000
0001
0000
,
2002
0000
0000
3003
,
0010
0000
1000
0000
0001
0000
0100
0000
0001
0000
0010
0000
,
0220
0000
0000
0000
,
0000
0030
0002
0000
,
0000
0000
0000
0000
,
0000
0000
0000
0303
;

//---------------dance-single - ----------------
#NOTES:
     dance-single:
     :
     Hard:
     16:
     0.875,0.993,0.694,0.270,0.838:
0000
0000
0000
0000
,
0000
0000
0000
0000
,
0000
0000
0000
0000
,
0000
0000
0000
0000
0000
0000
0000
0000
1000
0000
0000
1010
0000
0000
0001
0000
,
0100
0000
0000
0000
0010
0000
0000
0011
0000
0000
1000
0000
0100
0000
0000
0000
,
1001
0000
0000
0000
0100
0000
0000
0101
0000
0000
0010
0000
1000
0000
0000
0000
,
0010
0000
0000
0110
0000
0000
0001
0000
1000
0000
0000
0000
0110
0000
0000
0000
,
0010
1000
0010
0100
0000
0001
0000
1000
0000
0001
0010
0000
0100
1000
0010
1000
,
0200
0000
0000
0000
0000
0000
0000
0000
0000
0000
0000
0000
1300
0000
0001
1000
,
0001
0000
0000
0010
0001
0000
0100
0000
0010
0000
0000
1000
0010
0000
0100
0000
,
0001
0000
0000
1000
0100
0000
0010
0000
0100
1000
0100
0000
1000
0010
1000
0000
,
0001
0000
0000
0100
0001
0000
0010
0000
0001
0000
0000
1000
0100
0000
1000
0000
,
0010
0000
0000
0100
0001
0000
1000
0000
0010
1000
0010
0000
0100
0010
0100
0000
,
0010
0000
0000
1000
0010
0000
0100
0000
0001
0000
0000
0010
0001
0000
0010
0000
,
0100
0000
0000
1000
0001
0000
0100
0000
0010
0000
0100
0001
1000
0001
1000
0000
,
0001
0000
0000
0011
0000
0000
1000
0000
0100
0000
0000
0000
1000
0000
0000
1010
,
0000
0000
0001
0000
0100
0000
0000
0000
1001
0000
0000
0000
0010
0000
0100
0001
,
0100
0000
0000
0001
0010
0000
0100
0000
1000
0000
0000
0010
1000
0000
0001
0000
,
0100
0000
0000
0010
0100
0000
0001
0000
0010
0001
0010
0000
0001
0100
0001
0000
,
1000
0000
0000
0010
1000
0000
0010
0000
1000
0000
0000
0100
0010
0000
0001
0000
,
1000
0000
0000
0001
0100
0000
0001
0000
1000
0000
0100
0010
0100
0000
1000
0010
,
1000
0001
0100
0001
1001
0100
0010
1000
,
0110
0000
0000
0100
0001
0000
0010
0000
0001
0000
0000
1000
0100
0000
1000
0000
,
0001
0000
0000
1001
0000
0000
0100
0000
0010
0000
0000
0000
1000
0000
0000
1010
,
0000
0001
0100
0000
0011
0000
1001
0000
,
0001
0100
0001
0100
0001
0000
1000
0100
0010
0100
1000
0000
,
0020
0000
0230
0000
0302
0000
1003
0000
1010
0000
0110
0000
,
0102
0000
0010
0000
1003
0000
2100
0000
3010
1000
0001
1000
,
0100
0000
1000
0100
0001
0100
1000
0000
0001
0100
0001
0000
,
0001
0010
0100
1000
0001
0000
1000
0010
0100
0001
1000
0000
,
0020
0000
0230
0000
0302
0000
0103
0000
0110
0000
1001
0000
,
1000
0010
0100
0001
0100
0001
0020
0000
0001
0000
0130
0000
,
0001
0010
0100
1000
0001
1000
0002
0000
1000
0000
0013
0000
,
1000
0010
1000
0010
0001
0010
0001
0010
1000
0100
1000
0100
,
1000
0000
1100
0000
0110
0000
0011
0000
0101
0000
1010
0000
,
2001
0000
0100
0000
3010
0000
0001
0100
0001
1000
0001
0010
,
2000
0000
0100
0000
3001
0000
0100
0000
0100
0010
0100
0001
,
2000
0000
0000
0000
3001
0010
0200
0000
0000
0000
0310
0001
,
2000
0000
0000
0000
3001
0010
0100
0010
0001
1000
0001
1000
,
0010
0100
0010
0100
0010
0000
0100
0000
0110
0000
0000
0000
0110
0000
0000
0000
,
1001
0000
0001
1000
0001
1000
0001
1000
0002
0000
0000
0000
0003
0000
0000
0000
,
1010
0001
0100
0001
0010
0001
0102
0000
,
1000
0000
0013
0000
1000
0100
0010
0100
,
1001
0100
0001
0010
0001
0100
2010
0000
,
0001
0000
3100
0000
0110
0001
0100
1000
,
0110
0001
0010
1000
0100
0010
0021
0000
,
0001
0000
1030
0000
0001
0100
0010
1000
,
0000
0000
1001
0000
0000
0110
0000
0000
1001
0000
0000
0000
1001
0000
0000
0000
,
0010
0000
1000
0010
0100
0000
0001
0010
0100
0000
1000
0000
0100
0000
0010
0000
,
0011
0000
0100
0000
0001
0000
1000
0001
1000
0000
0100
0000
2100
0000
0000
0000
,
0010
0000
0000
0000
3001
0000
0100
0001
0100
0000
0001
0000
0010
0000
0100
0000
,
1100
0000
0010
0000
0001
0000
1000
0001
1000
0000
0001
0000
0102
0000
0000
0000
,
0010
0000
0000
0000
1003
0000
0100
0010
0100
0000
1000
0000
0010
0000
0100
0000
,
1001
0000
0100
0000
0010
0000
1000
0010
0100
0000
0001
0000
0021
0000
0000
0000
,
0001
0000
0000
0000
0130
0000
0010
0001
1000
0000
0001
0000
0100
0000
0010
0000
,
0100
0000
1001
0000
0000
0110
0000
0000
1001
0000
0000
0000
1001
0000
0000
0000
,
0001
0000
0100
0001
0100
0000
0001
0000
2000
0000
0000
0000
3100
0000
0000
0000
,
1001
0000
0000
0000
1001
0000
0100
0000
0010
0001
0000
0001
1000
0000
0001
0000
,
0100
0001
0000
0001
1000
0000
0010
0000
0100
0000
0010
1000
0100
0000
0000
0000
,
1001
0000
0000
0000
1001
0000
0100
0000
0010
1000
0000
1000
0001
0000
0100
0000
,
0001
0000
1000
0010
1000
0000
0001
0000
0100
0000
0000
1100
0000
0000
0101
0000
,
1001
0000
0000
0000
1001
0000
0010
0000
0001
0010
0000
0010
0100
0000
1000
0000
,
0010
1000
0000
1000
0001
0000
0100
0000
0001
0000
1000
0001
0100
0000
0001
0000
,
1000
0000
0100
0010
0001
0000
0100
0000
0010
1000
0100
0000
0010
0001
0100
0000
,
1001
0000
0010
0000
0100
0001
0100
0000
1001
0000
0100
1000
0000
0001
1000
0000
,
0011
0000
0011
0000
1000
0100
0010
0100
1000
0000
1100
0000
0001
0100
0010
0100
,
0001
0000
0101
0000
1000
0010
0100
0010
1000
0000
0000
0000
1010
0000
0000
0000
,
0001
0000
0010
0000
0001
0100
0001
0100
0010
0000
1010
0000
0100
0001
0100
0001
,
0010
0000
0011
0000
0100
1000
0100
1000
0010
0000
0000
0110
0000
0000
1010
0000
,
0001
0000
1000
0001
0100
0000
0001
1000
0010
0000
1000
0100
0001
0000
0100
1000
,
0010
0100
0210
0000
0001
0000
1300
0000
,
0001
0000
0010
0001
1000
0000
0100
1000
0001
0000
1000
0100
0001
0000
0100
1000
,
0010
0000
0110
0000
0110
0000
0001
1000
0001
0000
0000
1001
0000
0000
0110
0000
,
2002
0000
0000
3003
,
0010
1000
0100
0001
0100
1000
0010
0001
0010
1000
0100
0010
,
2002
0000
0000
0000
,
0000
0003
0020
0000
,
0000
0000
0000
0000
,
0000
0000
0000
3030
;
