#TITLE:腐斯偽堕日本;
#SUBTITLE:;
#ARTIST:Des-ROW · 組 コアスペ;
#TITLETRANSLIT:FUSHIGIDA NIPPON;
#SUBTITLETRANSLIT:;
#ARTISTTRANSLIT:Des-ROW · GUMI core special;
#GENRE:;
#CREDIT:;
#MUSIC:FUSHIGIDA NIPPON.ogg;
#BANNER:FUSHIGIDA NIPPON.png;
#BACKGROUND:FUSHIGIDA NIPPON-bg.png;
#CDTITLE:./CDTITLES/GUITAR FREAKS & DRUMMANIA.PNG;
#SAMPLESTART:93.257;
#SAMPLELENGTH:15.000;
#SELECTABLE:YES;
#OFFSET:0.000;
#BPMS:0.000=175.000;
#STOPS:137.000=1.0285714285714285714285714285714
,139.000=0.51428571428571428571428571428571
,140.500=0.34285714285714285714285714285714
,142.500=0.34285714285714285714285714285714
;
#MENUCOLOR:;
#METERTYPE:DDR;
#LISTSORT:;
#BGCHANGES:0.000=FUSHIGIDA NIPPON.avi=1.000=0=0=0=StretchNoLoop====,
99999.000=-nosongbg-=1.000=0=0=0=StretchNoLoop====
;
#FGCHANGES:;

//--------------- dance-single - t7r ----------------
#NOTES:
     dance-single:
     t7r:
     Beginner:
     3:
     0.147,0.17,0.016,0,0:
0000
0000
0000
0000
,
0000
0000
0000
0000
,
0000
0000
0000
0000
,
0000
0000
0000
0000
,
0000
0000
0000
0000
,
0000
0000
0000
0000
,
1000
0000
0000
0000
,
0001
0000
0000
0000
,
0010
0000
0000
0000
,
0100
0000
0000
0000
,
0000
0010
0000
0010
,
0010
0000
0000
0000
,
0000
0100
0000
0100
,
0100
0000
0000
0000
,
0000
0001
0000
0001
,
0001
0000
0000
0000
,
0000
1000
0000
1000
,
1000
0000
0000
0000
,
0000
0010
0000
0010
,
0010
0000
0000
0000
,
0000
1000
0000
1000
,
1000
0000
0000
0000
,
1001
0000
0000
0001
,
0001
0000
0000
0000
,
0100
0000
0000
0010
,
0010
0000
0000
0000
,
1000
0000
0000
1000
,
1000
0000
0000
0000
,
0000
0001
0000
0001
,
0001
0000
0000
0000
,
0000
0010
0000
0010
,
0010
0000
0000
0000
,
0100
0000
0100
0000
,
0100
0000
0100
0000
,
0010
0000
0000
0000
,
0000
0000
0000
0000
,
0000
0000
0000
1000
0000
0000
0000
1000
,
0000
0000
0000
1000
0000
0000
0000
0000
,
0000
0000
0000
0001
0000
0000
0000
0001
,
0000
0000
0000
0001
0000
0000
0000
0000
,
0000
0000
0000
0000
0000
0010
0000
0000
,
0000
0010
0000
0000
0000
0010
0000
0010
,
0000
0000
0000
0100
0000
0000
0000
0100
,
0000
0000
0000
0100
0000
0000
0000
0100
,
0000
0000
0000
0001
0000
0000
0000
0001
,
0000
0000
0000
0001
0000
0000
0000
0001
,
0000
0000
0000
1000
0000
0000
0000
1000
,
0000
0000
0000
1000
0000
0000
0000
1000
,
0000
0000
0000
0010
0000
0000
0000
0010
,
0000
0000
0000
0010
0000
0000
0000
0010
,
0000
0000
0000
0000
0000
0100
0000
0000
,
0000
0100
0000
0000
0000
0100
0000
0000
,
0000
0000
0000
0000
0000
0001
0000
0000
,
0000
0001
0000
0000
0000
0001
0000
0000
,
0000
0000
0000
0000
0000
1000
0000
0000
,
0000
1000
0000
0000
0000
1000
0000
0000
,
0000
0000
0000
0000
0000
0010
0000
0000
,
0000
0010
0000
0010
0000
0000
0000
0000
,
0000
0000
0000
0000
0000
0100
0000
0000
,
0000
0100
0000
0000
0000
0100
0000
0000
,
0000
0100
0000
0000
0000
0010
0000
0000
,
0000
0010
0000
0000
0000
0010
0000
0000
,
0000
0010
0000
0010
0000
0000
0000
0000
,
0000
0000
0000
1000
0000
0000
0000
0000
,
0000
0000
0000
0001
0000
0000
0000
0000
,
0000
0000
0000
1000
0000
0000
0000
0000
,
0000
0000
0000
0001
0000
0001
0000
0001
,
0000
0001
0000
0001
0000
0000
0000
0000
,
0000
0000
0000
1000
0000
1000
0000
1000
,
0000
1000
0000
1000
0000
0000
0000
0000
,
0000
0000
0000
0010
0000
0010
0000
0010
,
0000
0010
0000
0010
0000
0000
0000
0000
,
0000
0000
0000
0100
0000
0100
0000
0100
,
0000
0100
0000
0100
0000
0000
0000
0000
,
0000
0000
0000
0001
0000
0001
0000
0000
,
0000
0000
0000
0000
,
0000
0000
0000
1000
0000
1000
0000
0000
,
0000
0000
0000
0000
,
0000
0000
0000
0000
0000
0010
0000
0000
,
0000
0010
0000
0010
0000
0000
0000
0000
,
0000
0000
0000
0000
0000
0100
0000
0000
,
0000
0100
0000
0100
0000
0000
0000
0000
,
0000
0000
0000
1001
0000
0000
0000
0000
;

//--------------- dance-single - t7r ----------------
#NOTES:
     dance-single:
     t7r:
     Easy:
     6:
     0.332,0.308,0.157,0.148,0:
0000
0000
0000
0000
,
0000
0000
0000
0000
,
0000
0000
0000
0000
,
0000
0000
0000
0000
,
0000
0000
0000
0000
,
0000
0000
0000
0000
,
0002
0000
0000
0000
,
2003
0000
3020
0000
,
0130
0000
0000
0000
,
0001
1000
0100
1000
,
0001
0001
1000
0001
,
0001
0000
1000
1000
,
0001
0001
1000
0001
,
0001
0000
1000
0001
,
0010
0010
0100
0010
,
0010
0000
0100
0100
,
0010
0010
0100
0010
,
0010
0000
0001
0000
,
1000
1000
0100
0010
,
0010
0000
0001
0000
,
0001
0001
0100
0010
,
0010
0000
1000
0000
,
1001
1000
0001
0100
,
0100
0000
0001
0000
,
0001
0001
1000
0100
,
0100
0000
1000
0000
,
0010
0010
0100
0010
,
0210
0000
0301
0000
,
0010
0010
0100
0010
,
0120
0000
1030
0000
,
1000
1000
0001
1000
,
2001
0000
3001
0000
,
0001
0001
1000
0001
,
1000
0000
0001
0000
,
1001
1001
0000
0000
,
0000
0000
0000
0000
,
0000
0001
0000
1000
0000
0001
0000
1000
,
0000
0001
0000
0001
0000
1000
0000
0001
,
0000
0010
0000
0100
0000
1000
0000
0100
,
0000
0010
0000
0001
0000
0100
0000
0001
,
0000
0000
0000
1000
0000
0010
0000
0100
,
0000
0010
0000
0110
0000
0000
0000
1001
,
0000
0000
0000
0020
0000
1030
0000
1000
,
0000
1000
0000
0010
0000
1000
0000
1000
,
0000
0000
0000
0020
0000
0031
0000
0001
,
0000
0001
0000
0010
0000
0001
0000
0001
,
0000
0000
0000
0200
0000
1300
0000
1000
,
0000
1000
0000
0100
0000
1000
0000
1000
,
0000
0000
0000
0200
0000
0301
0000
0001
,
0000
0001
0000
0100
0000
0000
0000
0110
,
0000
0000
0000
0001
0000
0001
0000
1000
,
0000
0000
0000
1000
0000
0001
0000
0100
,
0000
0000
0000
0001
0000
1000
0000
0001
,
0000
1000
0000
0001
0000
1000
0000
0001
,
0000
1001
0000
1000
0000
0000
0000
0001
,
0000
0000
0000
1000
0000
0000
0000
0100
,
0000
0000
0000
1000
0000
0100
0000
0010
,
0000
0001
0000
0200
0000
0000
0000
0020
,
0000
0330
0000
0010
0000
1010
0000
1000
,
0000
1000
0000
0010
0000
1010
0000
1000
,
0000
1000
0000
0010
0000
0011
0000
0001
,
0000
0001
0000
0100
0000
0000
0000
0001
,
0000
0000
0000
1000
0000
0001
0000
1000
,
0000
0001
0000
0100
0000
0000
0000
0001
,
0000
0000
0000
0010
0000
0100
0000
1000
,
0000
0100
0000
0020
0000
0000
0000
0002
,
0000
0033
0000
1000
0000
0001
0000
1000
,
0000
0100
0000
0001
0000
0100
0000
1000
,
0000
0001
0000
1000
0000
0001
0000
0100
,
0000
1000
0000
0100
0000
0001
0000
1000
,
0000
0001
0000
1001
0000
1000
0000
0010
,
0000
0001
0000
0010
0000
1000
0000
0001
,
0000
1000
0000
0001
0000
0010
0000
1000
,
0000
0010
0000
0001
0000
0100
0000
0010
,
0000
1000
0000
0001
0000
0110
0000
2000
,
0000
3000
0000
1000
0000
1000
0000
0100
,
0000
0100
0000
1000
0000
0110
0000
0002
,
0000
0003
0000
0100
0000
0010
0000
1000
,
0000
0001
0000
0000
0000
0110
0000
0000
,
0000
1001
0000
1000
0000
1000
0000
0001
,
0000
0001
0000
0100
0000
0001
0000
1000
,
0000
0010
0000
0100
0000
0001
0000
0010
,
0000
0100
0000
2002
0000
0000
0000
0000
,
0000
3003
0000
0000
0000
0000
0000
0000
;

//--------------- dance-single - t7r ----------------
#NOTES:
     dance-single:
     t7r:
     Medium:
     10:
     0.526,0.617,0.379,0.231,0:
0000
0000
0000
0000
,
0000
0000
0000
0000
,
0000
0000
0000
0000
,
0000
0000
0000
0000
,
0000
0000
0000
0000
,
0000
0000
0000
0000
,
2000
0000
0000
0000
,
3002
0000
2003
0000
,
3001
0100
0000
0100
0000
0010
0000
1000
,
0000
0001
0000
1000
0000
0001
0100
0000
,
0001
0100
0001
0000
1000
0000
0001
0100
,
0001
0000
1000
0000
0001
0100
0001
0000
,
1000
0100
1000
0000
0001
0000
1000
0100
,
1000
0000
0001
0000
1000
0100
1000
0000
,
0010
0100
0010
0000
1000
0000
0010
0100
,
0010
0000
1000
0000
0010
0100
0010
0000
,
0100
0010
0100
0000
0001
0000
0100
0010
,
0200
0000
0302
0000
,
1003
0100
0010
0000
0001
0000
1000
0100
,
0010
0000
0001
0000
1000
0100
1000
0000
,
0001
0100
0010
0000
1000
0000
0001
0100
,
0010
0000
1000
0000
0001
0100
0001
0000
,
1000
0001
0100
0000
0001
0000
1000
0001
,
0100
0000
0001
0000
1000
0001
1000
0000
,
0001
1000
0100
0000
1000
0000
0001
0000
,
2000
0000
3020
0000
,
0130
0000
0001
0100
0000
0100
0001
0000
,
0110
0000
1000
0000
0001
1000
0100
0000
,
1000
0000
0010
1000
0000
1000
0010
0000
,
0110
0000
0001
0000
1000
0001
0100
0000
,
0001
0000
0010
0100
0000
0100
1000
0000
,
0110
0000
1000
0000
0001
1000
0100
0000
,
1000
0000
0001
0000
0100
0010
0100
0000
,
0001
0000
1000
0000
0010
0100
0001
0000
,
1001
0000
1001
0010
0010
0100
0100
0001
,
1000
1000
1000
0001
1000
1000
0001
1000
,
0001
0001
0000
1001
0000
1000
0000
1001
,
0000
0010
0000
0110
0000
0001
1000
0001
,
0000
0100
0000
1100
0000
0010
0001
0010
,
0000
0001
0000
1001
0000
0001
1000
0100
,
0000
1000
0000
0020
0000
0000
0000
2030
,
0000
0000
0000
3002
0000
0000
0000
0203
,
0000
0000
0000
0302
0000
1003
0100
0000
,
0100
1000
0000
0010
0000
0100
0001
0100
,
0001
0100
0000
2001
0000
3001
0010
0000
,
0010
0001
0000
1000
0000
0001
0100
0010
,
0100
0001
0000
0120
0000
1030
0001
0000
,
0001
1000
0000
0002
0000
1003
0001
0010
,
0001
1000
0000
0020
0000
0130
0000
0101
,
0000
1100
0000
2010
0000
0100
0000
3002
,
0000
0000
0000
1003
0000
0001
0000
0000
,
0100
0010
0000
0100
0000
0010
0100
0000
,
0100
0001
0000
0100
0000
1001
0000
0001
,
1000
0000
0001
1000
0001
0010
0000
0001
,
1000
0001
0100
0001
0000
1000
0000
0010
,
1000
0100
0000
1000
0000
0001
0100
0000
,
0100
0010
0000
0011
0000
1100
0000
0001
,
1000
0100
0000
1000
0001
1000
0000
0002
,
0000
1003
0000
0002
0000
0013
0000
0001
,
0010
0001
0010
2000
0000
3010
0000
0010
,
0001
0010
0001
0200
0000
0301
0000
0001
,
0100
0001
0100
0020
0000
0130
0000
0010
,
0100
0001
0000
1000
0000
1001
0000
0001
,
1000
0100
0000
1000
0000
0001
1000
0000
,
1000
0010
0000
0110
0000
1001
0000
0001
,
1000
0100
0000
1000
0000
0000
0001
0000
,
0000
1000
0000
1001
0000
0110
0000
1100
,
0000
0101
0000
0012
0000
1003
0000
0100
,
0000
0110
0000
1001
0000
1100
0000
0110
,
0000
0011
0000
0110
0000
1100
0000
0110
,
0000
1001
0000
0102
0000
1003
0000
0011
,
0000
1100
0000
2010
0000
3001
0000
0110
,
0000
1001
0000
0100
0000
0010
0000
0100
,
0001
1000
0000
0001
0000
0010
0000
0100
,
1000
0100
0000
0011
0000
1001
0000
0001
,
1000
0100
0000
1000
0000
1000
0000
0001
,
1000
0010
0000
0100
0000
0010
0000
1000
,
0010
0100
0000
0001
0000
0010
0000
0100
,
1000
0100
0000
0010
0000
1001
0000
1000
,
0001
0100
0000
0001
0000
1001
0000
0001
,
1000
0100
0000
0010
0001
0010
0000
0100
,
1000
0100
0000
0001
0010
0100
1000
0100
,
0010
0001
0000
2002
0000
0000
0000
0000
,
0000
3003
0000
0000
0000
0000
0000
0000
;

//--------------- dance-single - t7r ----------------
#NOTES:
     dance-single:
     t7r:
     Hard:
     12:
     0.672,0.719,0.577,0.14,0.037:
0000
0000
0000
0000
,
0000
0000
0000
0000
,
0000
0000
0000
0000
,
0000
0000
0000
0000
,
0000
0000
0000
0000
,
0000
0000
0000
0000
,
2000
0000
0000
0000
,
3002
0000
2003
0000
,
3010
0100
0000
0101
0000
1010
0000
0011
,
0000
1100
0000
1001
0000
0010
0100
0001
,
1000
0001
0100
0000
0001
1000
0001
0100
,
0010
0000
0100
0001
1000
0001
0100
0000
,
0001
0010
0100
0000
1000
0100
0010
0100
,
1000
0000
0010
0100
0001
0100
0010
0000
,
1000
0001
0100
0000
0001
1000
0010
1000
,
0001
0000
0010
0001
0100
0001
0010
0000
,
0100
1000
0001
0000
1000
0100
0010
0001
,
0100
0000
0000
0110
0000
0000
0001
0000
0101
0000
0000
0000
1001
0000
0000
0000
,
0001
0100
0010
0000
0001
0100
0010
1000
,
0100
0000
1000
0100
0010
0100
1000
0000
,
1000
0010
0100
0000
1000
0010
0100
0001
,
0100
0000
0001
1000
0001
0100
0001
0000
,
1001
0010
1000
0000
0001
0100
0001
0010
,
0001
0000
1000
0100
0001
0100
1000
0000
,
0010
1000
0100
0000
0010
0001
0100
0001
,
1000
0000
0000
1001
0000
0000
0100
0000
0110
0000
0000
0000
1001
0000
0000
0000
,
0011
0000
0011
1000
0000
0100
0001
0000
,
2100
0000
3001
1000
0100
1000
0001
0000
,
0110
0000
0110
0001
0000
0010
0100
0000
,
0210
0000
0301
0100
0010
1000
0100
0000
,
0110
0000
1100
1000
0000
0010
0100
0000
,
0012
0000
1003
0010
0100
0001
1000
0000
,
0001
0100
0010
1000
0001
0100
0001
0100
,
0010
1000
0100
0001
0100
0000
1001
0000
,
0110
0100
0001
1000
0010
0100
1001
0001
,
0100
0101
1000
0010
1000
1001
0001
0100
,
0001
1001
0001
0100
1000
0100
0000
0001
,
1000
0100
0000
1001
0000
1000
0100
0001
,
0100
1000
0000
1001
0000
0110
0000
1010
,
0000
0000
0011
0000
0000
0000
1100
0000
0000
0100
0000
0000
2100
0000
0000
0000
,
0000
3001
0000
0100
0000
0110
0000
0001
,
1000
0000
0100
0000
0000
0000
0010
0000
0000
0110
0000
0000
0001
0000
0100
0000
,
0000
1001
0000
2010
0000
3010
1000
0010
,
1000
0010
1000
0020
0000
0130
0001
0100
,
0001
0100
0000
0002
0000
1003
0001
1000
,
0001
1000
0001
0020
0000
0130
0010
0001
,
0100
0001
0000
2010
0000
3001
1000
0100
,
1000
0001
1000
0002
0000
0013
0001
0100
,
0001
0010
0000
0210
0000
1300
0100
0010
,
0001
1000
0100
1000
0001
0100
0000
0010
,
0100
0000
0001
0000
1000
0000
1001
0000
0000
0000
0010
0000
0000
0010
0100
0000
,
0001
1000
0000
0001
0010
0100
1000
0100
,
0010
0001
0000
1100
0000
1001
0000
0010
,
0100
0000
0110
0001
1000
0001
0010
0100
,
1000
0000
0001
0000
0000
0000
0110
0000
0000
0000
1010
0000
0000
0001
0100
0000
,
0001
1000
0000
0001
0100
0010
1000
0100
,
1000
0000
0001
0000
0000
0000
1010
0000
0000
0000
1100
0000
0000
1000
0100
0000
,
1000
0001
0000
0100
0010
1000
0001
2000
,
0000
3001
0000
1000
0100
1000
0100
0001
,
0100
1000
0010
1000
0100
1000
0100
0010
,
0100
1000
0100
0001
0100
0001
0100
0001
,
0010
0001
1000
0001
0100
0001
0100
0001
,
0010
0000
0100
0000
1000
0000
0110
0000
0000
0000
1001
0000
0000
0001
0100
0000
,
0001
1000
0000
0001
0010
0001
1000
0001
,
0100
0000
0101
0000
0000
0000
0110
0000
0000
0000
0011
0000
0000
1000
0100
0000
,
1000
0001
0000
1000
0100
0100
0100
1000
,
0010
1001
0000
0001
0100
0001
0100
0001
,
0010
0100
1000
0110
0001
0100
0001
0010
,
0100
1000
0001
1001
0010
1000
0001
0100
,
0001
0100
0001
1100
0001
0010
0100
0110
,
0001
0110
0000
1001
0010
1000
0001
1000
,
0100
1000
0100
0110
0001
0100
0001
1000
,
0010
0100
0010
0110
0010
0010
0010
1000
,
1000
0001
0001
0100
0001
1000
0010
0100
,
0001
0100
0000
1001
0000
1001
0000
0001
,
1000
0100
0000
1000
0001
0100
0010
1000
,
0001
1000
0000
1001
0000
1010
0000
1000
,
0100
0011
0000
1000
0100
0001
0100
1000
,
0001
1000
0000
0010
0000
1001
0000
0100
,
0001
0100
0000
0010
1000
0001
0100
0001
,
0010
0001
0000
0100
0000
1001
0000
0010
,
1000
0100
0000
0010
0001
0100
1000
0010
,
0001
1000
0001
2002
0000
0000
0000
0000
,
0000
3003
0000
0000
0000
0000
0000
0000
;

//--------------- dance-single - t7r ----------------
#NOTES:
     dance-single:
     t7r:
     Challenge:
     16:
     0.948,1,0.503,0.041,0.61:
0000
0000
0000
0000
,
0000
0000
0000
0000
,
0000
0000
0000
0000
,
0000
0000
0000
0000
,
0000
0000
0000
0000
,
0000
0000
0000
0000
,
0010
0000
0100
0000
0100
0000
0001
0010
0001
0000
1000
0000
0100
0010
0001
0000
,
1000
0000
0010
0000
0010
0000
1000
0001
1000
0000
0010
0000
0100
0010
1000
0000
,
0010
0000
0100
0000
0100
0000
0001
0000
1000
0001
0100
0000
0001
1000
0010
0000
,
1000
0000
0010
0100
0001
0000
1000
0000
0001
0000
0010
0100
1000
0000
0001
0000
,
1000
0000
0100
0000
0010
0000
0000
0100
1000
0000
0100
0000
0010
0000
0001
0000
,
0100
0000
0010
0000
1000
0000
0000
0010
0100
0000
0001
0000
1000
0000
0001
0000
,
0010
0000
0001
0000
0100
0000
0000
0010
1000
0000
0010
0000
0100
0000
0001
0000
,
1000
0000
0100
0000
0010
0000
0000
0100
1000
0000
0100
0000
0110
0000
0000
0000
,
1001
0000
0010
0000
0100
0000
0000
0010
1000
0000
0010
0000
0100
0000
0001
0000
,
1000
0000
0100
0000
0010
0000
0000
0100
1000
0000
0001
0000
0010
0000
0001
0000
,
0100
0000
0010
0000
1000
0000
0000
0010
0100
0000
0001
0000
1000
0000
0001
1000
,
0100
0000
1000
0000
0010
0000
0100
0000
0001
0000
1000
0001
0100
0010
0100
0010
,
1000
0000
0001
0000
0010
0000
0100
0010
0001
0000
1000
0000
0010
0000
0100
0000
,
0010
0000
1000
0000
0001
0000
0100
0001
1000
0000
0010
0000
0100
0000
0010
0000
,
1000
0000
0100
0000
0010
0000
0100
1000
0010
0000
0100
0000
0001
0000
0010
0000
,
0100
0000
0010
0000
0001
0000
0100
0001
0010
0000
0100
0000
0011
0000
0000
0000
,
1001
0000
0010
0000
0100
0000
0010
1000
0001
0000
1000
0000
0100
0000
0010
0000
,
0100
0000
1000
0000
0010
0000
0100
0001
1000
0000
0001
0000
0010
0000
0100
0000
,
0010
0000
0001
0000
0100
0000
0010
0100
0001
0000
1000
0000
0010
0000
0100
0000
,
0010
1000
0010
0000
0100
0000
0010
1000
0100
0000
0100
0000
0010
0001
0100
0001
,
1000
0100
0001
0101
0001
0100
1000
0010
,
1010
0000
0010
0000
0010
0000
0100
0010
1000
0000
0001
0000
1001
0000
0010
0000
,
1001
0100
1000
1100
1000
0100
0001
0010
,
0011
0000
0001
0000
0001
0000
1000
0001
0100
0000
0110
0000
1000
0000
0001
1000
,
0010
1000
0100
1100
1000
0100
0010
0001
,
0101
0001
1000
1001
0010
0100
0101
1000
,
0010
0000
0010
0000
0110
0000
0100
0001
1000
0000
0001
0000
1001
0000
1000
0100
,
0010
0000
0001
0000
0011
0000
0001
1000
0010
0000
0100
0000
0001
1000
0100
0000
,
1000
0100
1100
0010
0010
0001
0011
0001
,
0100
0110
1000
0010
0100
0110
0010
1000
,
0001
0010
0001
0000
1000
0100
1000
0000
0001
1000
0001
0000
0100
0000
0010
1000
,
0010
0000
1000
0000
0100
1000
0100
0000
0010
0000
0010
0001
0100
0000
0001
0000
,
0100
0000
0010
0100
0010
0100
0001
0000
1000
0000
0100
0000
1000
0000
1100
0000
,
0100
0010
0001
0000
1001
0000
0010
0000
0100
0000
0001
0000
1000
0001
0100
0001
,
1000
0000
0001
0000
1000
0100
0010
0000
0001
0000
0100
0000
0001
0000
1001
0000
,
0010
0000
0100
0000
1000
0000
0011
0000
0000
1001
0000
0000
0101
0000
0010
0000
,
0100
0000
0001
1000
0100
1000
0002
0000
0000
0000
0013
0000
0001
0000
0100
0000
,
0001
0000
0010
0000
0001
0010
0100
0000
1000
0000
0010
0000
1000
0000
0100
0000
,
1000
0010
0100
0102
0000
1003
0010
0100
,
0010
0000
1000
0000
0100
0010
0001
0000
0010
0000
1000
0000
0010
0000
0001
0000
,
0100
0000
1000
0000
0100
0001
2000
0000
0000
0000
3010
0000
0100
0000
0001
0000
,
0100
0000
0001
0000
0010
0100
1000
0000
0100
0000
1000
0000
0010
0000
0100
0000
,
0001
0000
1000
0001
1000
0001
0100
0000
0001
0000
0101
0000
0001
0000
0010
0001
,
0010
0000
0011
0000
0001
0000
1000
0000
0110
0000
0010
0100
0010
0100
0001
1000
,
0001
1000
0001
0010
0100
1000
0001
0000
0010
0000
0001
0000
0100
0001
1000
0000
,
0010
0000
1000
0000
0001
0000
1000
0000
0100
0000
0010
0000
0100
1000
0001
1000
,
0001
0000
0110
0000
0100
0010
1000
0000
0010
0000
1010
0000
0010
0000
1010
0000
,
1010
0000
0010
0000
1010
0000
0100
0000
0010
1000
0100
0000
0010
0001
0100
0000
,
0010
1000
0001
1000
0001
0010
0100
0000
0010
0000
0001
0000
0100
0010
1000
0000
,
0010
0000
0100
0000
0001
0000
1000
0000
0001
0000
0010
0000
0001
1000
0100
1000
,
0100
1000
0010
0000
1000
0001
1000
0000
0010
0000
0001
0000
0010
1000
0100
0000
,
1000
0000
0001
0000
0010
0001
1000
0000
1001
0000
0001
0000
1001
0000
0010
0000
,
0100
0001
0010
0001
0100
0000
0001
0000
0010
0000
0100
0010
0001
0000
1000
0000
,
0010
0000
0100
0010
1000
0000
0010
0000
1000
0000
0001
1000
0100
0000
1000
0000
,
0001
0000
0010
0001
1000
0000
0001
0000
0100
0000
0010
1000
0100
0000
1000
0000
,
0100
0000
0010
0001
0100
0000
0001
0000
0100
0000
0010
1000
0001
0000
1000
0000
,
0100
0010
0001
0010
0100
1000
0100
0000
1000
0000
0001
0000
0100
0001
1000
0001
,
0100
0000
0001
0000
1000
0001
0010
0000
0001
0000
1000
0000
0001
1000
0100
1000
,
0001
0000
1010
0000
0010
0100
0001
0000
0100
0000
0001
0000
0010
0001
0100
0001
,
0010
0000
0001
0000
1000
0001
1000
0010
1000
0010
0100
0001
0100
0001
1000
0100
,
0010
0100
1000
0001
0100
0001
1000
0000
1010
0000
1000
0000
1010
0000
1000
0000
,
0100
0010
0001
0000
1000
0000
0001
0000
0011
0000
0001
0000
0010
0001
1000
0000
,
0001
1000
0100
0000
0110
0000
0010
0000
0011
0000
0010
0000
0011
0000
0001
0000
,
0100
0010
1000
0000
0001
0000
1000
0000
0010
0100
0001
0000
1000
0000
0001
0000
,
0110
1000
0110
0001
0011
0001
0101
0001
,
1000
0001
0100
0000
0001
0000
1000
0000
1010
0000
1000
0000
0001
1000
0001
0000
,
0100
0010
1000
0000
0010
0100
0001
0100
0001
0100
0010
0100
0010
0100
0001
0010
,
0001
0010
0100
0010
0100
0010
0001
0010
0001
0010
0001
1000
0001
1000
0010
0100
,
0010
0100
0001
1000
0100
1000
0001
0000
0000
0000
1001
0000
0000
0000
0010
1000
,
0100
1000
0010
0000
1000
0000
0001
0000
0010
0000
0100
0000
1000
0000
0010
0100
,
0001
0100
0010
0000
1000
0000
1010
0000
0000
0000
0110
0000
0000
0000
0010
1000
,
0001
1000
0010
0000
1000
0000
0010
0000
0100
0000
0001
0000
1000
0000
0100
0000
,
0011
0000
0100
0000
1000
0000
0100
0000
0100
0000
0011
0000
0100
0010
1000
0000
,
1010
0000
0010
0000
0100
0000
1010
0000
1000
0000
0001
1000
0000
1000
0010
0000
,
1000
0000
0010
1000
0100
1000
0010
0000
0100
0000
0110
0000
0010
0100
0001
0000
,
1000
0001
0010
0001
0000
0011
0000
0010
,
0001
0100
0010
0000
0100
0000
2002
0000
0000
0000
0000
0000
0000
0000
0000
0000
,
0000
3003
0000
0000
0000
0000
0000
0000
;
