#TITLE:ARACHNE;
#SUBTITLE:;
#ARTIST:MAX MAXIMIZER;
#TITLETRANSLIT:;
#SUBTITLETRANSLIT:;
#ARTISTTRANSLIT:;
#GENRE:;
#CREDIT:;
#MENUCOLOR:;
#METERTYPE:DDR;
#BANNER:ARACHNE.png;
#BACKGROUND:ARACHNE-bg.png;
#LYRICSPATH:;
#CDTITLE:./CDTITLES/REFLEC BEAT.PNG;
#MUSIC:ARACHNE.mp3;
#OFFSET:-0.800;
#SAMPLESTART:70.480;
#SAMPLELENGTH:15.000;
#SELECTABLE:YES;
#LISTSORT:;
#BPMS:0.000=179.000,32.000=89.500,40.000=179.000,120.000=89.500,136.000=179.000,168.000=89.500,174.000=179.000,242.000=89.500,250.000=179.000;
#STOPS:;
#BGCHANGES:;
#ATTACKS:;

//---------------dance-single - ----------------
#NOTES:
     dance-single:
     :
     Beginner:
     4:
     0.108,0.211,0.051,0.000,0.000:
0000
0000
0000
0000
,
0000
0000
0000
0000
,
0000
0000
0000
0000
,
0000
0000
0000
0000
,
1000
0000
0000
0000
,
0001
0000
0000
0000
,
1000
0000
1000
0000
,
0001
0001
0001
0001
,
0000
0000
0000
0000
,
0000
0000
0000
0000
,
0100
0000
0000
0000
,
0000
0000
0000
0000
,
0000
0000
0000
0000
,
0000
0000
0000
0010
,
0010
0000
0000
0000
,
1000
0000
0000
0000
,
0001
0000
0000
0000
,
1000
0000
0000
0000
,
1001
0000
0000
0000
,
0001
0000
0000
0000
,
1000
0000
1000
0000
,
1000
0000
0000
0000
,
0000
0001
0000
0001
,
0000
1000
0000
1000
,
0000
0010
0000
0010
,
0000
0100
0000
0100
,
0100
0000
0000
0000
,
0001
0000
0000
0000
,
1000
0000
1000
0000
,
0010
0010
0010
0010
,
0010
0000
0000
0000
,
0100
0000
0000
0000
,
0001
0000
0000
0000
,
1000
0000
0000
0000
,
1001
0000
0000
0000
,
0000
0000
0000
0000
,
0100
0000
0000
0000
,
0000
0000
0000
0000
,
0010
0000
0000
0000
,
0000
0000
0000
0000
,
0001
0000
0000
0000
,
0000
1000
1000
1000
,
1000
0000
0000
0000
,
0000
0000
0000
0000
,
0000
0000
0001
0000
,
0000
0000
1000
0000
,
0000
0000
0001
0000
,
0000
0000
1000
0000
,
0000
0000
0010
0000
,
0000
0000
0100
0000
,
0000
0000
0010
0000
,
0010
0000
0010
0000
,
0000
0000
0110
0000
,
0000
0000
1000
0000
,
0000
0000
0001
0000
,
0000
0000
1000
0000
,
0000
0000
1001
0000
,
0000
0000
1000
0000
,
0000
0000
0001
0000
,
0001
0000
1000
0000
,
1000
0000
0001
0000
,
0000
0000
0000
0000
,
0000
0000
1000
0000
,
0000
0000
0001
0000
,
0000
0000
1000
0000
,
1000
0000
0001
0000
,
0000
0000
0110
0000
,
0010
0010
0010
0000
,
0100
0100
0100
0000
,
1000
0000
0001
0000
,
1000
0000
1001
0000
;

//---------------dance-single - ----------------
#NOTES:
     dance-single:
     :
     Easy:
     5:
     0.254,0.361,0.196,0.188,0.000:
0000
0000
0000
0000
,
0000
0000
0000
0000
,
0000
0000
0000
0000
,
0000
0000
0000
0000
,
2000
0000
3001
0000
,
0002
0000
0103
0000
,
0020
0000
2030
0000
,
3001
1000
0001
1001
,
0020
0000
0000
0030
,
0200
0000
0000
0300
,
1001
0000
0000
0000
,
0000
0000
0000
0000
,
0000
0000
0000
0000
,
0000
0000
0110
0110
,
1001
0000
0010
0000
,
1000
0000
0100
0000
,
0001
0000
0100
0000
,
1000
0000
0001
0000
,
1000
0000
0010
0000
,
0100
0000
0001
0000
,
1000
0000
1000
0000
,
1000
0000
1000
0000
,
0001
0010
0100
1000
,
0002
0000
0013
0000
,
1000
0010
0100
0001
,
2000
0000
3010
0000
,
0001
1000
0100
1000
,
0020
0000
0130
0000
,
1000
0001
0100
0001
,
0020
0000
0130
0000
,
2002
0000
0000
3003
,
0020
0000
0000
0030
,
0200
0000
0000
0300
,
0002
0000
0000
0003
,
2000
0000
0001
3001
,
0000
0000
0100
0000
,
0020
0000
0100
0130
,
0000
0000
0100
0000
,
2001
0000
0001
3001
,
0000
0000
0001
0000
,
1100
1100
0010
0001
,
0000
0101
0010
1000
,
2002
0000
0000
3003
,
0220
0330
0000
0000
,
0000
0000
1000
1000
,
1000
0010
1000
1000
,
1000
0100
1000
1000
,
1000
0001
1000
1000
,
1000
0010
0001
0001
,
0001
0010
0001
0001
,
0001
1000
0100
0000
,
0100
0000
0010
0001
,
1000
0100
0010
0001
,
0010
1000
0010
0001
,
0100
1000
0100
0001
,
0010
1000
0010
0001
,
1000
0100
1000
0010
,
0100
0001
1000
0010
,
0100
0001
0100
0100
,
0010
0010
1000
0001
,
0100
0001
1000
0000
,
0000
0000
0001
0000
,
0000
0000
1000
0001
1001
0000
0000
0000
,
0000
0000
0110
0000
,
0000
0000
1010
0000
,
0000
0000
0011
0000
,
0000
0000
1100
0100
,
0010
0000
0101
0100
,
0010
0000
1100
0000
,
1001
0000
0101
0010
,
1001
0010
1001
0000
;

//---------------dance-single - ----------------
#NOTES:
     dance-single:
     :
     Medium:
     10:
     0.439,0.511,0.282,0.247,0.137:
0000
0000
0000
0000
,
0000
0000
0000
0000
,
0000
0000
0000
0000
,
0000
0000
0000
0000
,
1000
0000
0000
0001
0000
0000
0100
0000
0000
0000
0010
0000
1000
0000
0010
0000
,
0100
0000
0000
0001
0000
0000
0010
0000
0000
0000
0100
0000
1000
0000
0100
0000
,
0010
0000
0001
1000
0010
0000
1000
0001
,
0100
0010
0100
0110
,
2002
0000
0000
3003
,
0020
0000
0000
0030
,
0100
0000
0000
0100
0000
0000
0100
0000
0100
0000
0000
0000
0100
0000
0000
0000
,
0100
0000
0000
0100
0000
0000
0100
0000
0100
0000
0000
0000
0100
0000
0000
0000
,
0010
0000
0000
0010
0000
0000
0010
0000
0010
0000
0000
0000
0010
0000
0000
0000
,
1000
0000
0000
1000
0000
0000
1000
0000
0001
0000
0000
0000
1001
0000
0000
0000
,
0001
0000
0000
0010
0000
0000
0100
0000
0000
0000
0100
0000
0100
0000
0000
0000
,
1000
0000
0000
0010
0000
0000
0100
0000
0000
0000
0100
0000
0100
0000
0000
0000
,
0010
0000
0000
1000
0000
0000
0001
0000
0000
0000
1000
0000
1000
0000
0000
0000
,
0001
0000
0000
1000
0000
0000
0010
0000
0100
0000
0000
0000
0100
0000
0000
0000
,
0001
0000
0000
0010
0000
0000
0100
0000
0000
0000
1000
0000
1000
0000
0000
0000
,
1000
0000
0000
0010
0000
0000
0100
0000
0000
0000
0001
0000
0001
0000
0000
0000
,
1000
0000
0000
0001
0000
0000
0001
0000
1000
0000
0000
0001
0000
0000
0001
0000
,
1000
0000
0000
0001
0000
0000
0001
0000
0000
0000
1000
0000
0001
0000
0000
0000
,
1000
0100
0000
0010
0001
0100
0000
0010
,
1000
0001
0000
1000
0001
0100
0000
0010
,
1000
0010
0000
0100
0001
0100
0000
0001
,
0010
0001
0000
1000
0100
0010
0000
0100
,
1000
1010
0001
0011
,
1000
1100
0001
0101
,
0010
0110
0100
1001
,
0010
0000
0011
0000
0001
0010
0100
1000
,
0020
0000
0000
0030
,
0200
0000
0000
0300
,
0002
0000
0000
0003
,
2000
0000
0000
3000
,
1001
0000
0000
0000
0010
1000
0010
1000
,
0200
0000
1300
0000
,
1100
0000
0000
0000
0010
0001
0010
0001
,
0200
0000
0000
0000
0301
0100
0000
0100
,
0001
0000
0000
0000
1000
0010
1000
0010
,
0200
0000
0000
0000
0310
1000
0000
1000
,
0001
0000
1001
0000
1000
0001
1000
0001
,
0000
0100
0010
0000
0110
0000
1001
0000
,
0020
0000
0000
0030
,
0200
0300
0000
0000
,
0000
0000
0000
0000
0000
0000
0000
0000
1000
0000
0000
0100
0000
0000
0020
0000
,
0000
0000
0130
0000
1000
0000
0010
0000
0100
0000
0000
0001
0000
0000
0020
0000
,
0000
0000
0031
0000
0010
0000
0100
0000
1000
0000
0000
0010
0000
0000
2000
0000
,
0000
0000
3001
0000
1000
0000
0100
0000
1000
0000
0000
0001
0000
0000
1000
0000
,
0001
0000
0000
0000
0101
0000
0000
0000
0001
0000
0000
0100
0000
0000
0020
0000
,
0000
0000
1030
0000
0010
0000
0100
0000
0010
0000
0000
1000
0000
0000
0200
0000
,
0000
0000
1300
0000
0100
0000
0010
0000
0001
0000
0000
0010
0000
0000
0010
0000
,
0001
0000
0000
0010
0000
0000
0010
0000
0001
0000
0000
1000
0000
0000
1000
0000
,
0000
0000
0001
0000
0100
0000
0001
0000
1000
0000
0000
0010
0000
0000
0010
0000
,
1000
0000
0000
0000
0100
0000
0000
0000
1000
0000
0000
0010
0000
0000
0010
0000
,
1000
0000
0000
0000
0001
0000
0000
0000
0100
0000
0000
0001
0000
0000
0001
0000
,
0010
0000
0000
0001
0000
0000
0001
0000
1000
0000
0000
0001
0000
0000
0001
0000
,
1000
0000
1001
0000
0010
1000
0100
0000
,
0010
0001
0100
0000
0010
1000
0001
0000
,
0010
0000
0001
0000
1000
0000
0000
0000
0100
0000
0000
0010
0000
0000
0010
0000
,
0100
0000
0000
1000
0000
0000
1000
0000
0001
0000
0000
0100
0000
0000
0100
0000
,
0010
0000
0110
0000
2000
0000
0001
3001
,
0002
0000
0010
0013
0020
0000
0100
0100
,
0230
0000
1300
0100
2002
0000
0000
0000
,
0000
3003
0220
0000
,
0000
0330
2002
0000
,
0000
3003
2200
3300
,
0010
0000
0001
0000
0101
0000
0010
1000
,
0100
0000
1100
0000
1010
0000
0010
1000
,
0001
0000
0110
0000
0110
0010
0100
0000
,
0110
0100
0010
0000
1001
0000
1100
0000
,
1001
0011
1001
0000
;

//---------------dance-single - ----------------
#NOTES:
     dance-single:
     :
     Hard:
     14:
     0.663,0.812,0.512,0.427,0.333: // measure 1
0000
0000
0000
0000
,  // measure 2
0000
0000
0000
0000
,  // measure 3
0000
0000
0000
0000
,  // measure 4
0000
0000
0000
0000
,  // measure 5
0020
0000
0000
0100
0000
0000
0100
0000
0000
0000
0130
0000
0001
0000
1000
0000
,  // measure 6
0002
0000
0000
0010
0000
0000
0010
0000
0000
0000
1003
0000
0100
0000
1000
0000
,  // measure 7
0110
0000
0001
1000
1010
0000
1000
0001
,  // measure 8
0011
1100
0101
1010
,  // measure 9
2002
0000
0000
3003
,  // measure 10
0220
0000
0000
0330
,  // measure 11
0101
0000
0000
0100
0000
0000
0100
0000
0100
0000
0100
0000
0001
0000
0010
0000
,  // measure 12
0100
0000
0000
0100
0000
0000
0100
0000
0100
0000
0100
0000
1000
0000
0010
0000
,  // measure 13
0100
0000
0000
0100
0000
0000
0100
0000
0100
0000
0100
0000
0001
0000
0010
0000
,  // measure 14
0100
0000
0000
0100
0000
0000
0100
0000
1000
0000
0001
1000
0100
0000
0000
0000
,  // measure 15
1100
0000
0000
0100
1000
0000
0020
0000
0000
0000
1030
0000
0010
0000
0100
0000
,  // measure 16
0001
0000
0000
0001
0010
0000
0002
0000
0000
0000
1003
0000
0001
0000
0100
0000
,  // measure 17
0010
0000
0000
0010
0100
0000
0020
0000
0000
0000
0130
0000
0001
0000
1000
0000
,  // measure 18
0100
0000
0000
0100
1000
0000
0100
0000
0010
0000
0001
0000
1000
0000
0001
0000
,  // measure 19
1001
0000
0000
0001
0100
0000
0002
0000
0000
0000
0013
0000
0001
0000
1000
0000
,  // measure 20
0100
0000
0000
0100
1000
0000
0020
0000
0000
0000
0130
0000
0001
0000
1000
0000
,  // measure 21
1100
0000
0000
0100
0000
0000
0100
0000
0110
0000
0000
0100
0000
0000
0100
0000
,  // measure 22
0101
0000
0000
0100
0000
0000
1100
0000
0010
0000
0001
0000
1000
0000
0001
0000
,  // measure 23
1001
0000
0000
0001
1000
0000
0020
0000
0000
0000
0130
0000
0001
0000
0100
0000
,  // measure 24
0010
0000
0000
0010
1000
0000
0200
0000
0000
0000
1300
0000
0100
0000
0010
0000
,  // measure 25
0100
0000
0000
0100
1000
0000
0010
0000
1000
0000
0000
1000
0001
0000
1000
0000
,  // measure 26
0001
0000
0000
0001
0100
0000
0002
0000
0000
0000
1003
0000
0001
0000
1000
0000
,  // measure 27
1001
0010
1000
0010
0100
0001
0010
0001
,  // measure 28
1001
0010
0001
0010
1000
0100
0010
0001
,  // measure 29
1001
0010
1000
0001
1001
0010
0001
1000
,  // measure 30
0110
0001
0110
1000
1100
0010
0101
0010
,  // measure 31
2002
0000
0000
3003
,  // measure 32
0020
0000
0000
0030
,  // measure 33
0220
0000
0000
0330
,  // measure 34
0002
0000
0000
0003
,  // measure 35
2200
0000
3300
0000
0001
0010
0100
1000
,  // measure 36
0002
0000
0000
0000
1003
0100
0000
0100
,  // measure 37
2002
0000
3003
0000
1000
0010
0100
0001
,  // measure 38
0200
0000
0000
0000
0000
0000
0310
0100
0001
0000
1000
0000
0000
0000
1000
0000
,  // measure 39
0022
0000
0033
0000
1000
0100
0010
0001
,  // measure 40
0200
0000
0000
0000
0301
0100
0000
0100
,  // measure 41
1001
0000
0011
0000
1000
0100
0010
0001
,  // measure 42
0000
0100
1100
0000
0011
0000
1010
0000
,  // measure 43
2000
3020
0230
0301
,  // measure 44
0220
0000
0330
0000
0001
1000
0001
0100
,  // measure 45
0001
0000
0010
0000
0001
1000
0000
0000
1100
0000
0000
0100
1000
0000
0020
0000
,  // measure 46
0000
0000
0130
0000
0001
0000
0100
0000
0010
0000
0000
0010
1000
0000
0002
0000
,  // measure 47
0000
0000
0013
0000
0001
0000
0010
0000
0100
0000
0000
0100
0010
0000
0200
0000
,  // measure 48
0000
0000
1300
0000
0010
0000
0100
0000
0010
0000
0000
0010
1000
0000
0001
0000
,  // measure 49
1000
0000
0001
0000
0100
0000
0010
0000
1001
0000
0000
0001
0010
0000
0200
0000
,  // measure 50
0000
0000
0310
0000
0001
0000
1000
0000
0100
0000
0000
0100
1000
0000
0020
0000
,  // measure 51
0000
0000
1030
0000
0010
0000
0100
0000
0101
0000
0000
0001
0010
0000
0100
0000
,  // measure 52
1100
0000
0000
1000
0010
0000
0100
0000
0101
0000
0000
0001
1000
0000
0001
0000
,  // measure 53
0010
0000
0100
0000
0010
0000
0100
0000
1001
0000
0001
0010
0000
0001
0020
0000
,  // measure 54
0000
0000
0031
0000
0100
0000
0001
0000
1000
0000
0010
1000
0000
0010
2000
0000
,  // measure 55
0000
0000
3010
0000
1000
0000
0001
0000
0101
0000
0100
0001
0000
0100
0001
0000
,  // measure 56
1000
0000
0010
1000
0000
0010
1000
0000
0001
0000
0010
0001
0000
0010
0001
0000
,  // measure 57
1000
0000
0100
0010
0001
0000
1000
0000
1001
0000
0010
1000
0000
0010
0200
0000
,  // measure 58
0000
0000
0301
1000
0001
0000
1000
0000
0001
0000
0010
0001
0000
0010
0002
0000
,  // measure 59
0000
0000
1003
0001
1000
0000
0001
0000
1000
0000
0000
1000
0100
0000
0010
0000
,  // measure 60
0001
0000
0000
0001
0100
0000
0010
0000
1000
0000
0000
1000
0010
0000
0100
0000
,  // measure 61
1001
0000
0000
0000
0000
0000
0000
0000
0110
0000
0000
0000
0000
0000
0000
0000
1001
0000
0000
0010
0000
0000
0010
0000
0100
0000
0100
0000
0100
0000
0001
0000
,  // measure 62
0010
0000
0000
0010
0000
0000
0010
0000
0100
0000
0100
0000
0100
0000
1000
0000
0010
0000
0000
0010
0000
0000
0010
0000
0100
0000
0100
0000
0100
0000
0001
0000
,  // measure 63
0010
0000
0000
0010
0000
0000
0010
0000
0100
0000
1000
0000
0001
1000
0001
0000
2001
0000
0000
0000
0000
0000
0010
0000
0000
0000
0000
0000
0020
0000
0000
0000
,  // measure 64
0000
0000
3130
0000
0001
0000
0010
0000
0012
0000
0000
1000
0000
0000
2000
0000
,  // measure 65
0000
0000
3103
0000
1000
0000
0010
0000
0120
0000
0000
0100
0000
0000
0130
0000
,  // measure 66
0002
0000
0000
0010
0000
0000
0013
0000
2000
0000
0000
0100
0000
0000
0100
0000
,  // measure 67
0000
0010
0010
3001
1001
0000
0010
1000
,  // measure 68
0100
0001
0000
0000
0000
0000
0000
0000
1100
0000
0000
0000
0000
0000
0000
0000
1001
0000
0000
0000
0000
0000
0000
0000
0010
0000
0000
0000
0001
0000
0000
0000
,  // measure 69
0100
1000
0000
0000
0000
0000
0000
0000
1100
0000
0000
0000
0000
0000
0000
0000
0110
0000
0000
0000
0010
0000
0000
0000
1000
0000
0001
0000
1000
0000
0000
0000
,  // measure 70
0110
0000
0010
0000
0001
1000
0001
0000
1100
0000
0000
0000
0011
0000
0000
0000
,  // measure 71
1001
0010
0110
0010
1001
0000
0000
0000
;

//---------------dance-single - ----------------
#NOTES:
     dance-single:
     :
     Challenge:
     18:
     0.975,1.000,0.956,0.486,0.858:
0000
0000
0000
0000
,
0000
0000
0000
0000
,
0000
0000
0000
0000
,
0000
0000
0000
0000
,
0010
0100
0010
0100
0010
0100
0010
0100
0001
0010
0100
1000
0001
0010
0100
1000
,
0010
0100
0010
0100
0010
0100
0010
0100
0001
0010
0100
1000
0001
0010
0100
1000
,
1001
0000
0100
0000
0010
0100
0010
0100
1001
0000
0100
0000
0010
0100
0010
0100
,
1001
0000
0100
0000
1010
0000
0100
0000
0011
0000
0100
1000
1010
0000
0000
0000
,
0210
0302
0023
0230
2300
3200
0302
0023
,
2030
3200
0320
0032
2003
3020
0230
0302
,
2003
0000
0000
0001
0000
0000
0001
0000
0100
0000
0100
0000
0100
0000
3001
0000
,
0020
0000
0000
1000
0000
0000
1000
0000
0100
0000
0100
0000
0001
0000
0130
0000
,
0002
0000
0000
0010
0000
0000
0010
0000
1000
0000
1000
0000
0100
0000
1003
0000
,
0200
0000
0000
1000
0000
0000
1000
0000
0310
0000
0100
0010
1001
0000
0000
0000
,
0101
0000
0000
0001
0100
0000
0002
0000
0000
0000
1003
0000
0010
0000
0100
0000
,
1010
0000
0000
0010
1000
0000
0020
0000
0000
0000
1030
0000
0100
0000
0010
0000
,
0110
0000
0000
0100
1000
0000
0200
0000
0000
0000
1300
0000
0001
0000
0100
0000
,
0101
0000
0000
0001
0100
0000
0001
0000
0010
0000
0001
0000
0010
0000
0100
0000
,
1001
0000
0000
0100
0010
0000
0200
0000
0000
0000
0301
0000
0100
0000
0010
0000
,
1010
0000
0000
1000
0100
0000
0020
0000
0000
0000
0031
0000
0010
0000
0100
0000
,
1100
0000
0000
0001
0100
0000
0001
0000
1010
0000
0000
0001
0010
0000
0001
0000
,
0101
0000
0000
1000
0100
0000
0011
0000
0100
0000
1000
0000
1001
0000
0010
0000
,
0110
0000
0100
0010
1000
0000
0001
0000
0100
0000
0011
0000
1000
0000
0100
0000
,
0011
0000
0100
1000
0010
0000
0100
0000
0001
0000
1001
0000
0010
0000
0100
0000
,
1001
0000
0001
1000
0100
0000
1000
0000
1100
0000
0100
0010
0001
0000
0100
0000
,
0110
0000
0010
0100
0001
0000
0100
0000
0010
0000
1000
0001
0100
0000
0001
0000
,
1001
0010
1100
0010
0101
0010
1001
0010
,
1100
0001
0101
1000
1100
0010
1010
0001
,
1000
0100
1000
0100
1000
0100
1000
0100
0010
0001
0010
0001
0010
0001
0010
0001
,
1010
0000
0001
0100
0010
0000
1000
0100
0010
0000
0100
0000
1010
0000
0100
0000
,
2001
0000
0010
0000
0100
0100
3001
0000
,
0012
0000
0100
0000
1000
1000
0013
0000
,
2001
0000
0010
0000
0001
0001
3100
0000
,
0210
0000
0001
0000
1000
1000
0301
0000
,
2200
0000
3300
0000
1010
1010
0101
0101
,
2000
0000
0000
0000
0000
0000
0000
0000
3000
0000
0000
0000
0000
0000
0000
0001
1000
0000
0000
0000
0100
0000
0000
0000
0000
0000
0000
0000
0100
0000
0000
0000
,
2002
0000
3003
0000
0011
0011
1100
1100
,
0202
0000
0000
0000
0303
0000
1000
0010
1001
0000
0100
0000
0000
0000
0100
0000
,
2002
0000
3003
0000
0110
0110
1100
1100
,
0020
0000
0000
0000
0000
0000
0000
0000
0030
0000
0000
0000
0000
0000
0000
0100
0001
0000
0000
0000
0100
0000
0000
0000
0000
0000
0000
0000
0100
0000
0000
0000
,
0110
0000
1001
0000
1100
1100
0011
0011
,
0000
0000
0100
0000
0101
0000
0000
0000
1010
0000
0001
1000
1010
0000
0000
0000
,
1000
0100
0010
0001
0010
0100
1000
0100
0010
0001
0010
0100
1000
0010
0100
0001
0100
0010
1000
0010
0100
0001
0100
0010
,
2002
0000
0000
0000
3003
0000
0000
0000
0001
0010
0100
1000
0100
0010
0001
0010
,
0100
1000
0100
0010
0001
0100
0000
0000
1100
0000
0000
0100
1000
0000
0020
0000
,
0000
0000
1030
0010
1000
0010
0100
0000
0101
0000
0000
0100
0001
0000
0020
0000
,
0000
0000
0031
0010
0001
0010
0100
0000
1100
0000
0000
0100
1000
0000
0020
0000
,
0000
0000
0130
0010
0100
0010
0100
0000
0110
0000
0000
0100
0001
0000
1000
0000
,
0011
0000
1000
0000
0101
0000
1100
0000
1001
0000
0000
1000
0001
0000
0200
0000
,
0000
0000
0301
0100
0010
0100
0001
0000
0011
0000
0000
0001
0010
0000
0002
0000
,
0000
0000
1003
0100
0010
0100
1000
0000
0011
0000
0000
1000
0100
0000
1000
0000
,
1010
0000
0000
0001
0100
0000
0001
0000
0011
0000
0000
1000
0100
0000
0010
0000
,
0110
0000
0001
1000
0100
1000
0001
0000
0110
0000
1000
0010
0000
1000
0020
0000
,
0000
0000
1030
0100
0010
0100
1000
0000
0101
0000
0001
0010
0000
0001
0020
0000
,
0000
0000
0031
1000
0100
1000
0001
0000
1001
0000
1000
0001
0000
0100
0010
0000
,
0101
0000
0010
1000
0000
0001
1000
0000
0011
0000
1000
0100
0000
0010
0001
0000
,
1100
0000
0001
0100
0010
1000
0001
0000
1001
0000
0100
0010
0000
0100
0020
0000
,
0000
0000
1030
0010
0100
0001
1000
0000
0011
0000
0100
0010
0000
0100
0020
0000
,
0000
0000
0031
1000
0100
1000
0001
0000
1010
0000
0001
0100
0000
0001
0100
0000
,
0011
0000
1000
0100
0000
1000
0100
0000
1010
0000
0001
1000
0000
0100
1000
0000
,
0110
0000
0000
0000
0100
0000
0000
0000
0110
0000
0000
0000
1001
0000
0000
0000
1100
0000
0001
0100
0000
0001
0200
0000
0010
0000
0010
0000
0010
0000
0310
0000
,
0101
0000
1000
0100
0000
1000
0100
0000
0020
0000
0100
0000
0100
0000
0130
0000
1100
0000
0010
0001
0000
0100
0001
0000
0201
0000
0010
0000
1000
0000
0301
0000
,
0011
0000
1000
0100
0000
0001
0100
0000
0110
0000
0001
0000
1000
0010
0100
0001
0010
0000
0100
0000
0010
0000
0100
0000
0010
0000
0100
0000
0010
0000
0100
0000
,
1000
0010
0100
0001
1000
0010
0100
0001
0010
0100
0010
0100
0010
0100
0010
0100
,
1000
0010
0100
0001
1000
0010
0100
0001
0010
0001
0010
0001
1000
0100
1000
0100
,
0010
0001
0100
0010
1000
0010
0100
0001
0100
0001
0100
0001
1000
0010
1000
0010
,
0100
0010
1000
0100
0011
0000
0101
0000
1001
0000
0000
0010
0100
0000
0001
0000
,
0100
0001
0000
0000
0000
0000
0000
0000
0022
0000
0000
0000
0033
0000
0000
0000
1100
0000
0000
0000
0000
0000
0100
0000
1000
0000
0000
0000
0010
0000
0000
0000
,
0100
0010
0000
0000
0000
0000
0000
0000
0220
0000
0000
0000
0330
0000
0000
0000
1010
0000
0000
0000
0101
0000
0000
0000
1000
0000
0100
0000
0001
0000
0100
0000
,
0011
0000
1100
0000
0001
0100
1000
0100
1010
0100
0010
0100
0010
0100
0001
0010
,
0100
1000
0100
1000
0010
0100
0001
1000
1001
0000
0000
0000
0000
0000
0000
0000
;
