#VERSION:0.83;
#TITLE:VOIDDD†;
#SUBTITLE:;
#ARTIST:Des-ROW feat.Kevin Vecchione;
#TITLETRANSLIT:VOIDDD (SPECIAL);
#SUBTITLETRANSLIT:;
#ARTISTTRANSLIT:;
#GENRE:;
#ORIGIN:;
#CREDIT:;
#BANNER:VOIDDD (SPECIAL).png;
#BACKGROUND:VOIDDD (SPECIAL)-bg.png;
#PREVIEWVID:;
#JACKET:VOIDDD (SPECIAL)-jacket.png;
#CDIMAGE:;
#DISCIMAGE:;
#LYRICSPATH:;
#CDTITLE:;
#MUSIC:VOIDDD (SPECIAL).ogg;
#OFFSET:0.000000;
#SAMPLESTART:70.689003;
#SAMPLELENGTH:15.000000;
#SELECTABLE:YES;
#DISPLAYBPM:136.000000:271.000000;
#BPMS:0.000=135.700,
23.000=271.400,
25.000=135.700,
39.000=271.400,
43.000=135.700,
89.000=271.400,
93.000=135.700,
165.000=271.400;
#STOPS:;
#DELAYS:;
#WARPS:;
#TIMESIGNATURES:0.000=4=4;
#TICKCOUNTS:0.000=4;
#COMBOS:0.000=1;
#SPEEDS:0.000=1.000=0.000=0;
#SCROLLS:0.000=1.000;
#FAKES:;
#LABELS:0.000=Song Start;
#BGCHANGES:0.000=..\\VOIDDD\\VOIDDD.avi=1.000=0=0=0=StretchNoLoop====,
99999=-nosongbg-=1.000=0=0=0 // don't automatically add -songbackground-
;
#KEYSOUNDS:;
#ATTACKS:
;

//---------------dance-single - ----------------
#NOTEDATA:;
#CHARTNAME:;
#STEPSTYPE:dance-single;
#DESCRIPTION:;
#CHARTSTYLE:;
#DIFFICULTY:Challenge;
#METER:18;
#RADARVALUES:0.937827,1.212878,0.350641,0.262981,0.798683,674.000000,638.000000,36.000000,27.000000,0.000000,0.000000,0.000000,0.000000,0.000000,0.937827,1.212878,0.350641,0.262981,0.798683,674.000000,638.000000,36.000000,27.000000,0.000000,0.000000,0.000000,0.000000,0.000000;
#CREDIT:;
#DISPLAYBPM:136.000000:271.000000;
#NOTES:
// measure 0
0000
0000
0000
0000
,  // measure 1
0000
0000
0000
0000
,  // measure 2
0000
0000
0000
0000
,  // measure 3
0000
0000
0000
0000
,  // measure 4
0000
0000
0000
0000
,  // measure 5
0000
0000
0000
2020
,  // measure 6
3030
0000
0000
0000
1001
0000
0001
0000
0010
0000
0001
0100
0001
0100
0001
0000
,  // measure 7
1000
0000
0010
1000
0100
0000
1000
0000
0010
0000
0100
0010
0100
0010
1000
0000
,  // measure 8
0010
0000
0100
0001
1000
0000
0001
0000
0010
0000
0100
0010
0100
0010
0001
0000
,  // measure 9
1000
0000
0010
1000
0001
0000
0100
0010
1000
0000
0010
0100
0002
0000
0000
0000
,  // measure 10
0000
0000
0000
0000
0000
0000
0000
0000
0003
0000
0000
0000
1001
0000
0010
1000
,  // measure 11
0200
0000
0310
0001
0200
0000
0320
0000
1000
0000
0100
0000
0031
0000
1000
0001
,  // measure 12
0020
0000
0031
1000
0020
0000
2030
0000
0100
0000
0001
0000
3010
0000
0100
0001
,  // measure 13
0010
0000
0100
1000
0010
0100
0010
1000
0001
0000
0010
0001
0100
0000
0001
0010
,  // measure 14
0100
0000
0010
0001
1000
0010
0000
0010
1000
0000
0001
1000
1100
0000
0010
0001
,  // measure 15
0100
0000
0001
0010
1000
0010
0001
1000
0001
0000
1000
0100
0010
0000
0001
0100
,  // measure 16
0010
0000
1000
0100
0001
0100
1000
0001
1000
0000
0010
0100
0001
0100
0001
0100
,  // measure 17
0001
0000
1000
0010
1000
0010
1000
0000
0001
0010
0100
1000
0001
0010
0001
1000
,  // measure 18
0001
0000
1000
0010
0100
0010
1010
0000
0100
0001
0011
0000
2100
0000
3100
1000
,  // measure 19
0100
0000
1000
0100
0000
0100
0010
0000
0200
0000
1300
0010
0200
0000
0301
0100
,  // measure 20
0001
0000
0100
0001
0000
0001
0010
0000
0002
0000
1003
0001
0020
0000
0130
0010
,  // measure 21
0001
0000
0100
0010
0000
0010
1000
0000
0020
0000
0130
0001
1000
0000
0001
1000
,  // measure 22
0100
0000
1000
0100
0020
0000
0000
0000
0000
0000
0000
0000
0000
0000
0000
0000
,  // measure 23
0130
0000
0000
0000
0110
0000
0010
0001
0200
0000
0310
1000
0200
0000
0310
0001
,  // measure 24
0000
0001
1000
0001
0020
0000
0031
1000
0020
0000
1030
0001
0200
0000
0310
1000
,  // measure 25
0000
1000
0010
1000
0002
0000
0013
0100
2000
0000
3010
0100
0002
0000
0103
0010
,  // measure 26
0000
0010
1000
0010
2000
0000
3100
1000
0020
0000
0130
0001
0010
0001
0000
0001
,  // measure 27
1000
0000
0001
0100
0110
0000
0010
1000
0100
0000
0010
0001
0100
0001
0100
0001
,  // measure 28
0010
0000
0100
1000
0001
0000
1000
0010
0100
0000
0010
1000
0100
1000
0100
1000
,  // measure 29
0010
0000
0100
0001
1000
0000
0001
0010
0100
0000
0010
0001
0100
0010
1000
0001
,  // measure 30
1000
0000
0001
0010
0100
0000
0010
0001
0100
0010
1000
0100
1000
0010
0110
0000
,  // measure 31
0001
0010
0110
0000
0011
0001
0000
0001
0011
0000
0001
0001
0000
0001
0001
0000
,  // measure 32
1001
0000
0001
1000
0010
0010
0000
0010
1010
0000
1000
1000
0000
1000
1000
0000
,  // measure 33
1010
0000
0010
0100
0001
0001
0000
0001
0011
0000
0100
0100
0000
0100
0100
0000
,  // measure 34
1100
0000
1000
0010
0100
0100
0000
0100
0110
0000
0010
0010
0000
0010
0010
0000
,  // measure 35
1010
0000
0010
1000
0001
0001
0010
0001
0001
0010
0001
0001
0010
0001
0001
1000
,  // measure 36
1001
0000
0001
0100
0010
0010
1000
0010
0010
1000
0010
0010
1000
0010
0010
0100
,  // measure 37
0110
0000
0010
1000
0100
0100
0010
0100
0100
1000
0100
0100
0010
0100
0100
1000
,  // measure 38
1001
0000
1000
0010
0100
0000
0001
0010
0100
1000
0001
1000
0010
0100
0010
0100
,  // measure 39
0001
0010
0100
1000
0100
1000
0010
0001
0010
1000
0100
0001
0100
1000
0010
0100
,  // measure 40
0001
0010
0100
1000
0001
0010
0001
1000
0001
0100
0010
1000
0001
0001
1000
1000
,  // measure 41
0010
0010
0100
0100
0110
0000
0010
0000
0000
0000
0010
0000
1010
0000
0000
0000
,  // measure 42
1000
1000
0000
1000
1000
0000
1001
0000
,  // measure 43
1000
0100
0010
0010
0000
0010
0011
0000
,  // measure 44
0001
0001
0000
0001
0001
0000
0101
0000
,  // measure 45
0001
0100
0010
0010
0000
0010
0110
0000
,  // measure 46
0100
0100
0000
0100
0100
0000
0110
0000
,  // measure 47
0010
1000
0100
0100
0000
0100
1100
0000
,  // measure 48
0100
0100
0010
0001
0100
1000
0100
0001
,  // measure 49
0010
0100
1000
0010
0100
0020
0000
0000
,  // measure 50
0000
0000
1000
0100
,  // measure 51
0031
1000
0010
0100
,  // measure 52
0001
1000
0100
0010
,  // measure 53
0001
0000
1000
0100
1000
0100
0001
0100
,  // measure 54
0001
0100
1000
0010
1000
0010
0001
0010
,  // measure 55
0001
0010
1000
0100
0001
0010
0001
0100
,  // measure 56
1000
0010
0001
0100
0010
1000
0001
0010
,  // measure 57
0100
1000
1001
0001
0010
0001
0001
0100
,  // measure 58
0001
0001
0010
0001
0001
1000
0010
0100
,  // measure 59
0001
1000
0100
0100
1000
0100
0100
0010
,  // measure 60
0100
0100
1000
0100
0100
0010
0001
0100
,  // measure 61
0010
1000
0010
0010
1000
0010
0010
0001
,  // measure 62
0010
0010
1000
0010
0010
0100
0001
0010
,  // measure 63
0100
1000
0001
0001
0010
0001
0001
0100
,  // measure 64
0001
0001
0010
0001
0001
1000
0010
1000
,  // measure 65
0100
0001
1100
1000
0010
1000
1000
0001
,  // measure 66
1000
1000
0010
1000
1000
0001
1000
0100
,  // measure 67
0010
0001
0100
0100
0010
0100
0100
0001
,  // measure 68
0100
0100
0010
0100
0100
0001
1000
0100
,  // measure 69
0010
0001
1000
1000
0010
1000
1010
0010
,  // measure 70
1000
1000
0001
1000
1001
1000
0100
0001
,  // measure 71
0100
1000
0001
0001
0010
0001
0001
0100
,  // measure 72
0010
1000
0001
1000
0100
0000
1000
0001
,  // measure 73
0010
0001
1001
0000
0000
0000
0000
0000
;
