#TITLE:Through the Fire and Flames;
#SUBTITLE:;
#ARTIST:DragonForce;
#TITLETRANSLIT:;
#SUBTITLETRANSLIT:;
#ARTISTTRANSLIT:;
#GENRE:;
#CREDIT:;
#MENUCOLOR:;
#METERTYPE:DDR;
#BANNER:Through the Fire and Flames.png;
#BACKGROUND:Through the Fire and Flames-bg.png;
#LYRICSPATH:;
#CDTITLE:./CDTITLES/NONE.PNG;
#MUSIC:Through the Fire and Flames.ogg;
#OFFSET:0.000;
#SAMPLESTART:96.150;
#SAMPLELENGTH:15.000;
#SELECTABLE:YES;
#LISTSORT:;
#BPMS:0.000=200.000;
#STOPS:;
#BGCHANGES:0.000=Through the Fire and Flames.avi=1.000=0=0=0,
99999=-nosongbg-=1.000=0=0=0 // don't automatically add -songbackground-
;
#ATTACKS:;

//---------------dance-single - ----------------
#NOTES:
     dance-single:
     :
     Beginner:
     4:
     0.144,0.201,0.007,0.000,0.000:
0000
0000
0000
0000
,
0000
0000
0000
0000
,
0000
0000
0000
0000
,
0000
0000
0000
0000
,
0000
0000
0000
0000
,
1000
0000
0000
0000
,
0000
0000
0000
0000
,
0100
0000
0000
0000
,
0010
0000
0000
0000
,
0001
0000
0000
0000
,
0000
0000
0000
0000
,
0100
0000
0000
0000
,
0000
0000
0000
0000
,
0010
0000
0000
0000
,
0000
0000
0000
0000
,
1000
0000
0000
0000
,
0001
0001
0001
0000
,
1000
0000
0000
0000
,
1000
0000
0000
0000
,
0001
0000
0000
0000
,
0001
0000
0000
0000
,
0010
0000
0000
0000
,
0010
0000
0000
0000
,
0100
0000
0000
0000
,
0100
0000
0000
0000
,
1000
0000
0000
0000
,
1000
0000
0000
0000
,
0010
0000
0000
0000
,
0010
0000
0000
0000
,
0100
0000
0000
0000
,
0100
0000
0000
0000
,
0001
0000
0000
0000
,
1000
0000
1000
0000
,
1000
0000
0000
0000
,
0000
0000
0000
0000
,
0010
0000
0000
0000
,
0000
0000
0000
0000
,
1000
0000
0000
0000
,
0000
0000
0000
0000
,
0001
0000
0000
0000
,
0010
0000
0001
0000
,
1000
0000
1000
0000
,
1000
0000
1000
0000
,
0001
0000
0001
0000
,
0001
0000
0001
0000
,
0100
0000
0100
0000
,
0100
0000
0100
0000
,
0010
0000
0010
0000
,
0010
0000
0000
0000
,
0100
0000
1000
0000
,
0010
0000
0001
0000
,
0100
0000
0001
0000
,
0010
0000
1000
0000
,
0010
0000
0001
0000
,
0100
0000
1000
0000
,
0100
0000
0000
0000
,
0010
0000
0010
0000
,
0100
0000
0000
0000
,
0001
0000
0000
0000
,
1000
0000
0000
0000
,
0010
0000
0000
0000
,
1000
0000
0000
0000
,
0001
0000
0000
0000
,
0100
0000
0000
0000
,
0100
0000
0000
0000
,
0010
0000
0000
0000
,
1000
0000
0000
0000
,
0001
0000
0000
0000
,
1000
0000
0000
0000
,
0100
0000
0000
0000
,
0100
0000
1000
0000
,
0010
0000
0000
0000
,
0100
0000
0001
0000
,
1000
0000
0000
0000
,
0001
0000
0000
0000
,
0010
0000
0000
0000
,
0001
0000
0000
0000
,
1000
0000
1000
0000
,
1000
0000
1000
0000
,
0010
0000
0010
0000
,
0010
0000
0000
0000
,
0100
0000
0000
0000
,
0000
0000
0000
0000
,
0001
0000
0000
0000
,
0000
0000
0000
0000
,
1000
0000
1000
0000
,
0010
0000
0010
0000
,
1000
0000
0000
0000
,
0001
0000
0010
0000
,
0100
0000
0000
0000
,
1000
0000
0100
0000
,
0010
0000
0000
0000
,
1000
0000
0001
0000
,
0100
0000
1000
0000
,
0010
0000
0000
0000
,
0100
0000
0100
0000
,
0100
0000
0100
0000
,
0010
0000
0010
0000
,
0010
0000
0000
0000
,
1000
0000
1000
0000
,
1000
0000
1000
0000
,
0001
0000
0001
0000
,
0001
0000
0000
0000
,
0010
0000
0000
0000
,
1000
0000
0001
0000
,
0100
0000
0000
0000
,
0001
0000
0000
0000
,
0000
1000
0000
1000
,
0000
0001
0000
0010
,
0000
0001
0000
0100
,
0100
0000
0010
0000
,
1001
0000
0000
0000
;

//---------------dance-single - ----------------
#NOTES:
     dance-single:
     :
     Easy:
     5:
     0.289,0.368,0.058,0.319,0.000: // measure 1
0000
0000
0000
0000
,  // measure 2
0000
0000
0000
0000
,  // measure 3
0000
0000
0000
0000
,  // measure 4
0000
0000
0000
0000
,  // measure 5
0000
0000
0000
0000
,  // measure 6
0020
0000
0000
0000
,  // measure 7
0000
0000
0000
0030
,  // measure 8
0200
0000
0000
0300
,  // measure 9
0002
0000
0000
0003
,  // measure 10
2000
0000
0000
3000
,  // measure 11
0000
0000
0000
1000
,  // measure 12
0002
0000
0000
0003
,  // measure 13
0000
0000
0000
0000
,  // measure 14
0220
0000
0000
0000
,  // measure 15
0000
0000
0000
0330
,  // measure 16
1001
0000
0000
0000
,  // measure 17
0010
0100
2002
3003
,  // measure 18
1000
0000
0100
0000
,  // measure 19
1000
0000
0010
0000
,  // measure 20
0100
0000
0001
0000
,  // measure 21
1000
0000
0001
1000
,  // measure 22
0010
0000
0100
0000
,  // measure 23
0001
0000
0010
0000
,  // measure 24
0100
0000
1000
0000
,  // measure 25
0100
1000
0010
0001
,  // measure 26
0010
0000
0100
0000
,  // measure 27
0001
0000
1000
0000
,  // measure 28
0001
0000
0010
0000
,  // measure 29
0100
0010
0001
1000
,  // measure 30
0010
0000
1000
0000
,  // measure 31
0100
0000
1000
0000
,  // measure 32
0010
0000
0100
0000
,  // measure 33
0001
1000
0020
0030
,  // measure 34
2002
0000
0000
0000
,  // measure 35
0000
0000
0000
3003
,  // measure 36
0200
0000
0000
0000
,  // measure 37
0000
0000
0000
0300
,  // measure 38
0020
0000
0000
0000
,  // measure 39
0000
0000
0000
0030
,  // measure 40
2000
0000
0000
3000
,  // measure 41
1000
1000
0001
1000
,  // measure 42
0002
0003
0010
0000
,  // measure 43
0100
0000
1000
0000
,  // measure 44
0010
0000
0100
0000
,  // measure 45
0001
0000
1000
0000
,  // measure 46
0010
1000
0100
0000
,  // measure 47
0010
0001
0100
0000
,  // measure 48
0001
1000
0010
0100
,  // measure 49
0001
1000
0001
1000
,  // measure 50
0001
0000
0010
0000
,  // measure 51
0001
0000
1000
0000
,  // measure 52
0010
0000
0100
0000
,  // measure 53
0001
0000
1000
0000
,  // measure 54
0100
0000
0100
0000
,  // measure 55
1000
0000
0010
0000
,  // measure 56
0100
0100
0010
1000
,  // measure 57
0001
0000
1001
0000
,  // measure 58
1000
0000
0000
1000
0000
0000
1000
0000
,  // measure 59
0010
0000
0000
0010
0000
0000
0010
0000
,  // measure 60
0100
0000
0001
0000
,  // measure 61
1000
0000
0010
0000
,  // measure 62
0100
0000
0000
0100
0000
0000
0100
0000
,  // measure 63
0001
0000
0000
0001
0000
0000
0001
0000
,  // measure 64
0010
0100
1000
0100
,  // measure 65
0020
0000
0000
0030
,  // measure 66
1000
0000
1000
0000
,  // measure 67
0001
0000
0001
0000
,  // measure 68
0100
0000
0100
0000
,  // measure 69
0010
0000
0010
0000
,  // measure 70
1000
1000
0010
0010
,  // measure 71
0100
0100
0001
0001
,  // measure 72
1000
1000
0100
0100
,  // measure 73
0020
0000
0000
0030
,  // measure 74
0002
0000
0000
0003
,  // measure 75
2000
0000
0000
3000
,  // measure 76
0020
0000
0000
0030
,  // measure 77
0200
0000
0000
0300
,  // measure 78
0001
0000
0001
0000
,  // measure 79
1000
1000
0001
0001
,  // measure 80
2002
0000
0000
0000
,  // measure 81
3003
0000
0000
0000
,  // measure 82
0200
0000
0000
0300
,  // measure 83
0100
0000
0010
0000
,  // measure 84
2000
0000
0000
3000
,  // measure 85
1000
0000
0001
0000
,  // measure 86
2000
3000
1000
1000
,  // measure 87
2000
3000
0010
0010
,  // measure 88
0020
0030
0100
0100
,  // measure 89
0001
0000
1000
0000
,  // measure 90
0002
0000
0000
0010
,  // measure 91
0010
0000
0010
0003
,  // measure 92
0200
0000
0000
1000
,  // measure 93
1000
0000
1000
0300
,  // measure 94
1000
0001
0100
0010
,  // measure 95
2002
0000
0000
3003
,  // measure 96
2000
3000
0010
1000
,  // measure 97
0020
0030
0100
0001
,  // measure 98
0100
0000
0001
0000
,  // measure 99
1000
0010
0002
0003
,  // measure 100
0010
0000
1000
0100
,  // measure 101
0002
0003
0100
1000
,  // measure 102
0010
0000
0100
0000
,  // measure 103
0001
1000
0001
1000
,  // measure 104
0010
0000
1000
0000
,  // measure 105
0100
0000
0010
0000
,  // measure 106
0001
0010
0100
1000
,  // measure 107
0010
0100
0002
0003
,  // measure 108
2000
3000
0010
0100
,  // measure 109
0002
0003
1000
0100
,  // measure 110
0020
0030
0200
0300
,  // measure 111
1000
0010
0100
0001
,  // measure 112
2002
0000
0000
0000
,  // measure 113
0000
0000
0000
3003
;

//---------------dance-single - ----------------
#NOTES:
     dance-single:
     :
     Medium:
     9:
     0.493,0.573,0.203,0.261,0.004: // measure 1
0000
0000
0000
0000
,  // measure 2
0000
0000
0000
0000
,  // measure 3
0000
0000
0000
0000
,  // measure 4
0000
0000
0000
0000
,  // measure 5
0000
0000
0000
0000
,  // measure 6
0200
0000
0000
0000
,  // measure 7
0000
0000
0000
0300
,  // measure 8
0010
0000
0000
0000
,  // measure 9
2000
0000
0000
3000
,  // measure 10
1001
0100
0010
1000
,  // measure 11
0001
0001
0100
0010
,  // measure 12
1001
0100
0010
0001
,  // measure 13
1000
1000
0100
0010
,  // measure 14
0011
0100
0010
1000
,  // measure 15
0100
0010
0001
1000
,  // measure 16
1001
0010
0100
0010
,  // measure 17
1001
1001
2002
3003
,  // measure 18
1000
0000
0010
1000
0000
1000
0010
0000
,  // measure 19
0100
0000
0001
1000
0000
1000
0001
0000
,  // measure 20
0010
0000
0001
0010
0000
0010
0001
0000
,  // measure 21
1000
0000
0100
1000
0000
1000
0100
0000
,  // measure 22
1000
0000
0010
0100
0000
0001
1000
0000
,  // measure 23
0001
0000
0010
0100
0000
1000
0001
0000
,  // measure 24
0100
0000
0010
1000
0000
0001
0100
0000
,  // measure 25
0001
0100
0010
1000
,  // measure 26
0001
0000
0010
0001
0000
1000
0100
0000
,  // measure 27
1000
0000
0010
1000
0000
0001
0100
0000
,  // measure 28
1001
0000
0100
0010
0000
1000
0001
0000
,  // measure 29
0100
0000
0010
0100
0000
1000
0001
0000
,  // measure 30
0011
0000
1000
0100
0000
1000
0010
0000
,  // measure 31
0100
0000
0001
0100
0000
0001
0010
0000
,  // measure 32
1100
0000
0010
1000
0000
0001
1000
0000
,  // measure 33
0010
0100
0002
0003
,  // measure 34
2002
0000
0000
0000
,  // measure 35
0000
0000
0000
3003
,  // measure 36
2020
0000
0000
0000
,  // measure 37
0000
0000
0000
3030
,  // measure 38
0202
0000
0000
0000
,  // measure 39
0000
0000
0000
0303
,  // measure 40
1000
0000
0001
0000
1000
1000
0000
1000
,  // measure 41
0001
0010
0100
0010
,  // measure 42
1001
0100
0010
1000
,  // measure 43
0001
0100
0001
1000
,  // measure 44
0100
0010
0001
1000
,  // measure 45
0100
1000
0010
0100
,  // measure 46
0010
0010
1000
1000
,  // measure 47
0001
0001
0100
0100
,  // measure 48
0001
1000
0001
0010
,  // measure 49
0100
0000
0010
0000
0001
1000
0100
0000
,  // measure 50
1001
0010
1000
0001
,  // measure 51
0100
1000
0100
0001
,  // measure 52
1000
0100
0001
0100
,  // measure 53
1000
0010
0001
0010
,  // measure 54
1000
0000
0100
1000
0000
1000
0100
0000
,  // measure 55
0010
0000
0001
1000
0000
1000
0001
0000
,  // measure 56
0100
0000
0010
0000
1000
0001
0000
0100
,  // measure 57
0001
1000
0000
1001
0000
0110
0000
0010
,  // measure 58
2000
0000
0000
0100
0000
0000
3100
0000
,  // measure 59
0002
0000
0000
0100
0000
0000
0013
0000
,  // measure 60
2000
0000
0000
0010
0000
0000
3001
0000
,  // measure 61
0100
0010
1000
0001
,  // measure 62
1002
0000
0000
0100
0000
0000
0013
0000
,  // measure 63
2001
0000
0000
0100
0000
0000
3010
0000
,  // measure 64
1000
0001
0100
0010
,  // measure 65
1001
0010
0010
0010
,  // measure 66
2000
0100
0010
3001
,  // measure 67
0002
0100
0010
1003
,  // measure 68
0020
1000
0001
0130
,  // measure 69
0200
0000
0301
0000
1000
0001
0010
0000
,  // measure 70
0002
0000
0103
0001
0000
0001
1000
0000
,  // measure 71
0200
0000
1300
0010
0000
0010
1000
0000
,  // measure 72
0020
0000
0130
0001
0000
0001
1000
0000
,  // measure 73
0001
0010
0100
1000
,  // measure 74
0001
0000
0010
0001
0000
1000
0100
0000
,  // measure 75
1000
0000
0010
1000
0000
0001
0100
0000
,  // measure 76
0001
0000
0100
0001
0000
1000
0100
0000
,  // measure 77
1000
0000
0100
1000
0000
0001
1000
0000
,  // measure 78
0010
0010
0100
0100
,  // measure 79
0010
1000
0001
0100
,  // measure 80
0001
1000
0010
0100
,  // measure 81
2002
0000
0000
3003
,  // measure 82
0001
0001
0100
0100
,  // measure 83
0010
0010
1000
1000
,  // measure 84
0100
0100
0010
0010
,  // measure 85
0001
0001
1000
1000
,  // measure 86
0100
1000
0010
0100
,  // measure 87
0001
1000
0010
1000
,  // measure 88
0001
0100
0010
1000
,  // measure 89
0100
0010
0001
1000
,  // measure 90
1001
0100
0010
1000
,  // measure 91
0001
0100
0010
1000
,  // measure 92
0100
0001
0100
1000
,  // measure 93
0010
0001
0010
1000
,  // measure 94
0001
1000
1001
1001
,  // measure 95
0220
0000
0000
0330
,  // measure 96
1000
0100
0000
0100
0000
0100
1000
0000
,  // measure 97
0001
0100
0000
0100
0000
0100
0001
0000
,  // measure 98
1000
0010
0000
0010
1000
0001
1000
0000
,  // measure 99
0001
0000
0100
0002
0000
0000
0003
0000
,  // measure 100
2000
0000
0000
3100
0000
0100
1000
0000
,  // measure 101
0002
0000
0000
0103
0000
0100
0001
0000
,  // measure 102
0010
0001
1000
0010
,  // measure 103
0100
0010
1000
1001
,  // measure 104
0002
0000
0000
1003
0000
1000
0001
0000
,  // measure 105
2000
0000
0000
3001
0000
0001
1000
0000
,  // measure 106
0020
0000
0000
0130
0000
0001
1000
0000
,  // measure 107
0010
1000
0001
0200
0000
0000
0300
0000
,  // measure 108
0001
0000
0010
0100
0000
0010
0001
0000
,  // measure 109
1000
0000
0010
0100
0000
0010
1000
0000
,  // measure 110
0010
0100
0001
1000
,  // measure 111
1001
0000
0000
0000
0010
0000
0000
0000
0100
0000
0000
0100
0000
0000
0100
0000
,  // measure 112
0220
0000
0000
0000
,  // measure 113
0000
0000
0000
0330
;

//---------------dance-single - ----------------
#NOTES:
     dance-single:
     :
     Hard:
     14:
     0.774,0.941,0.414,0.334,0.018: // measure 1
0000
0000
0000
0000
,  // measure 2
0000
0000
0000
0000
,  // measure 3
0000
0000
0000
0000
,  // measure 4
0000
0000
0000
0000
,  // measure 5
0000
0000
0000
0000
,  // measure 6
2002
0000
0000
0000
,  // measure 7
0000
0000
0000
3003
,  // measure 8
0110
0000
0000
0000
,  // measure 9
0220
0000
0000
0330
,  // measure 10
1001
0000
0000
0000
,  // measure 11
0000
0000
0000
1100
,  // measure 12
0011
0000
0000
0000
,  // measure 13
0000
0000
0000
0000
,  // measure 14
0220
0000
0000
0000
,  // measure 15
0000
0000
0000
0330
,  // measure 16
1010
0000
0000
0000
,  // measure 17
1100
1001
1001
0000
,  // measure 18
0001
0100
0010
0100
0000
0001
0100
0010
,  // measure 19
0100
0001
1000
0100
0000
0100
1000
0001
,  // measure 20
0010
0001
1000
0010
0000
0010
1000
0001
,  // measure 21
0010
0001
1000
0100
0000
0100
1000
0010
,  // measure 22
0100
0001
0010
0100
0000
0100
1000
0100
,  // measure 23
0010
0001
1000
0010
0000
0010
0100
0001
,  // measure 24
1000
1000
0001
0001
1000
1000
0001
0001
,  // measure 25
0100
0010
1000
0010
0100
0001
1000
0100
,  // measure 26
0010
0100
1000
0100
0010
0100
1000
0100
,  // measure 27
0010
0100
0001
0100
0010
0100
0001
0100
,  // measure 28
0001
0100
0010
1000
0010
0001
0100
0010
,  // measure 29
1000
0010
1000
0001
0100
0010
1000
0001
,  // measure 30
1000
0100
0001
0100
1000
0100
0001
0100
,  // measure 31
1000
0001
0100
0010
1000
0001
0100
0010
,  // measure 32
1000
0010
0100
0001
1000
0010
0100
0001
,  // measure 33
2002
0000
0000
3003
,  // measure 34
0110
0000
0000
0000
,  // measure 35
0000
0000
0000
0000
,  // measure 36
1010
0000
0000
0000
,  // measure 37
0000
0000
0000
0000
,  // measure 38
0101
0000
0000
0000
,  // measure 39
0000
0000
0000
0000
,  // measure 40
1100
0000
1001
0000
0110
0110
0000
1001
,  // measure 41
0010
0100
0010
1000
0001
0010
0100
0010
,  // measure 42
0001
1000
0001
1000
0010
0100
0010
0100
,  // measure 43
0001
1000
0010
0100
0001
1000
0001
0100
,  // measure 44
0001
0010
0100
1000
0100
0010
0001
1000
,  // measure 45
0100
1000
0010
0100
0001
1000
0010
1000
,  // measure 46
0010
0001
0010
0100
0010
0001
0010
1000
,  // measure 47
0010
0100
0010
0001
0010
0100
0010
1000
,  // measure 48
0100
0010
0100
1000
0100
0010
0100
0001
,  // measure 49
0100
1000
0010
0100
0001
1000
0001
1000
,  // measure 50
1001
0001
0100
0010
1000
0100
0010
0100
,  // measure 51
1000
0001
0100
0010
1000
0010
0100
0001
,  // measure 52
1000
0001
0100
0001
1000
0100
0010
0001
,  // measure 53
0100
0010
1000
0010
0100
0001
1000
0001
,  // measure 54
1000
0100
1000
0010
1000
0001
1000
0100
,  // measure 55
1000
0001
1000
0100
1000
0010
1000
0001
,  // measure 56
0100
0001
0010
0001
0100
0001
0010
0001
,  // measure 57
1000
1001
0000
0110
0000
1001
0010
0100
,  // measure 58
1002
1000
1003
0200
0010
0310
1000
0100
,  // measure 59
2000
0010
3010
2000
0001
3001
1000
0100
,  // measure 60
0020
0100
0130
0020
1000
1030
0010
0001
,  // measure 61
0100
0010
1000
0101
0000
0000
1100
0000
,  // measure 62
2001
0010
3010
0002
0100
0103
1000
0100
,  // measure 63
0020
0001
0031
2000
0100
3100
1000
0010
,  // measure 64
0101
0000
1100
0000
0001
0100
0001
1000
,  // measure 65
0120
1000
0001
1030
,  // measure 66
2000
0100
0010
3001
,  // measure 67
0200
0010
1000
0301
,  // measure 68
0020
1000
0001
0130
,  // measure 69
0001
0100
0010
1000
0001
1000
0002
0000
,  // measure 70
2003
0100
3100
2000
0010
3010
1000
0001
,  // measure 71
0200
0001
0301
0020
0001
0031
1000
0001
,  // measure 72
2000
0100
3100
0020
0100
0130
1000
0100
,  // measure 73
1000
0001
0100
0010
1000
0001
0100
0100
,  // measure 74
0010
0100
0001
0001
0010
0100
1000
0100
,  // measure 75
0010
0001
1000
1000
0010
1000
0001
0100
,  // measure 76
0001
0100
0010
0010
1000
0100
0010
0001
,  // measure 77
1000
0100
0010
0010
0100
1000
0001
0100
,  // measure 78
0002
0010
0013
2000
0100
3100
2000
0010
,  // measure 79
3010
0002
0100
0103
1001
0000
0110
0000
,  // measure 80
1001
0000
1100
0000
0011
0011
0011
0011
,  // measure 81
1002
0100
0010
1003
,  // measure 82
0001
0100
0010
1000
0001
1000
0100
0010
,  // measure 83
0100
1000
0001
0100
0010
1000
0001
0010
,  // measure 84
0001
1000
0100
0010
0100
1000
0001
0100
,  // measure 85
0010
1000
0010
0100
0001
1000
0100
1000
,  // measure 86
0002
0100
0103
0002
0010
0013
0001
1000
,  // measure 87
0002
0100
0103
0002
1000
1003
0001
0100
,  // measure 88
0010
1000
0001
1000
0100
0010
0100
1000
,  // measure 89
0001
1001
1100
1001
,  // measure 90
1000
0010
0100
0001
1000
0100
1000
0001
,  // measure 91
0100
0010
1000
0010
0100
0001
1000
0100
,  // measure 92
0001
0100
1000
0010
0001
0010
1000
0001
,  // measure 93
0100
0010
1000
0001
0100
0001
1000
0100
,  // measure 94
1001
0100
0100
0110
0001
0001
1100
0010
,  // measure 95
2001
0100
0010
3001
,  // measure 96
1000
0200
0000
1300
0000
1000
0010
0100
,  // measure 97
0001
2000
0000
3001
0000
0010
0001
0100
,  // measure 98
0010
1000
0010
1000
0001
0010
0100
0010
,  // measure 99
0001
1000
0001
2000
0000
0000
0000
0000
,  // measure 100
3001
0100
0100
0001
0010
0010
0001
1000
,  // measure 101
0001
0100
0100
0001
1000
1000
0100
0010
,  // measure 102
0100
1000
0010
0100
0001
1000
0001
0100
,  // measure 103
0001
1001
1100
1001
,  // measure 104
1000
0100
0010
0100
1000
0100
1000
1000
,  // measure 105
0001
0100
0010
0100
0001
1000
0001
0001
,  // measure 106
0010
0001
1000
0100
0010
0001
1000
0100
,  // measure 107
1000
0010
0100
2002
0000
0000
3003
0000
,  // measure 108
1000
0100
1000
0100
1000
0001
0100
0010
,  // measure 109
1000
0100
1000
0100
1000
0001
0100
0010
,  // measure 110
0110
0000
0000
0010
1000
0000
0000
1000
0001
0000
0000
0001
0100
0000
0000
0100
,  // measure 111
0001
0000
0000
0000
1100
0000
0000
0000
0011
0000
0000
0101
0000
0000
1001
0000
,  // measure 112
0220
0000
0000
0000
,  // measure 113
0000
0000
0000
0330
;

//---------------dance-single - ----------------
#NOTES:
     dance-single:
     :
     Challenge:
     16:
     0.977,1.000,0.261,0.341,0.428: // measure 1
0000
0000
0000
0000
,  // measure 2
0000
0000
0000
0000
,  // measure 3
0000
0000
0000
0000
,  // measure 4
0000
0000
0000
0000
,  // measure 5
0000
0000
0000
0000
,  // measure 6
1000
0100
0010
0100
1000
0100
0010
0100
,  // measure 7
1000
0100
1000
0000
0010
0000
1000
0000
0001
0000
0100
0000
0010
0000
1000
0000
,  // measure 8
0001
0100
0010
0100
0001
0100
0010
0100
,  // measure 9
0001
1000
0001
0000
0010
0000
0100
0000
0010
0000
0001
0000
1000
0000
0010
0000
,  // measure 10
1001
0100
0010
1000
0010
0100
0001
1000
,  // measure 11
0001
0010
0001
0000
1000
0000
0100
0000
0010
0000
0100
0000
1000
0000
0010
0000
,  // measure 12
1001
0100
0010
1000
0010
0100
0001
1000
,  // measure 13
0100
1000
0100
0000
1000
0000
0010
0000
1000
0000
0001
0000
0100
0000
0001
0000
,  // measure 14
0110
1000
0001
0100
0001
0010
0100
0010
,  // measure 15
0001
1000
0001
0000
1000
0000
0010
0000
0100
0000
0010
0000
1000
0000
0010
0000
,  // measure 16
1100
0001
0100
0001
1000
0010
0100
0010
,  // measure 17
1001
1001
2002
3003
,  // measure 18
1000
0100
1000
0000
0010
0000
2000
0000
0000
0000
3001
0000
0100
0000
0001
0000
,  // measure 19
0010
0001
0010
0000
0001
0000
2000
0000
0000
0000
3010
0000
0100
0000
0010
0000
,  // measure 20
1000
0010
1000
0000
0010
0000
2000
0000
0000
0000
3001
0000
0100
0000
0010
0000
,  // measure 21
1000
0010
1000
0000
0010
0000
2000
0000
0000
0000
3001
0000
0100
0000
0001
0000
,  // measure 22
1000
0100
1000
0000
0100
0000
0020
0000
0000
0000
0031
0000
0100
0000
0010
0000
,  // measure 23
1000
0100
1000
0000
0100
0000
0020
0000
0000
0000
0031
0000
0100
0000
0010
0000
,  // measure 24
1000
0001
1000
0000
0001
0000
0200
0000
0000
0000
0310
0000
1000
0000
0001
0000
,  // measure 25
1000
0000
0000
1000
0100
0000
0000
0100
0010
0000
0000
0010
0001
0000
0000
0001
,  // measure 26
1000
0010
1000
0000
0001
0000
0100
0000
0001
0000
0010
0000
0100
0000
0010
0000
,  // measure 27
0001
0010
0001
0000
1000
0000
0010
0000
0100
0000
0001
0000
1000
0000
0100
0000
,  // measure 28
1000
0001
1000
0000
0010
0000
0100
0000
0010
0000
1000
0000
0001
0000
0100
0000
,  // measure 29
0001
0010
0001
0000
1000
0000
0010
0000
0100
0000
0001
0000
1000
0000
0100
0000
,  // measure 30
0010
0100
0010
0000
0001
0000
0100
0000
0010
0000
1000
0000
0001
0000
1000
0000
,  // measure 31
0001
0010
0001
0000
1000
0000
0100
0000
0010
0000
0100
0000
1000
0000
0010
0000
,  // measure 32
1000
0001
1000
0000
0010
0000
0100
0000
0001
0000
1000
0000
0001
0000
0010
0000
,  // measure 33
0100
0000
0000
0010
0001
0000
0000
1000
0010
0000
0000
0100
0001
0000
0000
1000
,  // measure 34
0002
0000
0000
0010
0000
0000
0100
0000
,  // measure 35
1000
0000
0000
0100
0000
0000
1003
0000
,  // measure 36
2010
0000
0000
0100
0000
0000
0001
0000
,  // measure 37
0010
0000
0000
0001
0000
0000
3100
0000
,  // measure 38
0120
0000
0000
0001
0000
0000
1000
0000
,  // measure 39
0100
0000
0000
1000
0000
0000
0031
0000
,  // measure 40
0110
0000
1001
0000
0110
0110
0000
1001
,  // measure 41
1000
0000
0100
0000
0010
0000
0001
0000
1000
0000
0010
0000
0100
0001
0100
0000
,  // measure 42
0001
0000
1000
0000
0001
0010
0001
0000
1000
0000
0001
0000
1000
0000
0010
0000
,  // measure 43
1000
0000
0100
0000
0010
0100
0010
0000
0001
0000
0010
0000
0001
0000
0100
0000
,  // measure 44
0001
0000
1000
0000
0010
1000
0010
0000
0100
0000
0001
0000
1000
0000
0100
0000
,  // measure 45
0010
0000
0100
0000
1000
0100
1000
0000
0010
0000
1000
0000
0001
0000
0100
0000
,  // measure 46
0001
0000
1000
0000
0001
0010
0001
0000
1000
0000
0010
0000
0100
0000
0001
0000
,  // measure 47
1000
0000
0100
0000
0010
0100
0010
0000
0001
0000
1000
0000
0010
0000
1000
0000
,  // measure 48
0001
0000
0100
0000
0001
1000
0001
0000
1000
0000
0010
0000
1000
0000
0100
0000
,  // measure 49
0010
0000
0100
0010
0100
0000
1000
0000
0001
0000
0100
0000
0010
0000
1000
0000
,  // measure 50
1001
0000
0001
0000
1000
0010
1000
0000
0001
0000
0100
0000
0001
0000
1000
0000
,  // measure 51
0001
0000
0010
0000
0100
0010
0100
0000
0010
0000
0001
0000
2000
0000
0000
0000
,  // measure 52
3010
0000
0100
0000
0001
0010
0001
0000
0010
0000
0100
0000
1000
0000
0001
0000
,  // measure 53
1000
0000
0010
0000
1000
0100
1000
0000
0001
0000
0010
0000
0100
0000
1000
0000
,  // measure 54
0001
0000
0100
0000
0001
0100
0001
0000
0100
0000
0001
0000
0010
0000
1000
0000
,  // measure 55
0010
0000
0001
0000
1000
0010
1000
0000
0001
0000
0010
0000
0100
0000
1000
0000
,  // measure 56
0001
0000
1000
0000
0001
0000
1000
0000
0000
0000
1001
0000
0000
0000
0010
0100
,  // measure 57
0001
1000
0000
0101
0000
1100
0000
0010
,  // measure 58
2000
0010
3010
2000
0100
3100
1000
0001
,  // measure 59
0200
0010
0310
2000
0010
3010
0100
0001
,  // measure 60
2000
0100
3100
0020
0001
0031
1000
0010
,  // measure 61
0100
0001
1000
0001
0000
0100
0011
0000
,  // measure 62
0201
0001
0301
2000
0010
3010
1000
0100
,  // measure 63
0010
0100
0010
0100
0010
0000
0001
1000
0001
1000
0001
0000
1000
0000
0010
0000
,  // measure 64
1001
0000
0110
0000
1000
0001
1000
0001
,  // measure 65
2001
0010
0010
3010
,  // measure 66
0100
0000
0001
0000
1000
0000
0100
0000
0010
0000
0001
0000
1000
0100
1000
0000
,  // measure 67
0010
0000
0100
0000
0001
0000
1000
0000
0001
0000
0010
0000
0001
1000
0001
0000
,  // measure 68
1000
0000
0010
0000
0100
0000
0001
0000
1000
0000
0100
0000
0001
0100
0001
0000
,  // measure 69
0100
0000
1000
0000
0010
0000
0001
0000
0010
0000
1000
0000
0001
1000
0001
0000
,  // measure 70
2000
0000
0100
0000
3100
0000
0020
0000
0001
0000
0031
0000
1000
0010
1000
0000
,  // measure 71
0002
0000
0100
0000
0103
0000
0020
0000
1000
0000
1030
0000
0001
1000
0001
0000
,  // measure 72
0200
0000
0010
0000
0310
0000
2000
0000
0100
0000
3100
0000
0010
0001
1000
0000
,  // measure 73
0001
0100
0010
1000
0001
1000
1001
0000
,  // measure 74
0010
1000
0001
0100
0001
0010
0100
0010
,  // measure 75
0001
0000
1000
0000
0100
0000
0010
0000
0100
0000
1000
0000
0010
1000
0010
0000
,  // measure 76
0100
0001
1000
0010
0100
0001
1000
0100
,  // measure 77
0010
0000
0001
0000
1000
0000
0010
0000
1000
0000
0100
0000
1000
0001
1000
0000
,  // measure 78
2010
0100
3100
0012
0100
0103
0001
0100
,  // measure 79
2001
0010
3010
1002
0100
0103
1000
0100
,  // measure 80
1000
0001
1000
0001
1000
0000
0010
0100
0010
0100
0010
0000
1000
0001
1000
0001
,  // measure 81
2000
0010
0100
3001
,  // measure 82
1000
0000
0100
0000
0010
0001
0010
0000
0001
0000
0100
0000
0010
1000
0010
0000
,  // measure 83
1000
0000
0001
0000
0100
0010
0100
0000
0010
0000
1000
0000
0001
1000
0001
0000
,  // measure 84
1000
0000
0100
0000
0010
0001
0010
0000
0001
0000
0010
0000
0100
1000
0100
0000
,  // measure 85
1000
0000
0010
0000
0100
0001
1000
0000
0001
0000
0100
0000
0010
1000
0001
0000
,  // measure 86
1000
0100
0010
0001
1000
0100
0001
0100
,  // measure 87
1000
0100
0010
0001
1000
0010
0001
0010
,  // measure 88
1000
0100
0001
0010
1000
0100
0001
0010
,  // measure 89
1000
0000
0000
1000
0100
0000
0000
0100
0001
0000
0000
0001
0010
0000
0000
0010
,  // measure 90
1000
0000
0010
0000
0100
0001
0100
0000
0001
0000
1000
0000
0001
0010
0001
0000
,  // measure 91
0100
0000
0010
0000
1000
0001
0100
0000
0001
0000
1000
0000
0010
1000
0001
0000
,  // measure 92
1000
0000
0100
0000
0010
0100
1000
0000
0001
0000
0100
0000
0010
0100
0001
0000
,  // measure 93
1000
0000
0100
0000
0001
0100
1000
0000
0100
0000
0001
0000
1000
0010
0001
0000
,  // measure 94
0010
1000
0010
1000
0010
0000
0100
0001
0100
0001
0100
0000
0001
1000
0001
1000
,  // measure 95
0002
0000
0000
0003
,  // measure 96
1000
0000
0020
0000
0000
0000
1030
0100
0010
0000
0100
0000
1000
0000
0001
0000
,  // measure 97
0100
0000
0020
0000
0000
0000
1030
0001
0100
0000
0001
0000
2000
0000
0000
0000
,  // measure 98
3001
0000
0200
0000
0000
0000
0301
0010
0001
0000
1000
0100
1000
0000
0001
1000
,  // measure 99
0001
1000
0100
0020
0000
0000
0000
0000
,  // measure 100
0130
0000
1000
0000
0010
0000
0200
0000
0000
0000
0301
0010
0001
0000
1000
0000
,  // measure 101
0001
0000
0010
0000
0100
0000
0020
0000
0000
0000
0031
1000
0001
0000
1000
0000
,  // measure 102
0010
0100
0010
0100
0010
0000
1000
0001
1000
0001
1000
0000
0100
0010
0100
0010
,  // measure 103
0100
1100
0011
1001
,  // measure 104
0010
0000
1000
0000
0100
0000
1000
0000
0010
0000
0100
0010
0100
0000
0001
0000
,  // measure 105
0010
0000
0001
0000
0100
0000
0001
0000
0010
0000
0100
0010
0100
0000
1000
0000
,  // measure 106
0010
0100
0010
0100
0010
0000
1000
0010
1000
0010
1000
0000
0001
1000
0001
1000
,  // measure 107
0001
0010
0001
0200
0000
0000
0000
0000
,  // measure 108
0310
0000
2000
0000
0000
0000
3001
0010
0100
0000
0010
0000
0001
0000
1000
0000
,  // measure 109
0100
0000
0002
0000
0000
0000
0103
1000
0010
0000
0100
0000
0020
0000
0000
0000
,  // measure 110
1030
0010
1000
0010
1000
0000
0001
0100
0001
0100
0001
0000
0010
0100
0010
0100
,  // measure 111
0010
0000
0000
0000
1001
0000
0000
0000
1100
0000
0000
0011
0000
0000
1001
0000
,  // measure 112
0220
0000
0000
0000
,  // measure 113
0000
0000
0000
0330
;
