#TITLE:Strong Woman feat.DABO;
#SUBTITLE:;
#ARTIST:Asami;
#TITLETRANSLIT:;
#SUBTITLETRANSLIT:;
#ARTISTTRANSLIT:;
#GENRE:;
#CREDIT:;
#MENUCOLOR:;
#NEWMETERSYSTEM:NO;
#BANNER:Strong Woman feat.DABO.png;
#BACKGROUND:Strong Woman feat.DABO-bg.png;
#LYRICSPATH:;
#CDTITLE:./CDTITLES/NONE.PNG;
#MUSIC:Strong Woman feat.DABO.mp3;
#OFFSET:-0.361;
#SAMPLESTART:21.057;
#SAMPLELENGTH:15.000;
#SELECTABLE:YES;
#LISTSORT:;
#DISPLAYBPM:92.000;
#BPMS:0.000=92.300;
#STOPS:;
#BGCHANGES:0.000=Strong Woman feat.DABO.avi=1.000=1=1=0,
99999=-nosongbg-=1.000=0=0=0 // don't automatically add -songbackground-
;
#ATTACKS:;

//---------------dance-single - ----------------
#NOTES:
     dance-single:
     :
     Beginner:
     1:
     0.086,0.127,0.000,0.000,0.000:
0000
0000
0000
0000
,
0000
0000
0000
0000
,
0000
0000
0000
0000
,
0000
0000
0000
0000
,
1000
0000
0000
0000
,
0001
0000
0000
0000
,
0100
0000
0000
0000
,
0010
0000
0000
0000
,
1000
1000
1000
0000
,
0001
0001
0001
0000
,
0100
0100
0100
0000
,
0010
0010
0010
0000
,
0100
0000
0000
0000
,
0001
0000
0000
0000
,
1000
0000
0000
0000
,
0010
0000
0000
0000
,
1000
0000
0000
0000
,
0001
0000
0000
0000
,
0100
0000
0000
0000
,
0010
0000
0000
0000
,
1000
1000
1000
0000
,
0001
0001
0001
0000
,
0010
0010
0010
0000
,
0100
0100
0100
0000
,
0000
0001
0000
1000
,
0000
0010
0000
0100
,
0000
0001
0000
0001
,
0000
1000
0000
1000
,
1000
0000
0000
0010
,
0010
0000
0000
0100
,
0100
0000
0000
0001
,
0001
0000
0000
1000
,
1000
0000
0000
0000
;

//---------------dance-single - ----------------
#NOTES:
     dance-single:
     :
     Easy:
     3:
     0.163,0.181,0.023,0.181,0.000:
0000
0000
0000
0000
,
0000
0000
0000
0000
,
0000
0000
0000
0000
,
0000
0000
0000
0000
,
0100
0000
0000
0000
,
0010
0000
0000
0000
,
1000
0000
0000
0000
,
0001
0000
1000
0000
,
0001
0010
0001
0010
,
0100
1000
0100
1000
,
0001
0010
0001
1000
,
0001
0010
0001
0100
,
0020
0030
1000
1000
,
0200
0300
1000
1000
,
0020
0030
0100
0100
,
0002
0003
0000
0000
,
1001
0000
0100
0001
,
0200
0300
0010
1000
,
0020
0030
1000
0001
,
2000
3000
0001
0001
,
1000
1000
0200
0300
,
1000
1000
0002
0003
,
0010
0010
0002
0003
,
0010
0010
0200
0300
,
0010
0001
2000
3000
,
0001
1000
0200
0300
,
1000
0001
0020
0030
,
0002
0003
2000
3000
,
0001
0001
1000
1000
,
0001
0001
0100
0100
,
0010
0010
1000
1000
,
0100
0100
0001
0001
,
1001
0000
0000
0000
;

//---------------dance-single - ----------------
#NOTES:
     dance-single:
     :
     Medium:
     6:
     0.292,0.308,0.045,0.328,0.000:
0000
0000
0000
0000
,
0000
0000
0000
0000
,
0000
0000
0000
0000
,
0000
0000
0000
0000
,
2000
0000
3000
0000
0001
0001
0001
0000
,
0200
0000
0300
0000
0010
0010
0010
0000
,
0002
0000
0003
0000
1000
1000
1000
0000
,
0020
0000
0030
0000
0100
0001
0100
0000
,
0001
1000
0001
1000
,
0010
0100
0010
0100
,
0001
1001
1000
1001
,
0100
0110
0010
0110
,
0200
0000
0301
1000
0001
1000
0001
0000
,
2000
0000
3010
0100
0010
0100
0010
0000
,
0200
0000
0301
0010
0001
0010
0001
0000
,
2000
0000
3000
0000
0100
0000
1000
0001
,
2000
0000
3010
1000
0010
1000
0010
0000
,
0200
0000
0301
0100
0001
0100
0001
0000
,
0020
0000
0031
0010
0001
0010
0001
0000
,
0200
0000
1300
0100
1000
0001
1000
0000
,
1000
0000
0010
0000
1000
0010
2000
0000
,
3001
0000
0010
0000
0001
0010
0002
0000
,
1003
0000
0100
0000
1000
0100
2000
0000
,
3010
0000
0100
0000
0010
0100
0020
0000
,
1030
0001
1000
0001
1000
0001
2000
0000
,
3001
0010
0001
0010
0001
0010
0200
0000
,
0310
0001
0010
0001
0010
0001
2000
0000
,
3002
0103
0020
1030
,
0002
0000
1003
0001
2000
0000
3001
0100
,
0002
0000
0103
0010
0200
0000
0310
1000
,
0020
0000
1030
0100
2000
0000
3100
0010
,
0200
0000
1300
0100
2000
0000
3001
0100
,
0001
0000
0000
0000
;

//---------------dance-single - ----------------
#NOTES:
     dance-single:
     :
     Hard:
     7:
     0.341,0.326,0.034,0.441,0.000: // measure 1
0000
0000
0000
0000
,  // measure 2
0000
0000
0000
0000
,  // measure 3
0000
0000
0000
0000
,  // measure 4
0000
0000
0000
0000
,  // measure 5
0020
0000
0030
0000
0100
0001
0100
0000
,  // measure 6
0002
0000
0003
0000
1000
0100
1000
0000
,  // measure 7
0200
0000
0300
0000
1000
0001
0100
0000
,  // measure 8
0002
0000
0003
0000
0010
0100
0010
0000
,  // measure 9
0002
0000
1003
0100
2000
0000
3100
0010
,  // measure 10
0200
0000
1300
0100
0020
0000
0031
0100
,  // measure 11
0002
0000
1003
0001
2000
0000
3010
0100
,  // measure 12
0020
0000
0130
0001
2000
0000
3001
0010
,  // measure 13
0200
0000
0310
0010
0001
0001
1000
0010
,  // measure 14
2000
0000
3001
0001
0100
0100
0001
1000
,  // measure 15
0002
0000
1003
1000
0100
0100
0010
0100
,  // measure 16
0020
0000
0030
0000
0100
0000
1000
0001
,  // measure 17
1002
0000
1003
1000
0010
0010
1000
0100
,  // measure 18
0002
0000
0103
0100
1000
1000
0010
0001
,  // measure 19
0020
0000
1030
1000
0001
0001
0010
0001
,  // measure 20
0200
0000
0300
0000
0001
1000
2001
0000
,  // measure 21
3001
0001
0010
0010
0001
0100
0002
0000
,  // measure 22
1003
1000
0010
0010
1000
0100
2000
0000
,  // measure 23
3100
0100
1000
1000
0001
0001
0020
0000
,  // measure 24
0031
0100
0020
0000
0130
0001
0200
0000
,  // measure 25
0301
0001
1000
1000
0001
1000
0002
0000
,  // measure 26
1003
1000
0001
0001
1000
0001
2000
0000
,  // measure 27
3010
0010
0100
0100
0010
0100
0020
0000
,  // measure 28
2030
0000
3100
1000
0200
0000
0310
0001
,  // measure 29
0020
0000
0031
1000
0002
0000
0103
0010
,  // measure 30
0200
0000
0310
1000
0200
0000
0310
0001
,  // measure 31
2000
0000
3001
0010
0002
0000
1003
0100
,  // measure 32
0020
0000
0130
1000
0200
0000
1300
0001
,  // measure 33
1001
0000
0000
0000
;
