#TITLE:Hellhounds on My Trail;
#SUBTITLE:;
#ARTIST:Children of Bodom;
#TITLETRANSLIT:;
#SUBTITLETRANSLIT:;
#ARTISTTRANSLIT:;
#GENRE:;
#CREDIT:;
#MENUCOLOR:;
#METERTYPE:DDR;
#BANNER:Hellhounds on My Trail.png;
#BACKGROUND:Hellhounds on My Trail-bg.png;
#LYRICSPATH:;
#CDTITLE:./CDTITLES/NONE.PNG;
#MUSIC:Hellhounds on My Trail.ogg;
#OFFSET:0.000;
#SAMPLESTART:68.738;
#SAMPLELENGTH:15.000;
#SELECTABLE:YES;
#LISTSORT:;
#BPMS:0.000=206.000;
#STOPS:;
#BGCHANGES:0.000=Hellhounds on my Trail.avi=1.000=0=0=0,
99999=-nosongbg-=1.000=0=0=0 // don't automatically add -songbackground-
;
#ATTACKS:;

//---------------dance-single - ----------------
#NOTES:
     dance-single:
     t7r:
     Beginner:
     5:
     0.225,0.331,0.016,0.000,0.000:
0000
0000
0000
0000
,
0000
0000
0000
0000
,
0000
0000
0000
0000
,
0000
0000
0000
0000
,
0000
0000
0000
0000
,
0000
0000
0000
0000
,
0000
0000
0000
0000
,
0100
0100
0100
0100
,
0100
0100
0100
0000
,
0010
0010
0010
0010
,
0010
0010
0010
0000
,
1000
0000
0001
0000
,
0100
0000
0001
0000
,
1000
0000
0010
0000
,
0100
0000
0001
0000
,
0010
0000
0001
0000
,
0010
0000
0100
0000
,
1000
0000
0100
0000
,
0001
0000
0010
0000
,
1000
0000
1000
0000
,
0010
0000
0100
0000
,
0001
0000
0010
0000
,
0100
0000
0100
0000
,
0010
0000
0001
0000
,
1000
0000
0010
0000
,
0100
0000
0001
0000
,
1000
0000
1001
0000
,
0100
0000
0100
0000
,
0100
0000
0100
0000
,
0010
0000
0010
0000
,
0010
0000
0010
0000
,
1000
0000
1000
0000
,
1000
0000
1000
0000
,
0001
0000
0001
0000
,
0000
0000
0100
0000
,
0100
0000
0100
0000
,
0010
0000
0010
0000
,
0000
0000
1000
0000
,
0000
0001
0000
0001
,
0000
0000
0100
0000
,
0010
0000
1000
0000
,
0001
0000
0010
0000
,
0000
0100
0000
0100
,
0100
0000
1000
0000
,
0001
0000
0100
0000
,
0010
0000
1000
0000
,
0001
0000
0010
0000
,
0001
0000
1000
0000
,
0010
0000
0100
0000
,
0001
0000
1000
0000
,
0100
0000
1000
0000
,
0010
0000
0100
0000
,
0001
0000
0100
0000
,
0001
0000
0010
0000
,
0001
0000
0100
0000
,
1000
0000
0010
0000
,
0001
0000
0100
0000
,
1000
0000
0010
0000
,
0100
0000
0001
0000
,
1000
0000
1000
0000
,
1000
0000
1000
0000
,
0001
0000
0001
0000
,
0100
0000
0010
0000
,
1000
0000
1000
0000
,
0010
0000
0010
0000
,
0100
0000
0100
0000
,
0001
0000
0001
0000
,
0100
0000
0001
0000
,
0010
0000
0100
0000
,
1000
0000
0010
0000
,
0100
0000
0001
0000
,
1000
0000
0001
0000
,
0100
0000
0001
0000
,
1000
0000
0010
0000
,
0100
0000
0001
0000
,
1000
0000
0001
0000
,
0100
0000
0010
0000
,
0000
0000
0100
0000
,
0000
0010
0000
0010
,
0000
0000
1000
0000
,
0001
0000
0010
0000
,
0000
0000
0001
0000
,
0000
0100
0000
0100
,
0100
0000
0100
0000
,
0100
0000
0100
0000
,
0010
0000
0010
0000
,
1000
0000
1000
0000
,
0001
0000
0001
0000
,
0001
0000
0001
0000
,
0010
0000
0001
0000
,
1000
0000
0010
0000
,
1000
0000
1000
0000
,
1000
0000
1000
0000
,
0010
0000
1000
0000
,
0001
0000
0010
0000
,
0001
0000
0001
0000
,
0001
0000
0001
0000
,
0100
0000
0010
0000
,
1000
0000
0001
0000
,
1000
0000
1001
0000
,
0010
0000
0010
0000
,
1000
0000
0001
0001
,
0001
0000
0000
0000
;

//---------------dance-single - ----------------
#NOTES:
     dance-single:
     t7r:
     Easy:
     8:
     0.482,0.579,0.292,0.235,0.000:
0000
0000
0000
0000
,
0000
0000
0000
0000
,
0000
0000
0000
0000
,
0000
0000
0000
0000
,
0000
0000
0000
0000
,
0000
0000
0000
0000
,
0000
0000
0000
0000
,
0002
1000
1000
1000
,
0100
0100
0010
0013
,
2000
0100
0100
3100
,
0010
1001
0110
1001
,
1000
0100
0010
0001
,
1000
1000
0100
0100
,
0010
0001
0100
0010
,
1000
1000
0010
0010
,
0100
0001
1000
0001
,
0010
0010
0001
0001
,
0010
0100
1000
0100
,
0010
1001
0110
1001
,
0010
0100
0001
1000
,
0001
0001
0010
0010
,
0001
0100
0010
1000
,
0100
0100
0010
0010
,
0100
1000
0001
0100
,
0010
0010
1000
1000
,
0001
0010
1000
0010
,
0001
0100
0010
0100
,
0001
0001
2002
3003
,
1000
0002
0003
2000
,
3001
0001
0011
0000
,
1000
0200
0300
2000
,
3010
0010
0110
0000
,
0100
0002
0003
2000
,
3100
0100
0110
0000
,
0100
1100
0101
1100
,
0001
0001
0010
0010
,
0100
1000
0001
0100
,
0010
0010
1000
1000
,
0001
0010
0001
1000
,
0001
0001
0100
0100
,
0001
1000
0100
1000
,
0100
0100
0010
0010
,
0100
1100
0101
1100
,
1000
1000
1000
1000
,
0001
0001
0001
0001
,
0010
0010
0001
0001
,
0100
0010
1000
0010
,
0100
0100
0100
0100
,
0001
0001
0001
0001
,
1000
1000
0010
0010
,
1000
0001
1000
1001
,
0010
0010
0010
0010
,
0100
0001
1000
0100
,
1000
1000
1000
1000
,
0100
0010
0001
1000
,
0001
0100
0010
1000
,
0010
0100
0001
1000
,
0100
0001
0100
1000
,
0002
1000
1000
1003
,
0010
0100
0010
0000
,
1000
0001
0100
0000
,
0001
0001
0010
0100
,
0010
0010
0001
1000
,
0000
0010
0100
0010
,
0000
1000
0001
1000
,
0000
0010
0010
1000
,
0001
0010
0100
1000
,
0001
0001
0010
0000
,
0001
0001
0100
0000
,
0010
1000
0100
0001
,
0100
1000
0010
0001
,
0010
0010
1000
0000
,
0001
0001
0010
0000
,
0100
0010
0001
1000
,
0100
1000
0001
0100
,
0001
0001
0202
0303
,
0001
2002
3003
2020
,
3030
0010
0220
0330
,
0000
2002
3003
0110
,
0010
0010
2020
3030
,
0100
0202
0303
2200
,
3300
0010
0200
0300
,
0000
0020
0030
1000
,
1001
1000
0001
0001
,
1000
1000
0100
0100
,
1000
0010
0100
0001
,
1000
0010
0100
0001
,
1000
1000
0100
0100
,
0010
0010
0001
0001
,
1000
0100
0011
0100
,
1000
0100
0011
0100
,
0001
0001
0100
0100
,
0010
0010
1000
1000
,
0001
0100
1010
0100
,
0001
0100
1010
0100
,
0001
0001
1000
1000
,
0010
0010
0100
0100
,
0010
0100
1001
0100
,
0010
0100
1001
0100
,
1001
0000
0110
0000
,
0010
0010
1000
1000
,
0001
0100
1000
0100
,
0110
0000
0000
0000
;

//---------------dance-single - ----------------
#NOTES:
     dance-single:
     t7r:
     Medium:
     10:
     0.578,0.662,0.259,0.195,0.000:
0000
0000
0000
0000
,
0000
0000
0000
0000
,
0000
0000
0000
0000
,
0000
0000
0000
0000
,
0000
0000
0000
0000
,
0000
0000
0000
0000
,
0000
0000
0000
0000
,
0010
0100
0100
0100
,
0010
0001
1000
1001
,
0110
0100
0100
0100
,
0010
1001
0110
1001
,
0001
0000
0010
0001
0010
0000
0100
1000
,
0100
1000
1000
1000
,
0010
0000
1000
0010
1000
0000
0001
0100
,
0001
0100
0100
0100
,
0010
0000
1000
0001
0010
0000
0001
1000
,
0100
1000
0001
1000
,
0001
0000
0100
0010
0100
0000
0010
0000
,
0100
0110
1001
0110
,
0001
0010
0001
0000
1000
0100
1000
0100
,
1000
0010
0100
0001
,
1000
0001
0100
0000
0001
1000
0001
1000
,
0010
0100
0001
1000
,
0010
1000
0010
0000
0100
0001
0100
0001
,
0100
0001
0010
0100
,
1000
0100
0010
0000
0100
0010
0001
0100
,
0010
1000
0001
0100
,
0001
0001
2000
0001
,
0001
3010
0001
0200
,
0310
1000
0200
0010
,
0010
0301
0100
0002
,
1003
0010
2000
0100
,
0100
3010
1000
0002
,
0103
0010
0200
0001
,
0010
0000
0301
0000
1000
0001
0100
0000
,
0001
0010
0001
0100
,
0010
1000
0010
0100
,
0001
1000
2002
3003
,
0000
0110
0000
1001
,
1000
0100
0010
0001
,
1000
0100
0010
0100
,
1000
0001
0202
0303
,
0000
1100
0000
0101
,
1000
0000
0100
1000
0100
0000
0010
0001
,
0010
0000
0001
0100
0001
0000
0100
0000
,
0010
0000
1000
0001
1000
0000
0001
0010
,
0100
0010
0001
1000
,
0100
0000
0010
0100
1000
0000
0010
0100
,
0001
1000
0001
0100
,
0001
0000
1000
0001
0010
0000
0001
0000
,
1000
1001
0110
1001
,
1000
0000
0100
0001
0100
0000
1000
0100
,
1000
0010
0100
0001
,
0100
0000
0001
0010
0001
0000
1000
0010
,
1000
0010
0100
0001
,
1000
0000
0001
1000
0200
0000
1300
0001
,
0020
0031
0100
0010
,
1000
0000
0100
0010
0002
0000
0103
0010
,
1000
1010
0101
1100
,
0001
0100
0001
0100
0000
0100
0001
1000
,
0000
1000
0001
0010
0000
0010
0001
1000
,
0000
1000
0001
0000
0100
0000
0001
0000
,
1000
0100
0010
0100
,
1000
0100
0010
0100
0000
0100
1000
0010
,
0000
0010
0100
0001
0000
0001
1000
0010
,
0000
0010
0100
0000
0001
0000
1000
0000
,
0100
0010
0100
1000
,
0001
0010
1000
0010
0000
0010
0001
0100
,
0000
0100
0010
1000
0000
1000
0100
1000
,
0000
1000
0001
0000
0100
0000
0001
0000
,
1000
0100
0010
0100
,
1000
0100
0001
0100
0000
0100
1000
0001
,
0000
0001
0100
0010
0000
0010
0100
0001
,
0000
0001
1000
0000
0001
0000
0010
0000
,
0001
1000
0010
0100
,
1001
1000
0002
0013
,
0010
0002
0103
0020
,
0130
0001
2002
3003
,
0000
0110
0000
1001
,
0001
0010
0200
0310
,
0001
2000
3100
0002
,
0103
1000
0220
0330
,
0000
1001
0000
0101
,
0001
0100
0010
0100
,
0001
0100
0010
0100
,
0001
1000
0001
0000
1000
0000
0001
0000
,
1000
0001
1000
0000
0001
0000
1000
0000
,
0001
0010
0100
1000
,
0001
0010
0100
1000
,
0100
0010
0100
0000
0001
0000
0100
0000
,
1000
0100
1000
0000
0001
0000
1000
0000
,
0010
0100
0001
1000
,
0010
0100
0001
1000
,
0001
0010
0001
0010
0001
1000
0001
0000
,
1000
0010
1000
0010
1000
0001
1000
0000
,
0001
0100
0010
1000
,
0100
0010
0001
1000
,
0100
0010
0100
0010
0100
1000
0100
0000
,
0001
0100
0001
0100
0010
0001
0010
0000
,
1001
0000
0000
0000
0100
0010
0000
0000
,
1000
0010
1000
0010
0100
0000
0110
0000
,
1001
0000
0101
0000
1100
0000
0001
0010
,
0100
0000
0000
0000
;

//---------------dance-single - ----------------
#NOTES:
     dance-single:
     t7r:
     Hard:
     14:
     0.850,0.786,0.357,0.300,0.008: // measure 1
0000
0000
0000
0000
,  // measure 2
0000
0000
0000
0000
,  // measure 3
0000
0000
0000
0000
,  // measure 4
0000
0000
0000
0000
,  // measure 5
0000
0000
0000
0000
,  // measure 6
0000
0000
0000
0000
,  // measure 7
0000
0000
0000
0000
,  // measure 8
1000
0000
1001
0000
1001
0000
0100
0010
,  // measure 9
1010
0000
0010
1000
1001
0000
0010
0001
,  // measure 10
0101
0000
0100
0000
0210
0010
0010
0310
,  // measure 11
1001
0110
1001
1100
,  // measure 12
0012
0000
0103
0010
1000
0010
0100
0001
,  // measure 13
2000
0000
3100
0010
0100
1000
0001
0100
,  // measure 14
0002
0000
0103
0010
1000
0010
0100
0001
,  // measure 15
1000
0001
0010
0100
0010
0001
1000
0001
,  // measure 16
0200
0000
0310
1000
0010
0100
0001
0010
,  // measure 17
0002
0000
1003
0100
0010
0100
1000
0001
,  // measure 18
0200
0000
0310
1000
0010
0100
0001
1000
,  // measure 19
0001
1001
0110
1001
,  // measure 20
1000
0100
0010
0100
1000
0001
1000
0001
,  // measure 21
0100
0010
1000
0010
0100
0001
1000
0001
,  // measure 22
0010
0001
0010
1000
0010
0100
0010
0001
,  // measure 23
1000
0001
0100
0010
1000
0001
1000
0001
,  // measure 24
0100
0010
1000
0100
0010
0100
1000
0001
,  // measure 25
0100
0010
0100
0001
0100
1000
0100
0001
,  // measure 26
0100
0010
1000
0010
1000
0001
0010
0100
,  // measure 27
0010
0001
0001
1000
0010
0100
0001
1000
,  // measure 28
0001
0001
0001
0001
0011
0000
0001
0001
,  // measure 29
0001
0001
0101
0000
0010
0100
1001
0000
,  // measure 30
1000
0010
0020
0030
0110
0000
1000
0100
,  // measure 31
0200
0300
1001
0000
0010
0100
0101
0000
,  // measure 32
1000
0001
0001
0001
0011
0000
0001
1000
,  // measure 33
1000
1000
1010
0000
1000
0001
0101
0000
,  // measure 34
0001
0100
0200
0300
0110
0000
1000
0001
,  // measure 35
0100
0010
1000
1000
0010
0100
0002
0000
,  // measure 36
0103
0010
1000
0001
1000
0000
0001
0010
,  // measure 37
0100
0010
0001
0000
1000
0100
0010
0000
,  // measure 38
0100
1000
1001
0000
0220
0000
0330
0000
,  // measure 39
0000
2020
3030
0101
,  // measure 40
0001
0010
0100
0010
0001
0000
1000
0100
,  // measure 41
0010
0100
1000
0000
0001
1000
0100
1000
,  // measure 42
0010
0100
0001
1000
2002
0000
3003
0000
,  // measure 43
0000
0220
0330
1001
,  // measure 44
0001
1000
0001
1000
0020
0000
0130
0001
,  // measure 45
2000
0000
3100
0010
0100
1000
0001
0100
,  // measure 46
0010
0100
0001
0010
0002
0000
1003
0100
,  // measure 47
0020
0000
0130
1000
0001
0100
0010
1000
,  // measure 48
0010
0100
0001
0010
0002
0000
1003
0100
,  // measure 49
0002
0000
0103
1000
0001
0100
0010
1000
,  // measure 50
0010
0001
0010
0100
0020
0000
0130
0001
,  // measure 51
1000
0100
0010
0001
1000
0100
0010
0001
,  // measure 52
1000
0010
1000
0010
0100
0100
0001
0001
,  // measure 53
0010
0100
0010
0001
1000
1000
0100
0100
,  // measure 54
1000
0010
0100
0001
1000
1000
0001
0001
,  // measure 55
0010
0001
0010
0100
0010
0010
0001
0001
,  // measure 56
0100
0010
1000
0010
0100
0100
0001
0001
,  // measure 57
1000
0010
0100
0010
1000
1000
0100
0100
,  // measure 58
0010
0100
1000
0001
0100
0010
1000
0001
,  // measure 59
1000
0100
0010
0001
1000
0100
0010
0100
,  // measure 60
1000
0001
0100
0001
0000
0001
1000
0010
,  // measure 61
0000
0010
0100
0001
0000
0001
1000
0100
,  // measure 62
0010
0100
1000
0001
0100
0010
1000
0020
,  // measure 63
0000
0130
0001
1000
0001
0010
0100
1000
,  // measure 64
0001
1000
0001
1000
0000
1000
0010
0100
,  // measure 65
0000
0100
0010
1000
0000
1000
0100
1000
,  // measure 66
0001
0100
0010
1000
0001
0010
0001
2000
,  // measure 67
0000
3100
0010
0100
1000
0001
0100
0010
,  // measure 68
0100
0001
1000
0001
0000
0001
0010
0100
,  // measure 69
0000
0100
0010
0001
0000
1000
0100
0010
,  // measure 70
0100
1000
0001
0100
1000
0100
0001
0020
,  // measure 71
0000
0031
0010
0100
0010
0001
1000
0001
,  // measure 72
1000
0001
0100
0010
0000
0010
1000
0001
,  // measure 73
0000
0001
0010
0100
0000
0100
0010
0001
,  // measure 74
1000
0100
0010
0100
1000
0010
0100
0001
,  // measure 75
1000
0001
0100
0010
1000
0010
0100
0001
,  // measure 76
0010
0001
0010
0001
0100
1000
0100
1000
,  // measure 77
0100
0001
0100
0001
1000
0100
0010
0001
,  // measure 78
0010
0100
1000
0000
2002
0000
3003
0000
,  // measure 79
0000
0220
0330
1001
,  // measure 80
1000
0100
0010
0001
1000
0100
0010
0100
,  // measure 81
1000
0001
0100
0010
1000
0100
0001
0100
,  // measure 82
1000
0001
0100
0010
2002
0000
3003
0000
,  // measure 83
0000
0202
0303
1100
,  // measure 84
0001
0010
0001
0010
0001
0100
0001
0100
,  // measure 85
0001
0010
0001
0010
0001
1000
0001
1000
,  // measure 86
0010
0010
0100
0100
0001
0001
1000
1000
,  // measure 87
0010
0010
0100
0100
0001
0001
1000
1000
,  // measure 88
0001
0010
0100
1000
0001
0010
0100
1000
,  // measure 89
0001
0010
0100
0010
0001
0010
0100
0010
,  // measure 90
0001
0001
0100
0100
0010
0010
1000
1000
,  // measure 91
0001
0001
0100
0100
0010
0010
1000
1000
,  // measure 92
0100
0010
0001
1000
0100
1000
0001
0100
,  // measure 93
0010
1000
0010
0001
0010
0100
0001
1000
,  // measure 94
0001
0001
0010
0010
0001
0001
1000
1000
,  // measure 95
0001
0001
0010
0010
0001
0001
1000
1000
,  // measure 96
0010
0100
0001
1000
0100
0001
0100
1000
,  // measure 97
0010
0100
0010
1000
0001
0010
0001
1000
,  // measure 98
0010
0010
1000
1000
0001
0001
0010
0010
,  // measure 99
0001
0001
1000
1000
0010
0010
1000
1000
,  // measure 100
1001
0000
0000
0000
0110
1001
0000
0000
,  // measure 101
0010
1000
0001
0100
0001
0000
0011
0000
,  // measure 102
0110
0000
0000
0000
1100
0000
0000
0000
1001
0000
0000
0000
0001
1000
0100
1000
,  // measure 103
0001
0000
0000
0000
;

//---------------dance-single - ----------------
#NOTES:
     dance-single:
     t7r:
     Challenge:
     17:
     1.000,1.000,0.641,0.316,0.377: // measure 1
0000
0000
0000
0000
,  // measure 2
0000
0000
0000
0000
,  // measure 3
0000
0000
0000
0000
,  // measure 4
0000
0000
0000
0000
,  // measure 5
0000
0000
0000
0000
,  // measure 6
0000
0000
0000
0000
,  // measure 7
0000
0000
0000
0000
,  // measure 8
2100
0000
3001
0100
0010
1000
0100
0010
,  // measure 9
0001
1000
0100
1000
0001
0100
0010
1000
,  // measure 10
0010
0000
0110
0000
0110
0000
0110
0000
0001
1000
0001
1000
0001
1000
0001
1000
,  // measure 11
0010
1100
0101
1100
,  // measure 12
0001
0000
0100
0000
0010
1000
0010
0000
1000
0000
0100
0000
0010
0000
0100
0000
,  // measure 13
1000
0000
0100
0000
0010
0001
0010
0000
0001
0000
0100
0000
0010
0000
1000
0000
,  // measure 14
0001
0000
1000
0000
0010
0100
0010
0000
1000
0000
0100
0000
0010
0000
0001
0000
,  // measure 15
0100
0000
0001
0000
1000
0010
1000
0000
0001
0000
0001
0000
0100
0000
0100
0000
,  // measure 16
0001
0000
0010
0000
0001
1000
0001
0000
0010
0000
0001
0000
1000
0000
0010
0000
,  // measure 17
1000
0000
0100
0000
1000
0010
1000
0000
0001
0000
0100
0000
0001
0000
0010
0000
,  // measure 18
0100
0000
0010
0000
0001
1000
0001
0000
0100
0000
0010
0000
1000
0000
0010
0100
,  // measure 19
0001
0000
0000
0001
1000
0000
0000
1000
0010
0000
0000
0010
1000
0000
0000
1000
,  // measure 20
0001
0000
0010
0000
0001
1000
0100
0000
1000
0000
0010
0000
0100
0000
0001
0000
,  // measure 21
1000
0000
0100
0000
0010
0100
1000
0000
0001
0000
0100
0000
0010
0000
1000
0000
,  // measure 22
0001
0000
0010
0000
0001
0100
0001
0000
1000
0000
0010
0000
1000
0000
0100
0000
,  // measure 23
1000
0000
0001
0000
0100
0010
0100
0000
0010
0000
0010
0000
1000
0000
1000
0000
,  // measure 24
0001
0000
0010
0000
0100
0010
0001
0000
1000
0000
0100
0000
0010
0000
0100
0000
,  // measure 25
1000
0000
0010
0000
0100
0001
1000
0000
0001
0000
0010
0000
1000
0000
0010
0000
,  // measure 26
0001
0000
0100
0000
0010
1000
0100
0000
0010
0000
0001
0000
1000
0000
0100
0010
,  // measure 27
0001
1001
1001
0001
1000
0010
0100
0010
,  // measure 28
1000
0100
1000
0100
2010
0000
3001
0100
,  // measure 29
0010
1000
1002
0000
1003
0001
2001
0000
,  // measure 30
3100
0010
1000
0001
0012
0000
0103
0010
,  // measure 31
1000
0100
2010
0000
3100
0010
0210
0000
,  // measure 32
0310
0001
1000
0001
0102
0000
1003
0010
,  // measure 33
0100
0010
2010
0000
3001
1000
1002
0000
,  // measure 34
0013
0001
1000
0100
0110
0000
1000
1000
,  // measure 35
0001
0001
0100
0100
0010
0010
1000
1000
,  // measure 36
0001
0001
0001
0001
0012
0000
1003
1000
,  // measure 37
1000
1000
1020
0000
0130
0100
0210
0000
,  // measure 38
0301
0001
0001
0001
2001
0000
3001
0001
,  // measure 39
0001
0001
0021
0000
0031
0001
0102
0000
,  // measure 40
1003
0010
0010
0010
0210
0000
0301
0001
,  // measure 41
1000
1000
2001
0000
3001
0010
0210
0000
,  // measure 42
0310
0001
1000
0100
1000
0010
0100
0001
,  // measure 43
1000
0000
0001
1000
0010
0000
0100
0000
0001
0000
1000
0100
0001
0000
0100
0000
,  // measure 44
1000
0000
0001
0000
0100
0001
0100
0000
0010
0000
1000
0000
0001
0010
0001
0000
,  // measure 45
1000
0000
0100
0000
1000
0010
1000
0000
0100
0000
0001
0000
0100
0010
0100
0000
,  // measure 46
1000
0000
0010
0000
0100
0010
0100
0000
0010
0000
0001
0000
1000
0100
1000
0000
,  // measure 47
0010
0000
0100
0000
0001
1000
0100
0000
1000
0000
0001
0000
1000
0001
0100
0000
,  // measure 48
0001
0000
0010
0000
0100
0010
0001
0000
1000
0000
0100
0000
0010
0100
1000
0000
,  // measure 49
0010
0000
0100
0000
0001
0100
0010
0000
1000
0000
0001
0000
0010
0001
1000
0000
,  // measure 50
0001
0000
0100
0000
0001
1000
0100
0000
0010
0000
0100
0000
1000
0100
0010
0000
,  // measure 51
0001
0000
0100
0001
0100
0000
0001
0000
1000
0000
0001
1000
0001
0000
1000
0000
,  // measure 52
0010
0000
0100
0010
0100
0000
0010
1000
0010
0000
1000
0100
1000
0000
0001
0000
,  // measure 53
0100
0000
0001
0010
0001
0000
1000
0001
1000
0000
0001
0100
0001
0000
1000
0000
,  // measure 54
0010
0000
1000
0100
1000
0000
0100
1000
0100
0000
1000
0010
1000
0000
0001
0000
,  // measure 55
0100
0000
0001
0010
0001
0000
0100
0001
0100
0000
0001
1000
0001
0000
1000
0000
,  // measure 56
0001
0000
0010
0100
1000
0000
0100
0010
0001
0000
1000
0100
0010
0000
0100
0000
,  // measure 57
1000
0000
0001
0100
0010
0000
0100
0001
1000
0000
0001
0010
0100
0000
0010
0000
,  // measure 58
0001
0000
1000
0100
0001
0000
0100
1000
0010
0000
0001
0010
1000
0000
0100
0000
,  // measure 59
1000
0000
0001
1000
0001
0000
0100
0010
0100
0000
0010
1000
0001
0000
1000
0000
,  // measure 60
0001
0010
0100
0012
0000
1003
0010
0210
,  // measure 61
0000
0301
1000
2001
0000
3001
0010
0102
,  // measure 62
0000
0103
0101
0001
1000
0001
1000
2001
,  // measure 63
0000
0000
3001
0000
0010
0000
0100
0010
0001
0000
1000
0000
0100
0000
1000
0000
,  // measure 64
0010
0100
0010
2010
0000
3001
1000
0012
,  // measure 65
0000
0103
0010
0210
0000
0301
1000
2001
,  // measure 66
0000
3001
1001
0001
0100
0010
1000
1010
,  // measure 67
0100
0000
0010
0100
0010
0000
1000
0000
0001
0000
1000
0001
0010
0000
0001
0000
,  // measure 68
0100
0001
1000
2100
0000
3001
0100
0210
,  // measure 69
0000
0301
0010
0012
0000
1003
0010
2010
,  // measure 70
0000
3010
1010
0010
1000
0010
0100
0102
,  // measure 71
0000
0000
1003
0000
0100
0000
0010
0100
1000
0000
0001
0000
0100
0000
0001
0000
,  // measure 72
1000
0001
0100
0210
0000
0310
0100
0102
,  // measure 73
0000
1003
0001
2010
0000
3001
0100
2001
,  // measure 74
0000
3001
0101
0001
1000
0010
0100
0110
,  // measure 75
0010
0000
1000
0010
1000
0000
0001
0000
0100
0000
0001
0100
0001
0000
1000
0000
,  // measure 76
0010
1000
0010
1000
1100
1000
0100
1000
,  // measure 77
0100
0010
0110
0100
1000
0001
1001
0001
,  // measure 78
0010
0100
0010
0001
1100
0001
0100
0001
,  // measure 79
1000
0010
0101
0010
1000
0001
0011
1000
,  // measure 80
0100
0010
0100
1000
0101
0010
1000
0010
,  // measure 81
0100
0001
1001
0010
0100
0010
1100
0001
,  // measure 82
0010
0001
0101
0010
0010
1000
1000
0001
,  // measure 83
0010
0000
0100
0010
0001
0000
1000
0100
0010
0000
0100
1000
0001
0000
1000
0000
,  // measure 84
1001
0001
0001
0001
0100
0100
0010
0010
,  // measure 85
1000
1000
1000
1000
0100
0100
0010
0010
,  // measure 86
0001
0000
1000
0001
1000
0000
0001
0000
0100
0000
0010
0000
1000
0000
0100
0000
,  // measure 87
0010
0000
0001
0010
0001
0000
1000
0000
0100
0000
0010
0000
0100
0000
1000
0000
,  // measure 88
0001
0001
0001
0001
0100
0100
0010
0010
,  // measure 89
1000
1000
1000
1000
0001
0001
0010
0010
,  // measure 90
0001
0000
1000
0001
0100
0000
0001
0000
1000
0000
0001
0000
0010
0000
0100
0000
,  // measure 91
0010
0000
0001
0100
0010
0000
1000
0000
0100
0000
0010
0000
0100
0000
1000
0000
,  // measure 92
0001
0000
0001
0000
0100
0001
0100
0000
0001
0000
0001
0000
1000
0001
1000
0000
,  // measure 93
0010
0000
0010
0000
1000
0100
1000
0000
0001
0000
0001
0000
0100
0001
0100
0000
,  // measure 94
0010
1000
0010
0000
1000
0000
0001
0000
0100
0000
0001
0000
1000
0000
0001
0000
,  // measure 95
0010
0001
0010
0000
0100
0000
0010
0000
0001
0000
1000
0000
0100
0000
1000
0000
,  // measure 96
0001
0000
0100
0000
0010
1000
0010
0000
1000
0000
0001
0000
0100
0010
0100
0000
,  // measure 97
0001
0000
0100
0000
0010
1000
0010
0000
1000
0000
0100
0000
1000
0001
0100
0000
,  // measure 98
1001
0000
1001
0000
0110
0000
0110
0000
1000
0000
0100
0010
0001
0000
0100
0000
,  // measure 99
0110
0000
0110
0000
1001
0000
1001
0000
0001
0000
1000
0001
0010
0000
0001
0000
,  // measure 100
2200
0000
3300
0000
1010
1001
0000
0000
,  // measure 101
0010
1000
0100
0001
0101
0000
1100
0000
,  // measure 102
0110
0000
0000
0000
0101
0000
0000
0000
1010
0000
0000
0000
0001
0010
1000
0100
,  // measure 103
0001
0000
0000
0000
;
