#TITLE:GOLD RUSH (pop'n GOLD MOUNTAIN rush)†;
#SUBTITLE:;
#ARTIST:DJ YOSHITAKA-G feat.Michael a la mode;
#TITLETRANSLIT:GOLD RUSH (pop'n GOLD MOUNTAIN rush) (SPECIAL);
#SUBTITLETRANSLIT:;
#ARTISTTRANSLIT:;
#GENRE:;
#CREDIT:;
#MENUCOLOR:;
#METERTYPE:DDR;
#BANNER:GOLD RUSH (pop'n GOLD MOUNTAIN rush) (SPECIAL).png;
#BACKGROUND:GOLD RUSH (pop'n GOLD MOUNTAIN rush) (SPECIAL)-bg.png;
#LYRICSPATH:;
#CDTITLE:./CDTITLES/BEATMANIA IIDX.PNG;
#MUSIC:GOLD RUSH (pop'n GOLD MOUNTAIN rush) (SPECIAL).ogg;
#OFFSET:0.000;
#SAMPLESTART:13.704;
#SAMPLELENGTH:15.000;
#SELECTABLE:YES;
#LISTSORT:;
#DISPLAYBPM:324.000:648.000;
#BPMS:0.000=324.000,336.000=648.000,368.000=1296.000,456.000=324.000;
#STOPS:;
#BGCHANGES:;
#ATTACKS:;

//---------------dance-single - ----------------
#NOTES:
     dance-single:
     :
     Challenge:
     18:
     1.000,1.000,1.000,0.098,0.039: // measure 1
0000
0000
0000
0000
,  // measure 2
0000
0000
0000
0000
,  // measure 3
0000
0000
0000
0000
,  // measure 4
0000
0000
0000
0000
,  // measure 5
0000
0000
0000
0000
,  // measure 6
0000
0000
0000
0000
,  // measure 7
1001
0000
0000
1010
0000
0000
0101
0000
,  // measure 8
0000
0000
1100
0000
0001
0100
0001
0000
,  // measure 9
0011
0000
0000
1100
0000
0000
1001
0000
,  // measure 10
0000
0000
0110
0000
0100
0010
1000
0000
,  // measure 11
1001
0000
0000
1100
0000
0000
0011
0000
,  // measure 12
0000
0000
0101
0000
0001
0100
0001
0000
,  // measure 13
1001
0000
0000
0110
0000
0000
1001
0000
,  // measure 14
0000
0000
0110
0000
0100
0010
0100
0000
,  // measure 15
1001
0000
0010
1000
0001
0100
0001
1000
,  // measure 16
0110
0000
0010
0001
1000
0001
0100
0001
,  // measure 17
1001
0000
0010
0000
0100
0000
1001
0000
0100
0000
0010
0000
,  // measure 18
1100
0000
0001
0000
0010
0000
0101
0000
0010
0000
1000
0000
,  // measure 19
2002
0000
0000
3003
,  // measure 20
0000
0000
0000
0000
,  // measure 21
1010
0000
1010
0000
0100
0001
0000
0101
,  // measure 22
0000
0000
0101
0000
0010
1000
0000
1010
,  // measure 23
0000
0000
1100
0000
0100
1000
0000
1100
,  // measure 24
0000
0011
0101
1001
,  // measure 25
0110
0000
0110
0000
0101
0101
0000
1100
,  // measure 26
0000
0000
0101
0000
1000
0100
0000
0011
,  // measure 27
0000
0000
0101
0000
0001
0100
0000
1010
,  // measure 28
0000
1100
1010
1001
,  // measure 29
0110
0000
0110
0000
1000
0001
0000
0110
,  // measure 30
0000
0000
0110
0000
0100
0010
0000
0110
,  // measure 31
0000
0000
0101
0000
0001
0100
0001
1000
,  // measure 32
0000
1000
0100
0000
1001
0000
0110
0000
,  // measure 33
1001
0000
1001
0000
1100
1100
0000
1001
,  // measure 34
0000
0000
1100
0000
0100
1000
0000
0011
,  // measure 35
0000
0000
0011
0000
0100
0001
0000
1010
,  // measure 36
0000
0110
1001
0110
,  // measure 37
1001
0000
1000
0001
0100
0001
1000
0001
,  // measure 38
0110
0000
0001
1000
0100
1000
0001
1000
,  // measure 39
0010
0100
0001
1000
0010
0100
0001
1000
,  // measure 40
0001
0010
0100
1000
0001
0010
0100
1000
,  // measure 41
1001
0000
1001
0000
1010
1010
0000
1100
,  // measure 42
0000
1001
0000
0000
0001
0010
0000
0101
,  // measure 43
0000
0000
1001
0000
0100
0010
0000
1001
,  // measure 44
0000
0011
0110
1100
,  // measure 45
0101
0000
0101
0000
0011
0011
0000
0101
,  // measure 46
0000
0000
1001
0000
0100
0010
0000
0110
,  // measure 47
0000
0000
1100
0000
0100
1000
0001
1000
,  // measure 48
0000
1000
0010
0000
1010
0000
0110
0000
,  // measure 49
0101
0000
1001
0000
1100
1100
0000
1001
,  // measure 50
0000
0000
1010
0000
1000
0001
0000
1001
,  // measure 51
0000
0000
0101
0000
0001
1000
0000
0011
,  // measure 52
0000
1100
0110
0011
,  // measure 53
1001
0000
0100
0010
1000
0001
0100
0010
,  // measure 54
1001
0000
0010
0100
0001
1000
0010
1000
,  // measure 55
0001
0010
0100
1000
0001
0010
0100
1000
,  // measure 56
0001
1000
0001
1000
0010
0100
0001
1000
,  // measure 57
0012
0000
0000
0100
0000
0000
0100
0000
,  // measure 58
0000
0100
0100
0103
,  // measure 59
2010
0000
0000
0100
0000
0000
0100
0000
,  // measure 60
0000
0100
0100
3100
,  // measure 61
1002
0000
0000
1000
0000
0000
1000
0000
,  // measure 62
0000
0100
0100
0103
,  // measure 63
0210
0000
0000
0010
0000
0000
1000
0000
,  // measure 64
0000
0001
0001
0301
,  // measure 65
1001
0000
1000
0001
0100
0000
0001
0000
,  // measure 66
1000
0010
0101
1010
,  // measure 67
1100
0000
0001
0010
0100
0000
1000
0000
,  // measure 68
0001
1000
0110
1001
,  // measure 69
0011
0000
0010
0001
0100
0000
0001
0000
,  // measure 70
1000
0001
1001
0110
,  // measure 71
1001
0000
1000
0100
0010
0000
0100
0000
,  // measure 72
1100
0010
1100
1001
,  // measure 73
0110
0000
0100
0010
1000
0000
0001
0000
,  // measure 74
1000
0001
1001
0110
,  // measure 75
1001
0000
0001
1000
0100
0000
1001
0000
,  // measure 76
0110
0000
1000
0001
0010
0000
1001
0000
,  // measure 77
0101
0000
0001
0100
1000
0000
1100
0000
,  // measure 78
1000
0100
0011
0110
,  // measure 79
1001
0000
0001
0100
0010
0000
0100
0000
,  // measure 80
0001
1000
1001
1001
,  // measure 81
1010
0000
0010
1000
0100
0000
1000
0000
,  // measure 82
0001
1000
1001
0110
,  // measure 83
0011
0000
1000
0100
0010
0000
0100
0000
,  // measure 84
1000
0001
1001
0110
,  // measure 85
1000
0100
0001
0000
,  // measure 86
0001
0100
1000
0000
,  // measure 87
1000
0010
0001
0000
,  // measure 88
0001
0010
1000
0000
,  // measure 89
0010
0000
1000
0000
,  // measure 90
0001
0000
0100
0000
,  // measure 91
0001
1000
0001
1000
,  // measure 92
0010
0100
0001
1000
,  // measure 93
2002
0000
0000
0000
,  // measure 94
0000
0000
0000
0000
,  // measure 95
0000
0000
0000
0000
,  // measure 96
0000
0000
0000
0000
,  // measure 97
0000
0000
0000
0000
,  // measure 98
0000
0000
0000
0000
,  // measure 99
0000
0000
0000
0000
,  // measure 100
0000
0000
0000
0000
,  // measure 101
0000
0000
0000
0000
,  // measure 102
0000
0000
0000
0000
,  // measure 103
0000
0000
0000
0000
,  // measure 104
0000
0000
0000
0000
,  // measure 105
0000
0000
0000
0000
,  // measure 106
0000
0000
0000
0000
,  // measure 107
0000
0000
0000
0000
,  // measure 108
0000
0000
0000
0000
,  // measure 109
0000
0000
0000
0000
,  // measure 110
0000
0000
0000
0000
,  // measure 111
0000
0000
0000
0000
,  // measure 112
0000
0000
0000
0000
,  // measure 113
0000
0000
0000
0000
,  // measure 114
0000
0000
0000
0000
,  // measure 115
3003
0000
1001
1001
,  // measure 116
0100
0010
0000
0101
0000
0000
1100
0000
,  // measure 117
0001
0010
0000
0011
0000
0000
0101
0000
,  // measure 118
0001
1000
0000
1001
0000
0000
0110
0000
,  // measure 119
1001
0110
1010
1010
,  // measure 120
0100
1000
0000
1100
0000
0000
1100
0000
,  // measure 121
0100
0010
0000
0110
0000
0000
1100
0000
,  // measure 122
0001
1000
0001
0100
0000
0100
0001
0000
,  // measure 123
1001
0110
1001
1001
,  // measure 124
0010
0001
0000
0101
0000
0000
0101
0000
,  // measure 125
0001
1000
0000
1001
0000
0000
1001
0000
,  // measure 126
1000
0010
0000
1100
0000
0000
1100
0000
,  // measure 127
0110
0000
0011
0000
1001
0000
0001
1000
,  // measure 128
0001
0100
0001
1000
0110
0000
1000
0001
,  // measure 129
1000
0100
1000
0001
0110
0000
0100
0001
,  // measure 130
0011
0000
0100
1000
1010
0000
0100
0001
,  // measure 131
1001
0110
1001
1001
,  // measure 132
1100
1100
0000
0011
0000
0000
0011
0000
,  // measure 133
0101
0101
0000
1010
0000
0000
1010
0000
,  // measure 134
1100
1001
0000
1100
0000
0000
1001
0000
,  // measure 135
0110
1001
0011
0011
,  // measure 136
0101
0101
0000
1001
0000
0000
0110
0000
,  // measure 137
1001
1001
0000
1100
0000
0000
0011
0000
,  // measure 138
0001
1000
0001
0010
0000
0010
0100
0000
,  // measure 139
0110
1001
0101
1010
,  // measure 140
1100
1100
0000
0011
0000
0000
1001
0000
,  // measure 141
0110
0110
0000
1001
0000
0000
0101
0000
,  // measure 142
1100
1100
0000
0011
0000
0000
1010
0000
,  // measure 143
0110
0000
0101
0000
1001
0000
0001
0100
,  // measure 144
1000
0010
0001
0100
1001
0000
1000
0100
,  // measure 145
0001
0010
1000
0001
1001
0000
0100
0010
,  // measure 146
1001
0000
0100
1000
1100
0000
0011
0000
,  // measure 147
1001
0110
2002
0000
,  // measure 148
0000
0000
0000
0000
,  // measure 149
0000
0000
0000
0000
,  // measure 150
0000
0000
0000
0000
,  // measure 151
0000
0000
0000
0000
,  // measure 152
3003
0000
0000
0000
;
