#TITLE:Funny Little Feeling;
#SUBTITLE:;
#ARTIST:Rock n Roll Soldiers;
#TITLETRANSLIT:;
#SUBTITLETRANSLIT:;
#ARTISTTRANSLIT:;
#GENRE:;
#CREDIT:;
#MENUCOLOR:;
#METERTYPE:DDR;
#BANNER:Funny Little Feeling.png;
#BACKGROUND:Funny Little Feeling-bg.png;
#LYRICSPATH:;
#CDTITLE:./CDTITLES/NONE.PNG;
#MUSIC:Funny Little Feeling.ogg;
#OFFSET:0.000;
#SAMPLESTART:36.259;
#SAMPLELENGTH:15.000;
#SELECTABLE:YES;
#LISTSORT:;
#BPMS:0.000=139.000;
#STOPS:80.000=1.2949640287769784172661870503597‬
,175.000=0.43165467625899280575539568345324
,204.000=0.21582733812949640287769784172662
,204.500=0.21582733812949640287769784172662
,205.000=0.21582733812949640287769784172662
,205.500=0.21582733812949640287769784172662
;
#BGCHANGES:0.000=Funny Little Feeling.avi=1.000=0=0=0,
99999=-nosongbg-=1.000=0=0=0 // don't automatically add -songbackground-
;
#ATTACKS:;

//---------------dance-single - ----------------
#NOTES:
     dance-single:
     :
     Beginner:
     3:
     0.121,0.160,0.008,0.000,0.000: // measure 1
0000
0000
0000
0000
,  // measure 2
0000
0000
0000
0000
,  // measure 3
0000
0000
0000
0000
,  // measure 4
0000
0000
0000
0000
,  // measure 5
0000
0000
0000
0000
,  // measure 6
0001
0000
0000
0000
,  // measure 7
0100
0000
0000
0000
,  // measure 8
0010
0000
0000
0000
,  // measure 9
1000
0000
0000
0000
,  // measure 10
0001
0000
0100
0000
,  // measure 11
0010
0000
1000
0000
,  // measure 12
0001
0000
0100
0000
,  // measure 13
0010
0000
1000
0000
,  // measure 14
0100
0000
0000
0000
,  // measure 15
0010
0000
0000
0000
,  // measure 16
0001
0000
1000
0000
,  // measure 17
0001
0000
0100
0000
,  // measure 18
0010
0000
0000
0000
,  // measure 19
1000
0000
0000
0000
,  // measure 20
0100
0000
0010
0000
,  // measure 21
0100
0001
0000
1000
,  // measure 22
0000
0100
0000
1000
,  // measure 23
0000
0100
0000
0010
,  // measure 24
0000
0001
0000
0001
,  // measure 25
0000
1000
0000
0010
,  // measure 26
0000
0100
0000
0010
,  // measure 27
0000
0100
0000
0001
,  // measure 28
0000
1000
0000
0100
,  // measure 29
0000
1000
0000
0000
,  // measure 30
0000
0001
0000
0000
,  // measure 31
0000
0010
0000
0000
,  // measure 32
0000
0100
0000
0010
,  // measure 33
0000
1000
0000
0000
,  // measure 34
0000
0001
0000
0000
,  // measure 35
0000
0010
0000
0001
,  // measure 36
0000
0100
0000
1000
,  // measure 37
0000
0100
0000
0010
,  // measure 38
0000
0001
0000
1000
,  // measure 39
0000
0100
0000
1000
,  // measure 40
0000
0010
0000
0001
,  // measure 41
0000
1000
0000
0100
,  // measure 42
0000
0010
0000
0001
,  // measure 43
0000
1000
0000
0001
,  // measure 44
0000
0100
0000
0000
,  // measure 45
0001
0000
1000
0000
,  // measure 46
0100
0000
1000
0000
,  // measure 47
0010
0000
0001
0000
,  // measure 48
0010
0000
0100
0000
,  // measure 49
1000
0000
0100
0000
,  // measure 50
1000
0000
0001
0000
,  // measure 51
0010
0000
0001
0000
,  // measure 52
0100
0001
1000
0000
,  // measure 53
0001
0000
0010
0000
,  // measure 54
0001
0000
0100
0000
,  // measure 55
1000
0000
0100
0000
,  // measure 56
0010
0000
0001
0000
,  // measure 57
1000
0000
0100
0000
,  // measure 58
0010
0000
0001
0000
,  // measure 59
1000
0000
0001
0000
,  // measure 60
0100
0000
1000
0000
,  // measure 61
0100
0000
0001
0000
,  // measure 62
0100
0000
0110
0000
,  // measure 63
0000
0000
0000
0000
,  // measure 64
0000
0000
0000
0000
,  // measure 65
0000
0000
0000
0000
,  // measure 66
0000
0000
0010
0000
;

//---------------dance-single - ----------------
#NOTES:
     dance-single:
     :
     Easy:
     4:
     0.249,0.348,0.081,0.455,0.000: // measure 1
0000
0000
0000
0000
,  // measure 2
0000
0000
0000
0000
,  // measure 3
0000
0000
0000
0000
,  // measure 4
0000
0000
0000
0000
,  // measure 5
0000
0000
0000
0000
,  // measure 6
0020
0030
2000
3000
,  // measure 7
0001
0100
0001
0100
,  // measure 8
0002
0003
0020
0030
,  // measure 9
0100
1000
0100
1000
,  // measure 10
0020
0030
0200
0300
,  // measure 11
0001
1000
0100
1000
,  // measure 12
0200
0300
0020
0030
,  // measure 13
0001
0010
0100
2000
,  // measure 14
3000
0001
0001
0001
,  // measure 15
0000
0100
0100
0100
,  // measure 16
0010
1000
0001
1000
,  // measure 17
0001
1001
1000
1001
,  // measure 18
0000
0100
0100
0100
,  // measure 19
0000
0010
0010
0010
,  // measure 20
1000
0000
0001
0000
,  // measure 21
0100
0010
0000
1000
,  // measure 22
0000
0001
0000
1000
,  // measure 23
1000
0100
0000
0010
,  // measure 24
0000
0001
1001
1000
,  // measure 25
1001
0100
0000
0010
,  // measure 26
0000
1000
0000
0001
,  // measure 27
0000
0100
0000
0010
,  // measure 28
0000
1000
1001
0010
,  // measure 29
0110
0200
0000
0000
,  // measure 30
0300
0020
0000
0000
,  // measure 31
0030
2000
0000
0000
,  // measure 32
3000
0002
0003
0100
,  // measure 33
0100
0020
0000
0000
,  // measure 34
0030
2000
0000
0000
,  // measure 35
3000
0200
0000
0000
,  // measure 36
0300
0002
0000
0000
,  // measure 37
0003
0100
1000
0010
,  // measure 38
0000
0200
0300
0002
,  // measure 39
0003
0010
0001
0100
,  // measure 40
0000
0002
0003
2000
,  // measure 41
3000
0010
0010
0020
,  // measure 42
0030
0100
0100
0200
,  // measure 43
0300
0002
0003
2000
,  // measure 44
3000
0110
0000
0000
,  // measure 45
1000
1000
0001
0000
,  // measure 46
0100
0100
0010
1000
,  // measure 47
0200
0300
2000
3000
,  // measure 48
0001
1001
0010
0110
,  // measure 49
0100
0001
0100
0000
,  // measure 50
0010
0010
1000
0001
,  // measure 51
0020
0030
0200
0300
,  // measure 52
1000
0100
0010
0001
2000
0000
3002
0000
,  // measure 53
2003
3000
0002
0003
,  // measure 54
0200
0300
0020
0230
,  // measure 55
0320
0030
2000
3000
,  // measure 56
0200
0300
0020
0032
,  // measure 57
0023
0030
0002
0003
,  // measure 58
0200
0300
0020
2030
,  // measure 59
3002
0003
2000
3000
,  // measure 60
0002
0003
2000
3000
,  // measure 61
0002
0003
0200
0300
,  // measure 62
0020
0030
2002
0000
,  // measure 63
0000
0000
0000
0000
,  // measure 64
0000
0000
0000
0000
,  // measure 65
0000
0000
0000
0000
,  // measure 66
0000
3003
0020
0000
,  // measure 67
0030
0000
0000
0000
;

//---------------dance-single - ----------------
#NOTES:
     dance-single:
     :
     Medium:
     7:
     0.418,0.482,0.211,0.747,0.000: // measure 1
0000
0000
0000
0000
,  // measure 2
0000
0000
0000
0000
,  // measure 3
0000
0000
0000
0000
,  // measure 4
0000
0000
0000
0000
,  // measure 5
0000
0000
0000
0000
,  // measure 6
0002
0203
0320
0230
,  // measure 7
0301
1000
0001
1000
,  // measure 8
2000
3200
0320
0230
,  // measure 9
1300
0001
1000
0010
,  // measure 10
0200
0302
2003
3200
,  // measure 11
0310
0100
0010
0001
,  // measure 12
2000
3200
0320
0032
,  // measure 13
1003
0100
1000
0010
,  // measure 14
0200
0000
0310
1000
0000
1000
0010
0000
,  // measure 15
2000
0000
3001
0010
0000
0010
0001
0000
,  // measure 16
0200
0000
0310
0100
0000
0100
0001
0000
,  // measure 17
2000
3100
0020
0031
,  // measure 18
0200
0000
0301
1000
0000
1000
0001
0000
,  // measure 19
2000
0000
3001
0010
0000
0010
0001
0000
,  // measure 20
2000
0000
3100
0010
0000
0010
0100
0000
,  // measure 21
1001
0000
0100
0000
0010
1000
0000
1000
,  // measure 22
0010
0000
0100
0000
0001
1000
0000
1000
,  // measure 23
0100
0000
0010
0000
0001
0100
0000
0100
,  // measure 24
0010
1000
1100
0010
,  // measure 25
0011
0000
1001
0000
0010
1000
0000
0001
,  // measure 26
1000
0000
0001
0000
1000
0100
0000
0010
,  // measure 27
0001
0000
0100
0000
0010
1000
0000
0001
,  // measure 28
0010
0001
0101
0010
,  // measure 29
1010
2002
0000
0000
,  // measure 30
3003
0220
0000
0000
,  // measure 31
0330
2200
0000
0000
,  // measure 32
3300
0022
0033
1000
,  // measure 33
1001
2020
0000
0000
,  // measure 34
3030
0202
0000
0000
,  // measure 35
0303
0022
0000
0000
,  // measure 36
0033
0220
0330
1001
,  // measure 37
1001
0200
0302
2003
,  // measure 38
3020
0000
1030
0001
1000
0000
0002
0000
,  // measure 39
0103
0020
2030
3200
,  // measure 40
0320
0000
0130
1000
0100
0000
0010
0001
,  // measure 41
0020
0032
0203
0302
,  // measure 42
2003
0000
3010
1000
0001
0000
1000
0100
,  // measure 43
0020
0230
2300
3002
,  // measure 44
0103
0000
0001
0001
1000
1000
1001
0000
,  // measure 45
0110
0000
1000
0100
0000
0100
0010
0000
,  // measure 46
0001
0000
0100
0010
0000
0010
1000
0000
,  // measure 47
0001
0000
1000
0100
0000
1000
0010
0000
,  // measure 48
0100
0101
0010
1010
,  // measure 49
1001
0000
0010
1000
0000
0001
0010
0000
,  // measure 50
0100
0000
0010
0001
0000
1000
0100
0000
,  // measure 51
1000
0000
0001
1000
0000
0010
0100
0010
,  // measure 52
1000
0101
0001
1010
2100
0000
3200
0000
,  // measure 53
0320
0000
0032
0000
0103
0001
0200
0000
,  // measure 54
0320
2030
3002
0023
,  // measure 55
0230
0000
2300
0000
3010
0001
0020
0000
,  // measure 56
2030
3002
2003
3200
,  // measure 57
2300
0000
3002
0000
0013
0100
2000
0000
,  // measure 58
3200
0320
0230
2300
,  // measure 59
3002
0000
0203
0000
0310
1000
0020
0000
,  // measure 60
2030
0000
3001
0000
1000
0100
2000
0000
,  // measure 61
3200
0000
0310
0000
0001
0100
0002
0000
,  // measure 62
0203
0310
2002
0000
,  // measure 63
0000
0000
0000
0000
,  // measure 64
0000
0000
0000
0000
,  // measure 65
0000
0000
0000
0000
,  // measure 66
0000
3003
0020
0000
,  // measure 67
0030
0000
0000
0000
;

//---------------dance-single - ----------------
#NOTES:
     dance-single:
     :
     Hard:
     9:
     0.482,0.563,0.268,0.739,0.000: // measure 1
0000
0000
0000
0000
,  // measure 2
0000
0000
0000
0000
,  // measure 3
0000
0000
0000
0000
,  // measure 4
0000
0000
0000
0000
,  // measure 5
0000
0000
0000
0000
,  // measure 6
2000
3200
0320
0032
,  // measure 7
1003
0100
0020
0000
0230
0000
2300
0000
,  // measure 8
3002
0203
0320
2030
,  // measure 9
3001
1000
0002
0000
2003
0000
3020
0000
,  // measure 10
2030
3200
0320
0032
,  // measure 11
1003
0100
2000
0000
3200
0000
0320
0000
,  // measure 12
0230
2300
3002
0203
,  // measure 13
0310
1000
0020
0000
2030
0000
3002
0000
,  // measure 14
1003
0000
0100
1000
0001
1000
0100
1000
,  // measure 15
0001
0000
0100
0001
1000
0001
0100
0010
,  // measure 16
0010
0000
0100
0010
1000
0010
0100
0001
,  // measure 17
0010
0000
0100
0010
0100
1000
0001
0000
,  // measure 18
1001
0000
0001
0010
0001
0100
0010
0000
,  // measure 19
1100
0000
0100
1000
0010
0100
0001
1000
,  // measure 20
1000
0000
0100
0010
0001
1000
0100
1000
,  // measure 21
0001
0000
1001
0000
0001
0010
0000
0010
,  // measure 22
0100
0010
0001
0000
1000
0100
0000
0100
,  // measure 23
1000
0010
0100
0000
0100
0010
0000
0010
,  // measure 24
1000
0001
1000
0000
1001
0000
0110
0000
,  // measure 25
1001
0000
0101
0000
0001
0010
0000
0010
,  // measure 26
0001
1000
0100
0000
0100
1000
0000
1000
,  // measure 27
0010
0100
0001
0000
1000
0001
0000
0100
,  // measure 28
0001
1000
0010
0000
0110
0000
1001
0000
,  // measure 29
2100
3020
0000
0000
,  // measure 30
0030
0220
0000
0000
,  // measure 31
0330
2002
0000
0000
,  // measure 32
3003
0000
2200
0000
3300
0100
0011
0000
,  // measure 33
0101
2002
0000
0000
,  // measure 34
3003
2020
0000
0000
,  // measure 35
3030
0220
0000
0000
,  // measure 36
0330
0000
0202
0000
0303
0010
1100
0000
,  // measure 37
1001
0000
2001
0000
3001
0100
0001
0010
,  // measure 38
0001
0000
0200
0000
0310
1000
0001
1000
,  // measure 39
0100
0000
0020
0000
0130
1000
0100
0010
,  // measure 40
0001
0000
0100
0100
0001
1000
0010
1000
,  // measure 41
0001
0100
0002
0000
1003
0001
0100
0001
,  // measure 42
1000
0000
0020
0000
1030
0010
0100
0010
,  // measure 43
1000
0000
0200
0000
0310
0001
0010
0100
,  // measure 44
1000
0000
0100
0000
1000
0000
1000
0000
0001
0000
0001
0000
2002
3003
0000
0000
,  // measure 45
2010
0000
3010
1000
0100
1000
0010
0100
,  // measure 46
0002
0000
0013
0001
0010
0100
0010
0001
,  // measure 47
2000
0000
3001
0100
0001
1000
0010
0100
,  // measure 48
0010
0110
1001
0110
,  // measure 49
2100
0000
3100
1000
0001
0100
0001
0010
,  // measure 50
0002
0000
0103
0010
1000
0010
0100
0010
,  // measure 51
2000
0000
3100
0010
0001
1000
0100
0010
,  // measure 52
0100
1100
0011
1001
0102
0000
2003
0000
,  // measure 53
3200
0000
0320
0000
0130
1000
0200
0000
,  // measure 54
0320
0032
0203
0320
,  // measure 55
2030
0000
3002
0000
1003
0001
2000
0000
,  // measure 56
3002
2003
3020
0230
,  // measure 57
0302
0000
2003
0000
3100
0010
0002
0000
,  // measure 58
2003
3200
2300
3020
,  // measure 59
0230
0000
0302
0000
1003
0001
2000
0000
,  // measure 60
3002
0000
1003
0000
0001
1000
0002
0000
,  // measure 61
2003
0000
3001
0000
0100
0010
0200
0000
,  // measure 62
0310
1000
1000
1000
2002
0000
0000
0000
,  // measure 63
0000
0000
0000
0000
,  // measure 64
0000
0000
0000
0000
,  // measure 65
0000
0000
0000
0000
,  // measure 66
0000
3003
0020
0000
,  // measure 67
0030
0000
0000
0000
;

//---------------dance-single - ----------------
#NOTES:
     dance-single:
     :
     Challenge:
     15:
     0.640,0.750,0.609,0.203,0.175: // measure 1
0000
0000
0000
0000
,  // measure 2
0000
0000
0000
0000
,  // measure 3
0000
0000
0000
0000
,  // measure 4
0000
0000
0000
0000
,  // measure 5
0000
0000
0000
0000
,  // measure 6
0001
1000
0001
0100
0001
0010
0011
0001
,  // measure 7
1000
0100
1000
0001
1000
0100
0110
0110
,  // measure 8
0100
1000
0001
0100
0010
1000
1010
0010
,  // measure 9
0100
0001
0010
0001
1000
0001
1001
1001
,  // measure 10
0001
0100
1000
0100
0001
0010
0011
0001
,  // measure 11
1000
0100
0001
0100
1000
0010
1010
1010
,  // measure 12
0010
0100
0001
1000
0100
0010
0110
0100
,  // measure 13
1000
0001
0100
0010
1000
0010
0110
0110
,  // measure 14
0010
0000
1000
0010
1000
0000
0001
0000
0010
0000
0100
0000
1000
0000
0001
0000
,  // measure 15
0100
0000
0001
0010
0001
0000
1000
0000
0100
0000
0010
0000
0001
0000
1000
0000
,  // measure 16
0010
0000
0100
0001
0100
0000
0001
0000
1000
0000
0010
0000
0100
0000
0001
0000
,  // measure 17
1000
0000
0100
1000
0100
0000
1000
0000
0010
0000
0100
0001
0100
0001
0000
0001
,  // measure 18
1000
0000
0001
0010
0001
0000
1000
0000
0100
0000
0001
0000
0100
0000
0010
0000
,  // measure 19
0001
0000
0100
0001
0100
0000
0001
0000
0010
0000
1000
0000
0010
0000
0100
0000
,  // measure 20
1000
0000
0010
0100
0010
0000
1000
0000
0001
0000
0100
0000
0010
0000
1000
0001
,  // measure 21
0010
0000
0000
0000
0011
0000
0001
0100
0001
0000
2000
0000
0000
3010
0100
0000
,  // measure 22
0001
0000
1000
0000
0010
0000
1000
0100
1000
0000
0002
0000
0000
0013
0001
0000
,  // measure 23
1000
0000
0010
0000
0100
0000
0010
1000
0010
0000
0200
0000
0000
0310
1000
0000
,  // measure 24
0001
0010
0011
0001
0101
0100
0110
0010
,  // measure 25
1010
0000
1000
0000
1001
0000
1000
0100
1000
0000
0020
0000
0000
0130
0001
0000
,  // measure 26
0010
0000
0001
0000
1000
0000
0001
0010
0001
0000
0200
0000
0000
0310
1000
0000
,  // measure 27
0001
0000
0010
0000
0001
0000
1000
0001
1000
0000
0020
0000
0000
0130
0001
0000
,  // measure 28
0100
0010
1010
0010
0110
0100
0101
0001
,  // measure 29
0011
0001
2001
0000
0100
0000
0001
0000
,  // measure 30
3100
0210
0001
0010
,  // measure 31
1300
0120
1000
0100
,  // measure 32
0031
0000
0012
0000
1003
0100
0110
0000
,  // measure 33
1100
2010
0001
0100
,  // measure 34
3001
0210
1000
0010
,  // measure 35
0301
0120
0001
0100
,  // measure 36
1030
0000
1002
0000
0103
0010
1010
0000
,  // measure 37
0110
0000
0001
0100
0001
1000
0001
0010
,  // measure 38
0011
0001
1000
0100
1000
0001
1000
0010
,  // measure 39
1010
0010
0100
0010
1000
0010
0100
0001
,  // measure 40
0011
0001
1000
0100
0001
0100
0010
0001
,  // measure 41
1000
0001
1001
0001
0100
0001
0010
0001
,  // measure 42
1001
1001
1100
0100
1000
0010
0100
0001
,  // measure 43
0011
0011
0101
0100
0001
0010
0001
1000
,  // measure 44
1001
0000
0001
0000
0101
0000
0101
0000
0110
0000
0110
0000
2020
3030
0000
0000
,  // measure 45
1100
0000
0100
1000
0001
0000
0020
0000
0000
0031
1000
0000
0001
0100
0001
0000
,  // measure 46
1000
0000
0010
0100
0001
0000
0200
0000
0000
0310
1000
0000
0001
0000
0010
0000
,  // measure 47
0100
0000
0010
0001
1000
0000
0002
0000
0000
1003
0010
0000
0100
0000
0010
0000
,  // measure 48
1010
0010
0110
0100
0101
0001
0011
0001
,  // measure 49
1001
0000
0001
1000
0100
0000
0020
0000
0000
0130
1000
0000
0001
0000
0100
0000
,  // measure 50
0010
0000
0100
0001
1000
0000
0002
0000
0000
0013
0001
0000
1000
0000
0010
0000
,  // measure 51
0100
0000
0010
1000
0100
0000
0020
0000
0000
0031
1000
0000
0001
0000
0100
0000
,  // measure 52
0101
0011
1001
1100
0110
0100
1000
0010
,  // measure 53
0100
0010
1010
1000
1001
0001
0100
0001
,  // measure 54
0010
0001
0011
0001
1001
0001
0100
0010
,  // measure 55
1000
0100
0110
0100
1100
1000
0010
0001
,  // measure 56
0010
0000
1000
0000
0001
1000
0001
0000
0101
0000
0100
0001
0010
0000
0001
0000
,  // measure 57
1000
0000
0100
0000
1100
0000
1000
0000
1010
0000
0010
0100
0001
0000
0100
0000
,  // measure 58
0010
0000
1000
0000
1010
0000
0010
0000
0110
0000
0100
0001
1000
0000
0001
0000
,  // measure 59
0010
0001
0011
0001
1001
0001
1000
0100
,  // measure 60
0001
0000
0100
0000
1000
0001
1000
0000
0001
0000
1000
0000
0010
0000
0001
0000
,  // measure 61
0010
0000
1000
0000
0001
1000
0001
0000
1000
0000
0010
0000
0100
0000
0001
0000
,  // measure 62
0010
0000
0000
0000
0100
0000
0000
0000
1000
0001
0000
0000
0100
0000
0000
0000
0220
0000
0000
0000
0000
0000
0000
0000
0000
0000
0000
0000
0000
0000
0000
0000
,  // measure 63
0000
0000
0000
0000
,  // measure 64
0000
0000
0000
0000
,  // measure 65
0000
0000
0000
0000
,  // measure 66
0000
0330
0002
0000
,  // measure 67
0003
0000
0000
0000
;
