#TITLE:DOMINION;
#SUBTITLE:;
#ARTIST:L.E.D.-G;
#TITLETRANSLIT:;
#SUBTITLETRANSLIT:;
#ARTISTTRANSLIT:;
#GENRE:;
#CREDIT:;
#MENUCOLOR:;
#METERTYPE:DDR;
#BANNER:DOMINION.png;
#BACKGROUND:DOMINION-bg.png;
#LYRICSPATH:;
#CDTITLE:./CDTITLES/BEATMANIA IIDX.PNG;
#MUSIC:DOMINION.ogg;
#OFFSET:-1.224;
#SAMPLESTART:101.633;
#SAMPLELENGTH:15.000;
#SELECTABLE:YES;
#LISTSORT:;
#BPMS:0.000=49.000,8.000=196.000,264.000=98.000,280.000=196.000;
#STOPS:;
#BGCHANGES:;
#ATTACKS:;

//---------------dance-single - ----------------
#NOTES:
     dance-single:
     :
     Beginner:
     4:
     0.156,0.246,0.056,0.008,0.000: // measure 1
0000
0000
0000
0000
,  // measure 2
0000
0000
0000
0000
,  // measure 3
1000
0000
0000
0000
,  // measure 4
0000
0000
0000
0000
,  // measure 5
0001
0000
0000
0000
,  // measure 6
0000
0000
0000
0000
,  // measure 7
0100
0000
0000
0000
,  // measure 8
0100
0000
0000
0000
,  // measure 9
0010
0000
0010
0000
,  // measure 10
0010
0010
0010
0000
,  // measure 11
1000
0000
0000
0000
,  // measure 12
0000
0000
0000
0000
,  // measure 13
1000
0000
0000
0000
,  // measure 14
0000
0000
0000
0000
,  // measure 15
0001
0000
0001
0000
,  // measure 16
0001
0000
0001
0000
,  // measure 17
0100
0000
0010
0000
,  // measure 18
1000
0000
0000
0000
,  // measure 19
1000
0000
0001
0000
,  // measure 20
0100
0000
0001
0000
,  // measure 21
0010
0000
0100
0000
,  // measure 22
1000
0000
0100
0000
,  // measure 23
1001
0000
0010
0000
,  // measure 24
0100
0000
0001
0000
,  // measure 25
1000
0000
0010
0000
,  // measure 26
1000
0000
0000
0000
,  // measure 27
1000
0000
1000
0000
,  // measure 28
0001
0000
0100
0000
,  // measure 29
0001
0000
0001
0000
,  // measure 30
0010
0000
0100
0000
,  // measure 31
1001
0000
0010
0000
,  // measure 32
1000
0000
0000
0000
,  // measure 33
0010
0000
0100
0000
,  // measure 34
0001
0000
0000
0000
,  // measure 35
0001
0000
0001
0000
,  // measure 36
0001
0000
0001
0000
,  // measure 37
0001
0000
0001
0000
,  // measure 38
0001
0000
0001
0000
,  // measure 39
1000
0000
1000
0000
,  // measure 40
1000
0000
1000
0000
,  // measure 41
1000
0000
1000
0000
,  // measure 42
0010
0000
0000
0000
,  // measure 43
0010
0000
0010
0000
,  // measure 44
0010
0000
0010
0000
,  // measure 45
0010
0000
0010
0000
,  // measure 46
0010
0000
0010
0000
,  // measure 47
0100
0000
0100
0000
,  // measure 48
0100
0000
0100
0000
,  // measure 49
0100
0000
0100
0000
,  // measure 50
0001
0000
0000
0000
,  // measure 51
1000
1000
1000
0000
,  // measure 52
1000
1000
1000
0000
,  // measure 53
0001
0000
0000
0000
,  // measure 54
0000
0000
0000
0000
,  // measure 55
0010
0010
0010
0000
,  // measure 56
0010
0010
0010
0000
,  // measure 57
0100
0000
0000
0000
,  // measure 58
0000
0000
0000
0001
,  // measure 59
0001
0000
0000
0000
,  // measure 60
1000
0000
0000
0000
,  // measure 61
1001
0000
0000
0000
,  // measure 62
0000
0000
0000
0000
,  // measure 63
0110
0000
0000
0000
,  // measure 64
0000
0000
0000
0000
,  // measure 65
1001
0000
1000
0000
,  // measure 66
0001
0000
1000
0000
,  // measure 67
0001
0000
0000
0000
,  // measure 68
1000
0000
0000
0000
,  // measure 69
0010
0000
0010
0000
,  // measure 70
0100
0000
0002
0003
,  // measure 71
1000
0000
0000
0000
,  // measure 72
0000
0000
0000
0000
,  // measure 73
1000
0000
0000
0000
,  // measure 74
0000
0000
0000
0000
,  // measure 75
1000
0000
0000
0000
,  // measure 76
0001
0000
0100
0000
,  // measure 77
0001
0000
0000
0000
,  // measure 78
0000
0000
0000
0000
,  // measure 79
0001
0000
0000
0000
,  // measure 80
0010
0000
0000
0000
,  // measure 81
1001
0000
1000
0000
,  // measure 82
0100
0000
0100
0000
,  // measure 83
1000
0000
1000
0000
,  // measure 84
0010
0000
0001
0000
,  // measure 85
0100
0000
0000
0000
,  // measure 86
0001
0000
0000
0000
,  // measure 87
1000
0000
0001
0000
,  // measure 88
0010
0000
0100
0000
,  // measure 89
1001
0000
0000
0000
;

//---------------dance-single - ----------------
#NOTES:
     dance-single:
     :
     Easy:
     8:
     0.438,0.637,0.263,0.104,0.004: // measure 1
0000
0000
0000
0000
,  // measure 2
0000
0000
0000
0000
,  // measure 3
0011
0001
0100
0000
,  // measure 4
0010
1000
0001
0000
,  // measure 5
1000
0100
0010
0000
,  // measure 6
0100
1000
0001
0100
,  // measure 7
0010
0000
0000
0110
0000
0000
1001
0000
,  // measure 8
0110
0000
1001
0000
0000
1100
0000
0000
,  // measure 9
1000
0100
0010
0001
,  // measure 10
0100
0010
2000
3001
,  // measure 11
0100
0000
0100
0000
,  // measure 12
0010
0000
0010
0000
,  // measure 13
1000
0000
0001
0000
,  // measure 14
0100
0000
0001
0000
,  // measure 15
0010
1000
0100
0001
,  // measure 16
0100
1000
0010
0001
,  // measure 17
0010
0100
0001
1000
,  // measure 18
2002
3003
0000
0000
,  // measure 19
1000
0100
0010
0100
,  // measure 20
1000
0100
0010
0001
,  // measure 21
0100
0010
1000
0010
,  // measure 22
0100
0010
1000
0001
,  // measure 23
1001
0001
0100
0010
,  // measure 24
1000
0001
1000
0010
,  // measure 25
1000
0001
0100
0001
,  // measure 26
0010
0000
0010
0100
0000
0100
0000
0100
,  // measure 27
1000
0010
1000
0001
,  // measure 28
0100
0001
0010
1000
,  // measure 29
0010
0001
1000
0100
,  // measure 30
0001
0100
1000
0001
,  // measure 31
1001
0010
0100
0010
,  // measure 32
1000
0000
0100
0000
1000
0001
0000
1000
,  // measure 33
0001
0100
0020
2030
,  // measure 34
3001
0010
0100
0010
,  // measure 35
0001
0001
0100
0100
,  // measure 36
0001
0001
0010
0010
,  // measure 37
1000
1000
0100
0100
,  // measure 38
1000
1000
0010
0010
,  // measure 39
1001
0001
0100
0100
,  // measure 40
0010
0010
1000
1000
,  // measure 41
0100
0100
0010
0010
,  // measure 42
0001
1000
0001
1000
0000
0001
1000
0000
,  // measure 43
0010
1000
0010
0100
,  // measure 44
0001
0100
0010
1000
,  // measure 45
0010
0100
0010
0001
,  // measure 46
1000
0100
0010
0001
,  // measure 47
1001
0100
1000
0010
,  // measure 48
0001
0100
1000
0010
,  // measure 49
1000
0100
0001
0010
,  // measure 50
1000
0100
1000
0100
0000
1000
0000
1000
,  // measure 51
0001
1001
0001
1001
,  // measure 52
0010
0110
0010
0110
,  // measure 53
0020
1000
0100
0001
,  // measure 54
0100
1000
0100
0031
,  // measure 55
1000
1100
1000
1100
,  // measure 56
1000
0000
1100
0000
0010
0001
0000
0001
,  // measure 57
0010
0011
0010
0011
,  // measure 58
1000
0100
0020
0032
,  // measure 59
1003
0100
0001
0100
,  // measure 60
1000
0100
0001
0100
,  // measure 61
1000
0010
0001
0010
,  // measure 62
1000
0010
0001
0010
,  // measure 63
1000
0100
0001
0100
,  // measure 64
1001
0000
0100
0000
1000
0100
0001
0000
,  // measure 65
1000
0010
0001
0010
,  // measure 66
1001
0000
0010
0000
1000
0010
0001
0000
,  // measure 67
0010
0100
0001
1000
,  // measure 68
0010
1000
0100
0010
,  // measure 69
1001
0000
0000
0110
0000
0000
1001
0000
0110
0000
1001
0000
0000
0000
1000
0000
,  // measure 70
0001
0100
0010
2001
,  // measure 71
3020
0000
0000
0000
,  // measure 72
0130
0000
0000
0000
,  // measure 73
1001
0001
0100
0010
,  // measure 74
1000
0010
0100
0001
,  // measure 75
1000
0100
0010
0100
,  // measure 76
1000
0000
0001
0000
0100
0000
0001
0100
,  // measure 77
0001
1000
0010
1000
,  // measure 78
0010
0100
0001
1000
,  // measure 79
0100
0010
0100
1000
,  // measure 80
0001
0100
0001
0100
0000
0100
0001
0000
,  // measure 81
1001
0010
1000
0010
,  // measure 82
0001
0100
1000
0010
,  // measure 83
0001
0010
1000
0100
,  // measure 84
0001
0010
1000
0001
,  // measure 85
1001
0100
0010
0100
,  // measure 86
1000
0000
0001
0000
0100
0001
0000
1001
,  // measure 87
0100
0010
2000
3001
,  // measure 88
1000
0100
0010
0001
,  // measure 89
0220
0000
0000
0330
;

//---------------dance-single - ----------------
#NOTES:
     dance-single:
     :
     Medium:
     11:
     0.642,0.992,0.359,0.192,0.080: // measure 1
0000
0000
0000
0000
,  // measure 2
0000
0000
0000
0000
,  // measure 3
0001
0100
0010
0000
1000
0100
0000
0010
,  // measure 4
0000
0001
0000
0100
0000
0010
1000
0001
,  // measure 5
0100
0001
1000
0000
0010
0100
0000
0110
,  // measure 6
0000
1001
0000
1010
0000
0001
0100
0001
,  // measure 7
1000
0000
0000
1001
0000
0000
1100
0000
,  // measure 8
1001
0000
1001
0000
0000
0001
0100
0000
,  // measure 9
0001
1000
0001
0000
0100
0010
0100
0000
,  // measure 10
0001
0010
0100
0000
2000
0000
3002
0000
,  // measure 11
1003
0000
0010
0000
0010
0000
1000
0001
,  // measure 12
0001
0000
0100
0001
0001
0000
0010
0100
,  // measure 13
0000
1000
0100
0000
1000
0000
0010
1000
,  // measure 14
1000
0000
0010
0000
0100
0010
0000
1000
,  // measure 15
0010
0100
0001
0000
1000
0000
0001
0010
,  // measure 16
0100
0000
0110
0000
0001
0100
0000
0010
,  // measure 17
1000
0001
1000
0000
0010
0100
0010
0000
,  // measure 18
2000
0000
0000
3000
,  // measure 19
0001
0100
0001
0000
1100
0000
0001
0100
,  // measure 20
0001
0000
1010
0000
0001
0010
0000
0010
,  // measure 21
0001
0010
0100
0000
1100
0000
0010
0001
,  // measure 22
0010
0000
1100
0000
0100
0000
0010
0001
,  // measure 23
1000
0001
1000
0000
1001
0000
0010
0100
,  // measure 24
0010
0000
0110
0000
0100
0001
0000
1000
,  // measure 25
0001
1000
0001
0000
0011
0000
1000
0100
,  // measure 26
0010
0100
1000
0100
0000
1000
0000
0001
,  // measure 27
1001
0000
0010
0000
0010
0000
0100
0001
,  // measure 28
0001
0000
1000
0000
0010
1000
0000
0001
,  // measure 29
1000
0100
0010
0000
0010
0000
0001
0100
,  // measure 30
0001
0000
1000
0000
0010
0000
1000
0001
,  // measure 31
0100
0001
0001
0000
1000
0000
0010
1000
,  // measure 32
1000
0000
0110
0000
1000
0100
0000
0010
,  // measure 33
0001
1000
0001
1000
0002
0000
2003
0000
,  // measure 34
3010
0000
0100
0000
0001
1000
0100
0010
,  // measure 35
0100
1000
0100
0000
0010
0001
0000
0100
,  // measure 36
0001
0000
1000
0010
0000
0100
0001
1000
,  // measure 37
0001
0100
0001
0000
0010
0001
0000
1000
,  // measure 38
0100
1000
0010
0100
0001
0010
0100
1000
,  // measure 39
0001
0100
0001
0000
0010
0001
0000
1000
,  // measure 40
0010
0000
0100
0001
0000
1000
0100
0010
,  // measure 41
0001
0010
0001
0000
0100
0001
0000
1000
,  // measure 42
0001
0001
0001
0010
0010
0000
0100
0000
,  // measure 43
0210
0000
0301
1000
0020
0000
1030
0001
,  // measure 44
0020
0000
0031
1000
0020
0000
1030
0001
,  // measure 45
0200
0000
0301
1000
0200
0000
1300
0001
,  // measure 46
0200
0000
0301
1000
0200
0000
1300
0001
,  // measure 47
0100
0010
1000
0100
0010
0001
0100
0010
,  // measure 48
1000
0100
0010
0001
0100
0010
1000
0100
,  // measure 49
1000
0100
0010
0001
0100
0010
1000
0001
,  // measure 50
1000
1001
0110
1001
,  // measure 51
0010
0011
0010
0011
,  // measure 52
0010
0011
0010
0011
,  // measure 53
0101
0000
0001
0001
0100
0100
0010
1000
,  // measure 54
1001
0000
1000
0100
0010
0100
1000
0001
,  // measure 55
1001
1010
0010
1010
,  // measure 56
0010
0100
0010
0000
1000
0001
1000
0000
,  // measure 57
1100
0000
0001
0100
0000
1000
0100
0000
,  // measure 58
0011
1000
0002
2003
,  // measure 59
3010
0100
0001
0000
1000
0100
0000
0010
,  // measure 60
0001
0000
0100
0010
0000
1000
0001
0100
,  // measure 61
0001
1000
0100
0000
1000
0010
0000
0001
,  // measure 62
0010
0000
1000
0100
0000
0001
0100
0000
,  // measure 63
1000
0010
1000
0000
0001
0100
0000
0001
,  // measure 64
1000
0000
1000
0100
0000
0100
0010
0001
,  // measure 65
1000
1000
1000
1000
0100
0000
0100
0000
,  // measure 66
0010
0001
2000
3002
,  // measure 67
1003
0100
1000
0000
0001
0010
0000
0001
0000
0100
0000
0001
0000
1000
0001
0000
,  // measure 68
0100
0010
0000
1000
0000
0010
0000
0100
0000
0001
0000
0010
0000
0100
0010
0000
,  // measure 69
1001
0000
0000
0110
0000
0000
1010
0000
0101
0000
1100
0000
0000
0001
0010
0000
,  // measure 70
0001
1000
0001
1000
0010
0100
0010
0100
0001
0010
0100
0000
2000
0000
3002
0000
,  // measure 71
2003
0000
0000
0000
,  // measure 72
3001
0000
0000
0000
0000
0000
0100
0100
,  // measure 73
0100
0001
0001
0000
1000
0000
0010
1000
,  // measure 74
1000
0000
0001
0000
1000
0100
0000
0100
,  // measure 75
1000
0001
0100
0000
0110
0000
0010
1000
,  // measure 76
0010
0000
0101
0000
1000
0000
0100
1000
,  // measure 77
0001
1000
0100
0000
0011
0000
0001
0010
,  // measure 78
0010
0000
1100
0000
1000
0010
0000
0010
,  // measure 79
1000
0001
1000
0000
1001
0000
0001
0100
,  // measure 80
0001
1000
0001
0010
0000
0100
0010
0001
,  // measure 81
1000
0010
0001
0000
0010
0000
0001
0010
,  // measure 82
1000
0000
0010
0000
1000
0100
0000
0001
,  // measure 83
0100
0000
1000
0000
0001
0000
0010
0100
,  // measure 84
1000
0000
0001
0000
0100
0010
1000
0001
,  // measure 85
1000
0100
1000
0000
1010
0000
0001
0100
,  // measure 86
0100
0000
0110
0000
1000
0010
0100
0001
,  // measure 87
1000
0100
0001
0100
2000
0000
3002
0000
,  // measure 88
1003
0010
0100
0001
0010
0100
1000
0001
,  // measure 89
0220
0000
0000
0330
;

//---------------dance-single - ----------------
#NOTES:
     dance-single:
     :
     Hard:
     14:
     0.795,1.000,0.319,0.088,0.088: // measure 1
0000
0000
0000
0000
,  // measure 2
0000
0000
0000
0000
,  // measure 3
0011
0000
1000
0100
1000
0010
0000
0110
,  // measure 4
0000
0001
1000
0100
1000
0001
0010
0100
,  // measure 5
0010
0001
1000
0000
0001
0100
0000
1010
,  // measure 6
0000
0010
0100
0001
1000
0100
0010
0100
,  // measure 7
1100
0000
0000
1001
0000
0000
0011
0000
,  // measure 8
0101
0000
0110
0000
0000
0001
1001
0000
,  // measure 9
1000
1000
0100
0100
0010
0010
0001
0001
,  // measure 10
1000
0100
0010
0000
0001
0000
1001
0000
,  // measure 11
0001
0100
0010
0000
0100
0000
0100
0001
,  // measure 12
0001
0000
1000
0100
0100
0000
1000
0010
,  // measure 13
0100
0010
1000
0000
0010
0000
0010
0100
,  // measure 14
0100
0000
0001
0000
1000
0001
0100
0001
,  // measure 15
1000
0010
0100
0010
1000
0100
0010
0001
,  // measure 16
1000
0100
1000
0010
0100
0010
1000
0001
,  // measure 17
1000
0001
0100
0010
1000
0010
0100
0001
,  // measure 18
2002
0000
0000
3003
,  // measure 19
1000
0100
0010
0001
1000
0100
0010
0001
,  // measure 20
1000
0100
1000
0100
1000
0100
0010
0001
,  // measure 21
0100
0010
1000
0010
0100
0010
1000
0010
,  // measure 22
0100
0010
1000
0001
0100
0010
0100
0001
,  // measure 23
1001
0001
0010
0100
0010
0001
1000
0100
,  // measure 24
0010
0100
1000
0010
0100
0001
1000
0001
,  // measure 25
0100
0010
1000
0001
0010
0100
0010
0001
,  // measure 26
1000
1000
0001
0001
0000
1001
0010
0100
,  // measure 27
1001
0010
0001
0010
0100
1000
0100
1000
,  // measure 28
0010
0001
0010
1000
0100
0001
0100
1000
,  // measure 29
0010
0100
0001
1000
0010
0100
0010
1000
,  // measure 30
0001
0010
0100
0010
0001
1000
0100
1000
,  // measure 31
1001
1000
0010
0100
0010
1000
0010
0100
,  // measure 32
0001
0010
0100
1000
0100
0110
0000
1001
,  // measure 33
1000
0100
0010
0100
2000
0000
3001
0000
,  // measure 34
1000
0001
0100
0010
1000
0100
0010
0001
,  // measure 35
1000
0100
0010
0100
0010
0001
0100
0010
,  // measure 36
1000
0100
0010
0001
0100
0010
1000
0010
,  // measure 37
0100
0001
1000
0001
1000
0100
1000
0001
,  // measure 38
0010
0001
1000
0100
0010
0100
1000
0001
,  // measure 39
0100
0010
1000
0010
0100
0001
1000
0010
,  // measure 40
0001
0010
1000
0100
0001
0100
1000
0001
,  // measure 41
0100
0010
1000
0010
0100
0001
1000
0100
,  // measure 42
0010
0001
0100
0100
0010
0010
1000
1000
,  // measure 43
1001
0001
0100
0010
1000
0100
0010
0001
,  // measure 44
1000
0100
0010
0001
0100
0010
1000
0010
,  // measure 45
0100
0010
1000
0001
0010
1000
0010
0001
,  // measure 46
0100
0010
1000
0010
1000
0100
0001
0100
,  // measure 47
1001
0001
0100
0010
1000
0010
0100
0001
,  // measure 48
1000
0001
0010
0100
1000
0100
0010
0001
,  // measure 49
1001
0100
0100
0100
0010
0010
0001
0001
,  // measure 50
1000
1000
0010
0010
0100
0100
0001
0001
,  // measure 51
1000
0100
0001
0100
1000
0100
0001
0100
,  // measure 52
1000
0100
0001
0100
1000
0100
0001
0100
,  // measure 53
1001
0010
0010
0010
0100
0100
0001
0001
,  // measure 54
1001
0010
0010
0100
0100
0100
1000
1000
,  // measure 55
0010
1000
0010
0001
0010
1000
0010
0001
,  // measure 56
0010
1000
0100
0001
0100
1000
0100
0001
,  // measure 57
0100
1000
0010
0100
0001
1000
0001
0100
,  // measure 58
0010
1000
0001
1000
0001
0000
2001
0000
,  // measure 59
3001
0010
0100
1000
0100
0010
0001
0010
,  // measure 60
0100
1000
0100
0010
0001
0100
0010
0100
,  // measure 61
0001
0100
0010
1000
0010
0100
0001
0100
,  // measure 62
0010
1000
0010
0100
0001
1000
0100
1000
,  // measure 63
0010
1000
0010
0001
0010
1000
0100
0001
,  // measure 64
0100
1000
0010
0001
0010
1000
0100
0010
,  // measure 65
0100
1000
0001
0100
0010
1000
0010
0100
,  // measure 66
1001
0000
0110
0000
1000
0001
1000
0001
,  // measure 67
1001
0010
0100
0010
1000
0100
0010
0001
1000
0100
1000
0001
0000
0001
0100
0000
,  // measure 68
0001
0100
0010
0000
1000
0001
0000
1000
0000
0100
0000
1000
0000
0001
1000
0100
,  // measure 69
1001
0000
0000
0110
0000
0000
1001
0000
0101
0000
1001
0000
0000
0100
1100
0000
,  // measure 70
0010
0010
0010
0100
0100
0100
1000
0001
0100
0010
1000
0001
2000
0000
3001
0000
,  // measure 71
2002
0000
0000
0003
,  // measure 72
3001
0000
0000
0000
0000
0000
0010
0010
,  // measure 73
1000
0010
0100
0001
1000
0100
0010
0001
,  // measure 74
1000
0100
1000
0100
1000
0001
0100
0010
,  // measure 75
0100
0010
1000
0010
0100
0001
0010
1000
,  // measure 76
0010
0001
0100
0010
1000
0010
0100
0001
,  // measure 77
1001
0001
0010
0100
0010
0001
1000
0100
,  // measure 78
0010
0100
1000
0001
0100
0010
0100
0001
,  // measure 79
1000
0001
0100
0001
1000
0010
0100
0001
,  // measure 80
1000
1000
0100
0100
0000
1100
0010
0001
,  // measure 81
1001
0100
0010
1000
0010
0100
0001
0010
,  // measure 82
0001
1000
0010
0100
0001
1000
0100
1000
,  // measure 83
0001
0010
0100
1000
0100
0010
0001
1000
,  // measure 84
0100
0001
0100
1000
0010
0100
0001
1000
,  // measure 85
1010
0010
0100
0001
1000
0001
0010
0100
,  // measure 86
0010
0001
1000
0100
0001
0110
0000
1001
,  // measure 87
0010
0100
0001
1000
0002
0000
2003
0000
,  // measure 88
3001
0010
0100
1000
0001
0100
0001
1000
,  // measure 89
2002
0000
0000
3003
;

//---------------dance-single - ----------------
#NOTES:
     dance-single:
     :
     Challenge:
     18:
     1.000,1.000,0.463,0.088,0.994: // measure 1
0000
0000
0000
0000
,  // measure 2
0000
0000
0000
0000
,  // measure 3
0011
0000
0100
0000
1000
0000
0001
0100
0001
0000
1000
0000
0010
0100
0000
0100
,  // measure 4
0001
0000
0010
0000
0100
0000
0010
0001
0010
0000
0100
0000
1100
0000
1000
0000
,  // measure 5
1010
0000
0010
0000
0100
0000
0001
0000
1000
0100
1000
0000
0001
0010
0000
0010
,  // measure 6
0001
0000
0100
0000
0110
0000
0010
0000
0100
0000
0001
1000
0100
0000
1000
0001
,  // measure 7
0010
0000
0001
0011
0000
1000
1100
0000
,  // measure 8
1001
0000
1001
0000
0001
0100
0110
0000
,  // measure 9
1000
1000
0001
0001
0100
0100
0110
0110
,  // measure 10
0001
0100
0001
0100
0010
0100
0001
1000
0020
0000
0000
0000
0230
0000
0000
0000
,  // measure 11
0301
0010
0100
0010
0001
1000
0010
0020
,  // measure 12
0000
0130
0001
2000
0000
3001
1000
0010
,  // measure 13
0100
0001
0010
0100
0010
0001
1000
2000
,  // measure 14
0000
3001
0010
0200
0000
0310
0001
0100
,  // measure 15
0110
0000
0000
0000
0010
0000
0101
0000
0000
0000
0010
0000
1000
0000
0001
1000
,  // measure 16
0010
0000
1000
0000
0100
1000
0100
0000
1000
0000
1100
0000
0010
0000
0100
0000
,  // measure 17
1001
0000
0000
0000
0001
0000
0011
0000
0000
0000
1000
0000
0010
0100
0010
0100
,  // measure 18
0002
0000
0000
0000
,  // measure 19
1003
0000
0010
1000
0010
0000
1000
0001
0100
0000
0001
0010
0001
0000
0010
0000
,  // measure 20
0010
0000
0001
0100
0001
0000
1000
0010
1000
0000
0001
0010
0001
0000
0100
0000
,  // measure 21
0010
0000
1000
0010
1000
0000
0010
0100
0010
0000
1000
0010
1000
0000
0010
0000
,  // measure 22
0010
0000
0100
0001
1000
0000
0001
0010
0100
0000
0010
0000
0001
0000
1000
0000
,  // measure 23
1001
0000
0010
0100
0010
0000
1000
0010
1000
0000
0001
0010
0001
0000
0100
0000
,  // measure 24
0100
0000
0001
0010
0001
0000
1000
0010
1000
0000
0001
1000
0100
0000
1000
0001
,  // measure 25
0010
0000
0100
0010
0100
0000
0010
0001
0010
0000
0001
1000
0010
0000
0100
0000
,  // measure 26
0110
0000
0110
0000
0101
0000
0101
0000
0000
0000
1000
0010
1000
0000
0100
0000
,  // measure 27
1100
0000
0100
0010
0001
0000
0100
0010
1000
0000
0010
0100
0001
0000
1000
0000
,  // measure 28
1000
0000
0001
0010
0100
0000
0010
0001
0100
0000
0010
1000
0001
0000
1000
0000
,  // measure 29
0001
0000
0010
0001
0100
0000
0010
1000
0100
0000
0010
0100
1000
0000
0010
0000
,  // measure 30
0010
0000
0100
0001
1000
0000
0010
0100
0001
0000
0010
0000
0100
0000
0010
0000
,  // measure 31
1001
0000
0010
0100
0001
0000
1000
0010
0100
0000
0010
1000
0100
0000
0010
0000
,  // measure 32
0010
0000
0100
1000
0001
0000
0100
0001
0010
0000
1100
0000
0001
0000
0101
0000
,  // measure 33
1100
0000
0001
0010
0100
0000
0010
0000
2001
0000
0000
0000
3010
0100
0010
0100
,  // measure 34
0010
0000
0100
0000
0001
0000
1000
0000
0001
0000
0010
0001
0100
0000
0001
0000
,  // measure 35
1000
0000
0100
0010
0001
0000
1000
0000
0100
0010
0001
0000
1000
0000
0100
0010
,  // measure 36
0001
0000
1000
0000
0100
0010
0001
0000
0100
0000
0010
1000
0001
0000
1000
0000
,  // measure 37
0001
0000
0010
0100
1000
0000
0001
0000
0010
0100
1000
0000
0001
0000
0010
0100
,  // measure 38
1000
0000
0100
0010
0001
0000
0100
0010
1000
0000
0010
1000
0001
0000
1000
0000
,  // measure 39
0001
0000
0100
0010
1000
0000
0001
0000
0100
0010
1000
0000
0001
0000
0100
0010
,  // measure 40
1000
0000
0001
0000
0100
0010
1000
0000
0001
0000
0100
0010
1000
0000
0001
0000
,  // measure 41
1000
0000
0010
0100
0001
0000
1000
0000
0010
0100
0001
0000
1000
0000
0010
0100
,  // measure 42
0001
0000
1001
0000
1001
0000
0010
0000
0100
0010
1000
0010
0100
0000
0001
0000
,  // measure 43
1000
0100
1000
0100
1000
0000
0001
0000
0100
0010
0100
0010
0100
0000
0001
0000
,  // measure 44
0010
0100
0010
0100
0010
0000
0001
0000
0100
0001
0100
0001
0100
0000
0001
0000
,  // measure 45
1000
0010
1000
0010
1000
0000
0001
0000
0010
0001
0010
0001
0010
0000
0001
0000
,  // measure 46
1000
0100
1000
0100
1000
0000
0001
0000
0100
0001
0100
0001
0100
0000
0010
0000
,  // measure 47
0100
0010
1000
0010
0100
0000
0010
0000
1000
0100
0010
0100
1000
0000
0001
0000
,  // measure 48
0100
0001
0010
0001
0100
0000
0001
0000
0010
0001
0100
0001
0010
0000
0001
0000
,  // measure 49
1000
1000
0001
0001
0100
0100
0110
0110
,  // measure 50
0010
1000
0010
1000
0001
0100
0001
0100
0010
1000
0010
1000
0001
1000
0001
1000
,  // measure 51
0001
0010
0100
0000
1000
0010
0100
0000
0001
0010
0100
0000
1000
0010
0100
0000
,  // measure 52
0001
0100
0010
0000
1000
0010
0100
0000
0001
0100
0010
0000
1000
0010
0100
0000
,  // measure 53
0110
0000
0001
0000
0001
0000
1000
0000
0010
0100
0010
0100
0010
1000
0001
1000
,  // measure 54
0001
0000
1000
0100
1000
0000
0001
0000
0010
0000
0100
0000
1100
0000
0001
0000
,  // measure 55
1001
0010
0100
0000
0001
0010
0100
0000
1000
0010
0100
0000
0001
0010
0100
0000
,  // measure 56
1000
0100
1000
0100
0010
0100
0010
0100
0010
0001
0010
0001
0100
0010
0100
0010
,  // measure 57
1000
1000
0001
0001
0100
0100
0110
0110
,  // measure 58
0001
0000
1000
0001
0010
0000
0001
1000
0100
0000
1000
0000
0010
0100
0010
0100
,  // measure 59
0010
0000
1000
0100
0010
0000
0001
0000
1000
0100
0010
0000
0001
0000
1000
0010
,  // measure 60
0100
0000
0001
0000
1000
0010
0100
0000
0001
0000
1000
0100
0010
0000
0100
0000
,  // measure 61
1000
0000
0010
0100
0001
0000
1000
0000
0010
0100
0001
0000
1000
0000
0100
0010
,  // measure 62
0001
0000
1000
0000
0100
0010
0001
0000
1000
0000
0001
0010
0100
0000
0010
0000
,  // measure 63
1001
0000
0100
0010
1000
0000
0010
0000
0100
0010
1000
0000
0010
0000
0100
0001
,  // measure 64
0010
0000
0100
0000
1000
0010
0100
0000
0001
0000
1000
0001
0010
0000
0001
0000
,  // measure 65
1000
1000
0001
0001
0100
0100
0110
0110
,  // measure 66
0001
0010
0001
0010
0100
1000
0100
1000
0001
0100
0010
1000
0001
0100
0010
1000
,  // measure 67
0001
0010
0001
0000
1000
0010
0000
1000
0000
0001
0000
1000
0000
0100
0010
0100
,  // measure 68
1000
0000
0010
0000
0100
0000
0001
0000
1000
0000
0010
0000
0000
0000
1000
0000
0000
0000
0100
0000
0000
0000
1000
0000
0000
0000
0001
0000
1000
0000
0010
0100
,  // measure 69
0001
0000
1000
1100
0000
0001
0011
0000
1001
0000
0110
0000
0001
0100
0110
0000
,  // measure 70
1000
0000
1000
0000
0001
0000
0001
0000
0100
0000
0100
0000
0110
0000
0110
0000
0001
0010
0001
0010
0100
1000
0100
1000
0010
0100
0001
1000
0010
0100
0010
0100
,  // measure 71
0020
0000
0000
0000
,  // measure 72
0130
0000
0000
0000
0000
0000
0110
0110
,  // measure 73
1010
0000
0100
0010
0100
0000
0010
1000
0010
0000
1000
0100
1000
0000
0001
0000
,  // measure 74
0001
0000
0010
0001
0010
0000
0001
0100
0001
0000
1000
0001
1000
0000
0010
0100
,  // measure 75
0010
0000
1000
0100
1000
0000
0001
0010
0001
0000
1000
0010
1000
0000
0010
0000
,  // measure 76
0010
0000
0100
0010
0100
0000
0001
1000
0001
0000
0010
0000
0110
0000
0010
0000
,  // measure 77
1001
0000
0100
0001
0100
0000
0001
0010
0001
0000
1000
0100
1000
0000
0001
0000
,  // measure 78
0001
0000
1000
0100
1000
0000
0001
0100
0001
0000
1000
0010
1000
0000
0001
0010
,  // measure 79
0001
0000
1000
0100
0010
0000
0001
0100
0010
0000
0100
0001
1000
0000
0001
0000
,  // measure 80
1001
0000
0001
1000
0100
0000
1100
0000
0010
0000
0100
0000
0001
0000
1001
0000
,  // measure 81
0101
0000
0010
0100
0001
0000
1000
0100
0010
0000
0100
1000
0010
0000
0100
0000
,  // measure 82
0100
0000
0001
1000
0010
0000
1000
0001
0010
0000
0001
0100
0010
0000
0100
0001
,  // measure 83
0010
0000
0100
1000
0010
0000
0100
0001
1000
0000
0001
0010
0100
0000
0010
0000
,  // measure 84
0010
0000
0001
0010
0100
0000
1000
0010
0100
0000
0010
1000
0100
0000
0010
0000
,  // measure 85
1001
0000
0100
0010
1000
0000
0010
0100
0001
0000
0010
0001
1000
0000
0001
0000
,  // measure 86
1000
0000
0001
1000
0010
0000
1000
0000
1100
0000
0100
0000
1001
0000
0010
0000
,  // measure 87
1000
0000
0100
0000
0010
0100
1000
0100
0020
0000
0000
0000
0031
0000
1000
0000
,  // measure 88
0001
0010
0001
0010
0100
1000
0100
1000
0010
0100
0010
0100
0001
1000
0010
0100
,  // measure 89
0002
0000
0000
0003
;
