#TITLE:DANCER;
#SUBTITLE:;
#ARTIST:DE VOL;
#TITLETRANSLIT:;
#SUBTITLETRANSLIT:;
#ARTISTTRANSLIT:;
#GENRE:;
#CREDIT:;
#MENUCOLOR:;
#NEWMETERSYSTEM:NO;
#BANNER:DANCER.png;
#BACKGROUND:DANCER-bg.png;
#LYRICSPATH:;
#CDTITLE:./CDTITLES/BEATMANIA IIDX.PNG;
#MUSIC:DANCER.mp3;
#OFFSET:-0.104;
#SAMPLESTART:65.539;
#SAMPLELENGTH:15.000;
#SELECTABLE:YES;
#LISTSORT:;
#DISPLAYBPM:145.000:149.000;
#BPMS:0.000=145.000,4.000=149.000;
#STOPS:;
#BGCHANGES:0.000=DANCER.avi=1.000=1=1=0,
99999=-nosongbg-=1.000=0=0=0 // don't automatically add -songbackground-
;
#ATTACKS:;

//---------------dance-single - ----------------
#NOTES:
     dance-single:
     :
     Beginner:
     1:
     0.137,0.153,0.000,0.000,0.000:
0000
0000
0000
0000
,
0000
1000
0000
1000
,
0000
1000
0000
0001
,
0000
0001
0000
0001
,
0001
0000
0000
0000
,
0000
0100
0000
0100
,
0000
0100
0000
0010
,
0000
1000
0000
1000
,
1000
0000
0000
0000
,
0010
0000
0000
0000
,
0010
0000
0000
0000
,
0100
0000
0000
0000
,
0100
0000
0000
0000
,
0001
0000
0000
0000
,
0001
0000
0000
0000
,
1000
0000
0000
0000
,
1000
0000
0001
0001
,
0001
0000
0000
0000
,
0100
0000
0000
0000
,
0001
0000
0000
0000
,
0010
0000
0000
0000
,
1000
0000
0000
0000
,
0100
0000
0000
0000
,
0001
0000
0000
0000
,
0010
0000
1000
0000
,
0100
0000
0000
0000
,
1000
0000
1000
0000
,
1000
0000
0000
0000
,
0001
0000
0001
0000
,
0001
0000
0000
0000
,
0100
0000
0100
0000
,
0100
0000
0000
0000
,
0010
0000
0010
0000
,
0010
0010
0000
0010
,
0000
0100
0000
0100
,
0000
0001
0000
0001
,
0000
1000
0000
1000
,
1000
1000
0000
0001
,
0000
0100
0000
0001
,
0000
0010
0000
0100
,
0100
0000
0000
0010
,
0010
0000
1000
0000
,
0001
0000
0100
0000
,
0001
0000
1000
0000
,
0010
0000
1000
0000
,
0100
0000
0010
0000
,
0001
0000
1000
0000
,
0100
0000
1000
0000
,
0001
0000
0100
0000
,
0001
0000
0000
0000
,
1000
0000
0000
0000
,
0010
0000
0000
0000
,
0100
0000
0000
0000
,
0001
0000
0000
0000
,
1000
0000
0000
0000
,
0010
0000
0000
0000
,
0100
0000
0100
0000
,
0001
0000
0000
0000
,
0010
0000
0010
0000
,
0100
0000
0000
0000
,
1000
0000
1000
0000
,
0001
0000
0000
0000
,
1000
0000
0001
0000
,
0010
0000
0000
0000
,
1000
0000
0001
0000
,
0100
0100
0000
0000
;

//---------------dance-single - ----------------
#NOTES:
     dance-single:
     :
     Easy:
     5:
     0.330,0.337,0.038,0.291,0.000:
0000
0000
0000
0000
,
0001
0001
0000
1000
,
0000
1000
0000
0010
,
0010
0100
0000
0100
,
0001
0010
0100
1000
,
0100
0100
0000
1000
,
0000
0001
0000
0010
,
0010
0001
0000
0100
,
0010
0100
0001
1000
,
0001
0001
0001
0001
,
0001
0001
0001
0001
,
0100
0100
0100
0100
,
0100
0100
0100
0100
,
0010
0010
0010
0010
,
0010
0010
0010
0010
,
1000
1000
1000
1000
,
0001
0010
0100
1000
,
2002
3003
1000
0010
,
0200
0300
0001
0010
,
0002
0003
1000
0100
,
0020
0030
0100
1000
,
0002
0003
0100
0010
,
2000
3000
0010
0100
,
0020
0030
1000
0100
,
0002
0003
0100
1000
,
0020
0030
0020
0030
,
0100
0001
1000
0001
,
2000
3000
2000
3000
,
0001
0010
0100
1000
,
0020
0030
0020
0030
,
0100
0001
1000
0100
,
2000
3000
2000
3000
,
0001
0100
0010
1000
,
0002
1000
0000
1003
,
2000
0100
0000
3100
,
0020
0001
0000
0031
,
2000
0100
0000
3100
,
1000
2000
0000
3001
,
0002
0100
0000
0103
,
0020
1000
0000
1030
,
0200
0000
0300
0010
,
0100
0100
0100
0100
,
0000
0010
1000
0001
,
1000
1000
1000
1000
,
0000
0001
0010
0100
,
0010
0010
0010
0010
,
0000
0001
0100
0010
,
1000
0100
1000
1000
,
0000
0100
0010
0001
,
1001
0010
0000
0100
,
0001
0001
1000
1000
,
0001
0010
0000
0100
,
0010
0010
0001
0001
,
1000
0100
0000
1000
,
0010
0010
1000
1000
,
0001
0100
0000
0001
,
1000
1000
0001
0001
,
0200
0300
0010
1000
,
0002
0003
0010
0100
,
2000
3000
0100
0010
,
0001
1000
0001
1001
,
0020
0030
0100
0010
,
2000
3000
0100
0010
,
0002
0003
1000
0100
,
0010
0001
0100
1000
,
0010
0110
0000
0000
;

//---------------dance-single - ----------------
#NOTES:
     dance-single:
     :
     Medium:
     8:
     0.484,0.459,0.169,0.357,0.000:
0000
0000
0000
0000
,
1000
1001
0001
1001
,
0100
0000
0110
0000
0000
1000
0000
1000
,
0001
0011
0100
1100
,
0020
0000
1030
0000
0001
1000
0100
0000
,
1000
1001
0100
0110
,
0001
0000
0101
0000
0000
0100
0000
0100
,
0010
1100
0010
0101
,
2000
0000
3001
0000
0100
0001
0001
0001
,
1000
0000
0010
0000
1000
1000
1000
0000
,
0001
0000
0100
0000
0001
0001
0001
0000
,
0010
0000
0100
0000
0010
0010
0010
0000
,
0001
0000
0100
0000
0010
1000
0100
0000
,
1000
0000
0100
0000
0001
0001
0001
0000
,
0100
0000
1000
0000
0010
0010
0010
0000
,
0001
0000
0010
0000
1000
1000
1000
0000
,
0100
0010
0002
0000
1003
0001
1000
0001
,
2000
0000
3010
0000
0100
0001
0000
0001
,
0200
0000
0310
0000
0001
1000
0000
1000
,
0002
0000
1003
0000
0100
1000
0000
1000
,
0200
0000
0310
0000
0100
1000
0000
0001
,
0200
0000
0301
0000
1000
0100
0000
1000
,
0020
0000
1030
0000
0001
0100
0000
0001
,
0020
0000
0031
0000
1000
0100
0000
0010
,
0001
1000
0001
1001
,
0020
0000
0030
0000
0100
0001
0100
0000
,
0002
0000
0003
0000
0010
0100
1000
0000
,
0200
0000
0300
0000
1000
0010
0100
0000
,
0020
0000
0030
0000
1000
0001
1000
0000
,
2002
0000
3003
0000
0001
0010
0100
0000
,
0020
0000
0030
0000
0001
0100
1000
0000
,
0200
0000
0300
0000
1000
0100
0010
0000
,
0001
0100
0010
1000
,
1002
1000
0000
1003
,
0200
1000
0000
0310
,
2000
0001
0000
3100
,
0020
0100
0000
0031
,
1000
2001
0000
3010
,
0100
0002
0000
1003
,
0010
2000
0000
3100
,
0020
0000
0030
1001
,
0001
0100
0001
0000
1000
0100
1000
0100
,
0000
0100
1000
0001
0000
0001
0100
0000
,
0001
1000
0010
0000
0010
1000
0001
0100
,
0000
0100
0010
1000
0000
1000
0001
0000
,
0001
0010
0100
0000
0010
0001
0100
0001
,
0000
1000
0100
1000
0000
0001
0100
0000
,
1000
0010
0100
0000
0010
1000
0001
1000
,
0000
0001
0100
0000
0001
0000
1001
0000
,
0020
0000
0130
0000
0001
1000
0100
0000
,
1000
1000
0001
0000
1000
1000
0100
0000
,
0002
0000
0103
0000
0010
1000
0010
0000
,
0001
0001
0100
0000
0001
0001
1000
0000
,
0020
0000
0130
0000
0001
1000
0001
0000
,
0100
0100
0010
0000
0100
0100
1000
0000
,
2000
0000
3100
0000
0001
0100
0001
0000
,
1000
1000
0010
0000
0100
0100
0001
0000
,
2000
0000
3100
1000
0000
1000
0001
0000
,
0200
0000
0301
1000
0000
1000
0010
0000
,
0002
0000
1003
0100
0000
0100
1000
0000
,
0200
0000
0310
0001
0000
0100
0001
0000
,
2001
0000
3010
0100
0000
0001
0100
0000
,
0002
0000
0013
0100
0000
1000
0100
0000
,
2000
0000
3001
0100
0000
0010
1000
0000
,
0200
0000
0301
0010
0000
1000
0010
0000
,
0100
0001
1001
0000
0000
0000
0000
0000
;

//---------------dance-single - ----------------
#NOTES:
     dance-single:
     :
     Hard:
     10:
     0.561,0.521,0.253,0.235,0.000: // measure 1
0000
0000
0000
0000
,  // measure 2
1000
1001
0001
1001
,  // measure 3
0100
0000
0101
0000
1000
0010
0000
0010
,  // measure 4
1000
1100
0010
0011
,  // measure 5
1000
0100
0010
0000
0001
0100
0010
0000
,  // measure 6
0100
0110
0001
1001
,  // measure 7
0010
0000
1010
0000
0100
0001
0000
0001
,  // measure 8
0100
0011
1000
1100
,  // measure 9
0010
0000
1001
0000
0100
0001
0001
0001
,  // measure 10
1000
0100
0100
0100
0010
0100
0100
0100
,  // measure 11
1000
0010
0100
0100
0001
0010
0001
0001
,  // measure 12
1000
0010
0010
0010
0100
0010
0010
0010
,  // measure 13
1000
0100
0100
0100
0010
0100
0100
0100
,  // measure 14
1000
0001
0100
0100
0010
1000
0001
0001
,  // measure 15
0010
0001
0010
0010
0100
1000
0100
0100
,  // measure 16
0010
0001
1000
1000
0010
0100
0100
0100
,  // measure 17
0001
0100
0020
0000
1030
1000
1000
1000
,  // measure 18
0001
0100
0010
0000
1000
0100
0000
0100
,  // measure 19
1000
0010
0100
0000
0001
0010
0000
0010
,  // measure 20
0001
1000
0010
0000
0100
0001
0000
0001
,  // measure 21
1000
0100
0010
0200
0000
0000
1300
0000
,  // measure 22
0100
1000
0001
0000
0100
0001
0000
0010
,  // measure 23
0001
1000
0000
0010
0100
0000
0001
1000
,  // measure 24
0001
0010
0000
0100
1000
0000
0100
0010
,  // measure 25
0001
0000
1001
0000
0100
0100
0100
0100
,  // measure 26
0020
0000
1030
0000
0001
0100
0001
0010
,  // measure 27
0200
0000
0310
0000
0001
0010
0100
1000
,  // measure 28
0200
0000
1300
0000
0010
1000
0001
1000
,  // measure 29
0020
0000
0130
0000
0001
0010
0100
1000
,  // measure 30
0002
0000
1003
0000
0100
0010
1000
0001
,  // measure 31
2000
0000
3100
0000
0010
0001
0100
0001
,  // measure 32
0020
0000
0031
0000
1000
0100
0010
0001
,  // measure 33
2000
0000
3010
0000
0100
0001
1000
0001
,  // measure 34
2001
0010
0000
3010
,  // measure 35
0102
0100
0000
1003
,  // measure 36
2100
0010
0000
3010
,  // measure 37
0210
0001
0000
0301
,  // measure 38
1000
2001
0000
3001
,  // measure 39
0010
0210
0000
0301
,  // measure 40
2100
0010
0000
3010
,  // measure 41
0200
0000
0300
0110
,  // measure 42
1001
0001
1000
0100
0010
0100
1000
0001
,  // measure 43
0000
0001
0100
0010
0000
0010
0100
0000
,  // measure 44
0001
0010
0100
1000
0100
0010
0001
1000
,  // measure 45
0000
0010
1000
0010
0000
0100
0001
0000
,  // measure 46
1000
0100
0001
0100
1000
0001
1000
0010
,  // measure 47
0000
0100
0001
1000
0000
0001
0010
0000
,  // measure 48
0100
0010
0001
1000
0100
0010
0100
1000
,  // measure 49
0000
0001
0100
0001
0000
1000
0010
0100
,  // measure 50
0010
0000
0110
0000
0010
1000
0010
0100
,  // measure 51
0000
0001
1000
0010
0000
1000
0100
0010
,  // measure 52
0100
0000
1100
0000
0010
0001
0100
0001
,  // measure 53
0000
0010
0001
1000
0000
0010
1000
0000
,  // measure 54
0100
0000
0101
0000
0010
1000
0001
0010
,  // measure 55
0000
1000
0100
0001
0000
0100
0010
0000
,  // measure 56
1000
0000
1001
0000
0001
0100
0010
1000
,  // measure 57
0000
0001
0010
0100
1000
0100
0010
0001
,  // measure 58
2000
0000
3010
0000
0100
0001
0100
0000
,  // measure 59
0020
0000
0130
0000
0001
1000
0010
0000
,  // measure 60
2000
0000
3100
0000
1000
0001
0100
0000
,  // measure 61
0001
0000
0110
0000
0001
1000
0100
0000
,  // measure 62
2000
0000
3001
0000
0100
0001
1000
0010
,  // measure 63
0200
0000
0310
0000
1000
0100
0010
0001
,  // measure 64
2000
0000
3001
0000
0010
0001
0010
1000
,  // measure 65
0020
0000
0130
0000
0001
0100
0010
1000
,  // measure 66
0001
1000
1001
0000
0000
0000
0000
0000
;

//---------------dance-single - ----------------
#NOTES:
     dance-single:
     :
     Challenge:
     14:
     0.788,0.704,0.873,0.066,0.296:
0000
0000
0000
0000
,
1000
1001
0100
0110
,
1000
0000
1100
0000
0010
0001
0010
0100
,
0001
1100
0001
0101
,
0010
0000
1000
0000
0010
0100
0000
0100
0001
0000
1000
0000
0100
0010
0000
0010
,
0001
1100
0010
1010
,
0100
0000
0101
0000
1000
0001
0100
0001
,
1000
1001
0010
0110
,
1000
0000
1100
0000
0001
0010
0010
0010
,
1001
0100
0100
0100
0010
0010
0010
0010
,
1000
0100
0100
0100
1000
1000
0010
0010
,
0100
0001
0001
0001
0010
0010
0001
0001
,
1000
0100
0100
0100
0010
0010
0100
0100
,
1000
1000
1000
1000
0010
0010
0001
0001
,
0010
0010
0010
0010
1000
1000
0100
0100
,
0001
0001
0001
0001
0100
0100
1000
1000
,
0010
0000
0100
0000
0110
0000
0000
0010
1000
0000
0001
0000
1000
0000
0001
1000
,
0001
0100
0110
0000
1010
0100
0001
0100
,
1001
0010
0110
0000
1001
0100
0010
0001
,
0011
0100
1010
0000
0110
0100
0001
1000
,
0101
1000
1001
0000
1100
0010
1000
0001
,
0101
0010
0110
0000
1010
0100
0010
1000
,
0011
0100
1001
0000
0011
0100
0010
1000
,
0110
0001
1010
0000
1100
0001
0010
0001
,
1001
0000
0010
0000
0100
0000
0001
0000
1000
0000
0100
0000
1000
0001
1000
0001
,
1000
0000
0010
0000
0100
0001
0000
0001
1000
0000
0001
0010
0000
0010
0100
0000
,
1000
0000
0100
0000
0010
0001
0000
0001
1000
0000
0010
1000
0000
1000
0100
0000
,
1000
0000
0001
0000
0100
0010
0000
0010
1000
0000
0010
0100
0000
0100
0001
0000
,
1000
0000
0100
0000
0001
0100
0000
0100
1000
0000
0001
1000
0000
1000
0010
0000
,
0100
0000
0010
0000
1000
0010
0000
0010
1000
0000
0001
0100
0000
0001
1000
0000
,
0001
0000
0010
0000
0100
0010
0000
0010
0001
0000
1000
0100
0000
1000
0001
0000
,
0100
0000
0010
0000
1000
0100
0000
0001
0100
0000
1000
0010
0000
0001
0010
0000
,
1000
0000
0100
0000
0010
0001
0000
0010
1000
0000
0010
0100
0000
0001
0100
0000
,
0020
0000
0000
0000
1030
0000
0000
0001
0100
0000
0001
0000
0011
0000
0000
0000
,
2000
0000
0000
0000
3100
0000
0000
0010
0100
0000
1000
0000
1100
0000
0000
0000
,
0002
0000
0000
0000
1003
0000
0000
0100
0001
0000
0100
0000
0110
0000
0000
0000
,
2010
0000
0000
0000
3001
0000
0000
0100
0001
0000
1000
0000
0001
0000
0010
0000
,
0110
0000
0000
0000
1001
0000
0000
0001
0100
0000
0001
0000
0011
0000
0000
0000
,
2100
0000
0000
0000
3010
0000
0000
1000
0100
0000
1000
0000
0110
0000
0000
0000
,
1002
0000
0000
0000
1003
0000
0000
0010
0100
0000
0010
0000
1001
0000
0000
0000
,
0200
0000
0300
0110
,
1001
0100
1010
0100
1001
0100
0011
0100
,
0000
0100
1010
0010
1000
0001
1001
0001
,
0010
0100
1010
0100
0001
0100
0110
0001
,
0000
1000
1100
0100
0100
1000
1100
1000
,
0010
0100
1010
0100
0001
0010
0011
0100
,
0000
0001
1001
0001
0001
1000
1001
0010
,
0100
0010
1010
0100
0001
1000
1100
0100
,
0000
0010
1010
1010
1001
1001
0101
0101
,
1001
0001
1000
0010
0110
0010
1000
0001
,
0000
1000
1010
0010
0010
1000
1010
0010
,
0100
0001
1001
0001
0010
0100
0110
0001
,
0000
0001
0101
0100
0001
0001
0101
0100
,
0001
0010
0110
0010
0001
1000
1001
0010
,
0000
0010
0110
0010
0010
0100
0110
0010
,
1000
0001
1001
1000
0100
0010
0110
1000
,
0000
0001
1001
1001
0110
0110
1001
1001
,
0001
0000
0100
0000
0001
0000
1000
0100
0000
0010
0001
0000
1000
0000
0100
0000
,
1000
0000
0010
0000
0100
0000
0001
0010
0000
0100
1000
0000
0100
0000
0010
0000
,
0001
0000
0100
0000
0010
0000
1000
0010
0000
0010
1000
0000
0001
0000
0100
0000
,
0001
0000
1000
0000
1001
0000
0001
1000
0000
1000
0001
0000
0110
0000
0010
0000
,
1001
0000
1000
0000
0100
0000
0010
0001
0000
0100
0001
0000
1000
0000
0010
0000
,
0100
0000
0010
0000
1000
0000
0001
0100
0000
0001
1000
0000
0100
0000
0001
0000
,
0100
0000
1000
0000
0010
0000
0001
0010
0000
1000
0100
0000
0010
0000
0100
0000
,
1000
0000
0001
0000
0100
0000
0001
1000
0000
1000
0001
0000
0010
0000
0100
0000
,
1001
0001
1001
0000
0000
0000
0000
0000
;
