#TITLE:Ch-Check It Out;
#SUBTITLE:;
#ARTIST:Beastie Boys;
#TITLETRANSLIT:;
#SUBTITLETRANSLIT:;
#ARTISTTRANSLIT:;
#GENRE:;
#CREDIT:;
#MENUCOLOR:;
#METERTYPE:DDR;
#BANNER:Ch-Check It Out.png;
#BACKGROUND:Ch-Check It Out-bg.png;
#LYRICSPATH:;
#CDTITLE:./CDTITLES/NONE.PNG;
#MUSIC:Ch-Check It Out.ogg;
#OFFSET:0.000;
#SAMPLESTART:56.348;
#SAMPLELENGTH:15.000;
#SELECTABLE:YES;
#LISTSORT:;
#BPMS:0.000=115.000;
#STOPS:;
#BGCHANGES:0.000=Ch-Check It Out.avi=1.000=0=0=0,
99999=-nosongbg-=1.000=0=0=0 // don't automatically add -songbackground-
;
#ATTACKS:;

//---------------dance-single - ----------------
#NOTES:
     dance-single:
     :
     Beginner:
     1:
     0.114,0.166,0.008,0.000,0.000:
0000
0000
0000
0000
,
0000
0000
0000
0000
,
0000
0000
0000
0000
,
1000
0000
0000
0000
,
0001
0000
0000
0000
,
0100
0000
0000
0000
,
0010
0000
0000
0000
,
0000
1000
0000
1000
,
0000
0001
0000
0001
,
0000
0100
0000
0100
,
0000
0000
0000
0000
,
0000
0010
0000
0010
,
0000
0100
0000
0100
,
0100
0000
0000
0000
,
1000
0000
0000
0000
,
0001
0000
0010
0000
,
0001
0000
1000
0000
,
0010
0000
0100
0000
,
0001
0000
0001
0000
,
0000
1000
0000
1000
,
0000
0100
0000
0100
,
0000
0010
0000
0010
,
0000
0001
0000
0001
,
0001
0000
1000
0000
,
0100
0000
0010
0000
,
1000
0000
0001
0000
,
1000
0000
0000
0000
,
0000
0010
0000
0010
,
0000
0100
0000
0100
,
0000
0001
0000
0001
,
0001
0000
0000
0000
,
1001
0000
0000
0000
,
1000
0000
0000
0000
,
0100
0000
0000
0000
,
0010
0000
0000
0000
,
0001
0000
0000
0000
,
0100
0000
0000
0000
,
1000
0000
0000
0000
,
0010
0010
0010
0010
,
0010
0000
0000
0000
,
0100
0000
0000
0000
,
0001
0000
0000
0000
,
1000
0000
0000
0000
,
0000
0010
0000
0010
,
0000
0100
0000
0100
,
0100
0000
0001
0000
,
1000
1000
1000
1000
,
1000
0000
0000
0000
,
0001
0000
0001
0000
,
1000
0000
1000
0000
,
0010
0000
0010
0000
,
0100
0000
0000
0000
,
0010
0000
0010
0000
,
1000
0000
0001
0000
,
1000
1000
1000
1000
,
0001
0000
0001
0000
,
1000
0000
1000
0000
,
0010
0000
0010
0000
,
0100
0000
0100
0000
,
0001
0001
0001
0001
,
0001
0000
0000
0000
;

//---------------dance-single - ----------------
#NOTES:
     dance-single:
     :
     Easy:
     4:
     0.230,0.308,0.237,0.032,0.000:
0000
0000
0000
0000
,
0000
0000
0000
0000
,
0000
0000
0000
0000
,
1001
0000
0000
0000
,
0110
0000
0000
0000
,
1001
0000
0000
0000
,
1100
0000
0000
0000
,
0001
0100
0001
0001
,
1000
0100
1000
1000
,
0010
0100
0010
0010
,
0100
0000
0110
0000
,
1001
1000
0001
0001
,
0100
0001
1000
1000
,
0010
0000
0000
0000
,
0100
0000
0000
0000
,
0010
0010
0100
0100
,
0001
0001
1000
1000
,
0001
0000
1000
0000
,
0010
0010
0100
0110
,
1001
0000
1000
0000
,
0001
0000
1000
0000
,
0100
0000
1000
0000
,
0010
0000
0001
0000
,
1000
0000
0001
0001
,
1000
0000
0010
0010
,
0100
0000
1000
0100
,
0001
0001
0001
0001
,
0100
0000
1000
0000
,
0010
0000
0001
0000
,
1000
0000
0001
0000
,
1000
0100
0001
0100
,
1001
0000
0000
0000
,
0110
0000
0000
0000
,
1001
0000
0000
0000
,
1100
0000
0000
0000
,
0101
0001
0100
0100
,
0001
0010
0001
0001
,
1000
0010
1000
1000
,
0010
0100
0001
1000
,
2002
0000
0000
3003
,
0110
0010
1000
1000
,
0001
0100
0001
0001
,
0010
0001
0100
1000
,
0100
0001
1000
1000
,
0010
1000
0001
0001
,
0100
0110
0010
0110
,
1000
0001
1000
1001
,
0110
0000
0000
0000
,
0010
1000
0100
1100
,
0010
0001
0100
0101
,
0001
1000
0100
0110
,
2002
0000
0000
3003
,
0110
0001
0100
0010
,
1010
0100
0001
0010
,
0011
1001
1100
1001
,
0010
0100
0100
0001
,
0010
0100
0100
1000
,
0100
0010
0010
0001
,
1000
0100
0001
0010
,
1000
0000
0001
0001
0000
1000
1000
0000
,
1001
0000
0000
0000
;

//---------------dance-single - ----------------
#NOTES:
     dance-single:
     :
     Medium:
     7:
     0.365,0.427,0.356,0.111,0.000:
0000
0000
0000
0000
,
0000
0000
0000
0000
,
0000
0000
0000
0000
,
1001
0000
0000
0000
,
0110
0000
0000
0000
,
1001
0000
0000
0000
,
0110
0000
0000
0000
,
1000
0000
0100
0000
1000
1000
0100
0000
,
0001
0000
0010
0000
0001
0001
0010
0000
,
0001
0000
0100
0000
0001
0001
0100
0000
,
1001
0110
1001
0110
,
1001
0000
0010
0000
0100
0100
0001
0000
,
0100
0000
0010
0000
0100
0100
1000
0000
,
0220
0000
0000
0330
,
2002
0000
0000
3003
,
1000
0000
0100
0000
1000
0100
0001
0000
,
1000
0000
0100
0000
1000
0010
0001
0000
,
0001
0000
0100
0000
0001
0100
1000
0000
,
0010
0000
0100
0100
0000
0001
0001
0000
,
1001
0000
0010
0000
1000
0001
0100
0000
,
0001
0000
0010
0000
0001
1000
0100
0000
,
1000
0000
0001
0000
0100
0001
0100
0000
,
0001
0000
1000
0000
0100
1000
0100
0000
,
0010
0000
0001
0000
1000
0100
0001
0000
,
0100
0000
0001
0000
1000
0010
0001
0000
,
0010
0000
0100
0000
0001
0100
1000
0000
,
0110
1100
0011
1001
,
0001
0000
0100
0100
0100
0100
0001
0000
,
1000
0000
0100
0100
0100
0100
1000
0000
,
0010
0000
0100
0100
0100
0100
0010
0000
,
0100
0000
0001
0000
1000
0001
0100
0000
,
1001
0000
0010
0000
1000
0001
0100
0000
,
0001
0000
1000
0000
0001
1000
0010
0000
,
0100
0000
0001
0000
0010
1000
0100
0000
,
1000
0000
0100
0000
0010
0001
0100
0000
,
2000
0000
0001
0000
0100
0100
3010
0000
,
0002
0000
1000
0000
0100
0100
0013
0000
,
0200
0000
0010
0000
1000
1000
0301
0000
,
1001
0110
1001
1100
,
2002
0000
0000
3003
,
0001
1000
0100
0000
0001
0001
1000
0000
,
1000
0001
0100
0000
1000
1000
0001
0000
,
0010
0100
1000
0000
0010
0010
0001
0000
,
0100
0010
0100
0000
0001
1000
0100
0000
,
1000
0001
0010
0000
0001
1000
0100
0000
,
1000
0100
0110
0000
0001
0100
0110
0000
,
1001
0110
1001
1100
,
1001
0000
0000
0000
,
0110
0000
0001
0000
0100
0001
0010
0001
,
1001
0000
1000
0000
0100
1000
0001
1000
,
1001
0000
0010
0000
0100
0001
0010
0001
,
0022
0000
0000
0033
,
1000
0100
1100
0000
1000
0001
0100
0000
,
0010
0100
0101
0000
0001
1000
0100
0000
,
1100
1001
0101
1001
,
0020
0000
1000
1000
1000
0100
1030
0000
,
0200
0000
0001
0001
0001
0010
0301
0000
,
0020
0000
1000
1000
1000
0001
1030
0001
,
0010
0100
1100
0000
0010
0100
0101
0000
,
1001
0000
0010
0110
0000
1000
1001
0000
,
0110
0000
0000
0000
;

//---------------dance-single - ----------------
#NOTES:
     dance-single:
     :
     Hard:
     11:
     0.546,0.546,0.632,0.095,0.308: // measure 1
0000
0000
0000
0000
,  // measure 2
0000
0000
0000
0000
,  // measure 3
0000
0000
0000
0000
,  // measure 4
1001
0000
0000
0000
,  // measure 5
0110
0000
0000
0000
,  // measure 6
1001
0000
0000
0000
0000
0000
0000
0100
,  // measure 7
0110
0000
0000
0000
,  // measure 8
1001
0000
0000
0000
0100
0000
0000
0001
0100
0000
0010
0000
1000
0000
0000
0000
,  // measure 9
1001
0000
0000
0000
0100
0000
0000
0010
0001
0000
1000
0000
0001
0000
0000
0000
,  // measure 10
1100
0000
0000
0000
0001
0000
0000
0100
0001
0000
0100
0000
0010
0000
0100
0000
,  // measure 11
1001
1100
1001
0011
,  // measure 12
1001
0000
0001
0000
0100
0000
0000
0010
1000
0000
0001
0000
1000
0000
0000
0000
,  // measure 13
1001
0000
1000
0000
0100
0000
0000
0010
0001
0000
1000
0000
0001
0000
0100
0000
,  // measure 14
0220
0000
0000
0330
,  // measure 15
2002
0000
0000
3003
,  // measure 16
1100
0000
0001
0000
0010
0000
0001
0000
0100
0000
0001
1000
0000
1000
0001
0000
,  // measure 17
0101
0000
1000
0000
0010
0000
1000
0000
0100
0000
1000
0001
0000
0001
1000
0000
,  // measure 18
0110
0000
0100
0000
0001
0000
1000
0000
0001
0000
0010
0100
0000
0100
0010
0000
,  // measure 19
0011
0000
1100
1100
0000
1001
1001
0000
,  // measure 20
0110
0000
1000
0000
0001
0000
1000
0001
0100
0000
0100
0000
0001
0000
0000
0000
,  // measure 21
1001
0000
0100
0000
0001
0000
1000
0010
1000
0000
1000
0000
0100
0000
0000
0000
,  // measure 22
0011
0000
1000
0000
0001
0000
0100
0001
1000
0000
1000
0000
0100
0000
0010
0000
,  // measure 23
1001
0000
0001
0000
0010
0000
0001
0100
0001
0000
1000
0000
0001
0000
1000
0000
,  // measure 24
1001
0000
0100
0000
0100
0000
0010
0100
0010
0000
0010
0000
0100
0000
0000
0000
,  // measure 25
1001
0000
1000
0000
0100
0000
1000
0001
1000
0000
1000
0000
0001
0000
0000
0000
,  // measure 26
0011
0000
0001
0000
0100
0000
0001
0100
0001
0000
0001
0000
1000
0000
0100
0000
,  // measure 27
0110
1100
0011
1001
,  // measure 28
1010
0000
0010
1000
0000
1000
0000
1000
0000
1000
0010
0000
1001
0000
0000
0000
,  // measure 29
0011
0000
0010
0001
0000
0001
0000
0001
0000
0001
0010
0000
1001
0000
0000
0000
,  // measure 30
0110
0000
0001
0100
0000
0100
0000
0100
0000
0100
0001
0000
0110
0000
0100
0000
,  // measure 31
1001
0000
1000
0000
0001
0000
1001
0000
0100
0000
0100
0001
0000
0000
0100
0000
,  // measure 32
1001
0000
0001
0000
1000
0000
0000
0001
0010
0000
0010
0000
0001
0000
0100
0000
,  // measure 33
0101
0000
0100
0000
0001
0000
0000
1000
0100
0000
0100
0000
1000
0000
0010
0000
,  // measure 34
0110
0000
0010
0000
1000
0000
0000
0001
1000
0000
1000
0000
0001
0000
1000
0000
,  // measure 35
1100
0000
0100
0000
1000
0000
0000
0100
0010
0000
0010
0000
0100
0000
1000
0000
,  // measure 36
1001
0000
0001
0000
0100
0000
0001
0010
0000
0010
0000
0001
0000
0001
1000
0000
,  // measure 37
0101
0000
1000
0000
0100
0000
1000
0010
0000
0010
0000
1000
0000
1000
0001
0000
,  // measure 38
0011
0000
0100
0000
0010
0000
0100
0001
0000
1000
0100
0000
1000
0000
0001
0000
,  // measure 39
1010
0001
0101
1000
1001
0100
0120
0000
,  // measure 40
2030
0000
0000
0000
0000
0000
3000
0100
,  // measure 41
0110
0000
0001
0000
1000
0000
0001
0010
0100
0000
0100
0000
0010
0000
0001
0000
,  // measure 42
1001
0000
1000
0000
0010
0000
0100
0010
1000
0000
1000
0000
0001
0000
1000
0000
,  // measure 43
0110
0000
0001
0000
1000
0000
0100
0001
0100
0000
0100
0000
1000
0000
0001
0000
,  // measure 44
1000
0100
0000
0010
0000
0100
1000
0000
0001
0000
0100
0000
0102
0000
1000
0000
,  // measure 45
0013
0001
0000
1000
0000
0001
0000
0100
0000
0100
0010
0000
0100
0000
0001
0000
,  // measure 46
1001
1000
1100
0000
1001
0001
0011
0000
,  // measure 47
1000
0000
0001
0000
0100
0010
0100
0000
0010
0000
1000
0000
1002
0000
0000
0000
,  // measure 48
0203
0000
0000
0000
0000
0000
0300
0010
,  // measure 49
1010
0000
0001
0000
0100
0000
0001
0010
0100
0000
0010
0000
0001
0000
0000
0000
,  // measure 50
1001
0000
0010
0000
0100
0000
0010
1000
0001
0000
1000
0000
0100
0000
0000
0000
,  // measure 51
1001
0000
0100
0000
0010
0000
1000
0001
0010
0000
0001
0000
1000
0000
0000
0000
,  // measure 52
0220
0000
0000
0000
0000
0000
0330
0010
,  // measure 53
1010
0000
1000
0000
0100
0000
1000
0001
0100
0000
0001
0000
1000
0000
0001
0000
,  // measure 54
0011
0000
0001
0000
0100
0000
0010
1000
0001
0000
1000
0000
0100
0000
1000
0000
,  // measure 55
1001
1100
1001
0101
,  // measure 56
1010
0000
0010
1000
0000
0100
0000
0001
0000
0100
1000
0001
1000
0000
0000
0000
,  // measure 57
0001
0000
1000
0010
0000
0001
0000
0010
0000
1000
0001
1000
0100
0000
0000
0000
,  // measure 58
1000
0000
0001
0100
0000
1000
0000
0100
0000
0001
1000
0001
0100
0000
0001
0000
,  // measure 59
0010
0000
0011
0000
0001
0000
0101
0000
0010
0000
0100
0002
0000
0000
0000
0000
,  // measure 60
1003
0000
1001
1001
0000
0110
0110
0000
,  // measure 61
1001
0000
0000
0000
;

//---------------dance-single - ----------------
#NOTES:
     dance-single:
     :
     Challenge:
     14:
     0.656,0.664,0.656,0.063,0.656: // measure 1
0000
0000
0000
0000
,  // measure 2
0000
0000
0000
0000
,  // measure 3
0000
0000
0000
0000
,  // measure 4
1001
0000
0000
0000
0000
0000
0000
MMMM
,  // measure 5
0110
0000
0000
0000
,  // measure 6
1001
0000
0000
0000
0000
0000
0000
MMMM
,  // measure 7
1100
0000
0000
0000
,  // measure 8
0011
0000
0010
0001
1000
0000
0001
0100
0010
0000
0100
0000
0001
1000
0100
1000
,  // measure 9
0001
0000
1000
0000
0010
0000
1000
0010
0100
0000
0010
0000
1000
0001
1000
0010
,  // measure 10
1000
0000
0010
0000
0100
0000
0010
1000
0001
0000
0010
0000
0001
0010
0100
0010
,  // measure 11
0001
1000
MMMM
0000
0110
0000
MMMM
0000
,  // measure 12
1100
0000
0100
0000
0010
0000
0100
1000
0010
0000
0100
0000
0001
1000
0100
1000
,  // measure 13
0001
0000
1000
0000
0010
0000
0100
0010
1000
0000
0010
0000
0100
0001
1000
0001
,  // measure 14
0020
0000
0000
0000
0000
0000
0030
MMMM
,  // measure 15
2200
0000
0000
3300
,  // measure 16
1001
0000
0001
0000
0100
0000
0001
0010
0100
0010
0001
0000
1000
0001
0100
0001
,  // measure 17
1000
0000
0010
0000
0100
0000
0010
1000
0001
1000
0010
0000
1000
0001
0100
0001
,  // measure 18
1000
0000
0001
0000
0010
0000
0100
0010
0001
0010
0100
0000
0010
0001
1000
0001
,  // measure 19
0100
0001
0101
1100
MMMM
1010
1001
MMMM
,  // measure 20
0101
0000
0001
0000
0010
0000
0001
1000
0001
0000
1000
0100
1000
0000
0110
0000
,  // measure 21
0011
0000
1000
0000
0001
1000
0010
0000
1000
0001
0100
0001
1000
0000
0100
0000
,  // measure 22
0110
0000
0100
1000
0001
0000
0010
0001
0100
0001
0010
0000
0001
1000
0100
1000
,  // measure 23
0010
0000
1000
0000
1010
0000
0010
1000
0001
0000
0101
0000
0110
0000
0010
0000
,  // measure 24
1001
0000
0001
0100
1000
0100
0001
0000
1000
0010
0100
0000
1010
0000
MMMM
0000
,  // measure 25
1001
0000
1000
0100
0001
0100
1000
0000
0010
0100
0001
0000
1000
0001
0100
0000
,  // measure 26
1001
0000
0001
0010
1000
0010
0001
0000
0100
0001
1000
0001
0100
0000
MMMM
0000
,  // measure 27
0110
MMMM
1010
MMMM
0011
MMMM
1001
MMMM
,  // measure 28
1010
0000
1000
0100
0000
1100
0000
0101
0000
1000
0001
0100
0001
0000
1000
0000
,  // measure 29
0011
0000
0001
0010
0000
0011
0000
1010
0000
1000
0010
0100
0001
0000
0100
0000
,  // measure 30
0110
0000
0001
1000
0000
0110
0000
0101
0000
1000
0100
0010
0100
0000
1000
0000
,  // measure 31
1001
0000
0010
0000
0100
0000
MMMM
0000
0110
0000
0001
2000
0000
0000
3010
0000
,  // measure 32
1000
0000
0100
0000
1100
0000
0100
1000
0001
1000
0100
0000
1000
0000
0001
0000
,  // measure 33
1001
0000
0001
0000
0101
0000
0001
0100
0001
1000
0010
0000
1000
0000
0001
0000
,  // measure 34
1001
0000
0001
0000
0010
0000
0001
0100
0010
1000
0100
1000
0001
0000
1000
0000
,  // measure 35
0010
0000
1000
0000
MMMM
0000
0010
1000
0100
0010
0100
1000
0001
0000
1000
0000
,  // measure 36
2100
0000
0000
0000
0001
0000
0010
0010
0000
0001
0000
3100
0000
0000
MMMM
0000
,  // measure 37
0102
0000
0000
0000
1000
1000
0010
0010
0000
1000
0000
1003
0000
0000
0000
0010
,  // measure 38
0200
0000
0000
0000
0010
0000
1000
1000
0000
0010
0010
0000
1300
0000
0001
0000
,  // measure 39
0101
MMMM
1100
MMMM
,  // measure 40
1001
0000
0010
1000
0010
1000
0001
0000
0010
0000
0001
0010
0000
0010
MMMM
0000
,  // measure 41
1100
0000
0100
1000
0001
0000
0100
0001
1000
0001
0010
0000
0001
0000
0100
0001
,  // measure 42
0010
0000
0100
0010
0001
0010
0000
0010
0001
0000
1000
0010
0100
0010
0000
0010
,  // measure 43
1000
0000
0001
0010
0100
0000
1000
0010
0100
0000
0010
1000
0001
0100
0001
1000
,  // measure 44
0001
0100
0000
0101
0000
1000
0100
0010
0001
0000
1001
0000
0101
0000
MMMM
0000
,  // measure 45
1100
0100
0000
1000
0000
1010
0000
0011
0000
1000
0100
0000
1100
0000
0010
0100
,  // measure 46
1000
0110
MMMM
0000
0001
0110
MMMM
0000
,  // measure 47
1010
0000
MMMM
0000
0010
1000
0001
1000
0100
0000
1000
0000
MMMM
0000
0000
0000
,  // measure 48
0011
0000
0001
0010
0000
0001
0000
0100
0000
1000
0000
0100
0001
0000
MMMM
0000
,  // measure 49
1001
0000
0010
1000
0100
0000
1000
0010
0100
0001
1000
0001
1000
0000
0001
0010
,  // measure 50
0100
0000
0010
0001
0100
0000
0010
1000
0001
1000
0100
1000
0010
0000
0100
0001
,  // measure 51
1000
0000
0010
0100
0001
0000
1000
0010
0100
0010
1000
0001
1000
0000
0001
0010
,  // measure 52
0200
0000
0010
0000
0000
0010
0000
0000
0310
0000
0000
0000
0000
0000
MMMM
0000
,  // measure 53
0011
0000
0001
1000
0100
0000
1000
0010
0001
0010
0100
0001
1000
0000
0001
0010
,  // measure 54
0100
0000
0010
0001
1000
0000
0001
0010
1000
0010
0100
1000
0001
0000
1000
0100
,  // measure 55
1000
MMMM
1001
MMMM
0101
MMMM
1100
MMMM
,  // measure 56
0011
0000
0001
0010
0000
0011
0000
1010
0000
0001
0010
0100
1000
0000
0000
0000
,  // measure 57
1100
0000
1000
0100
0000
1100
0000
0011
0000
1000
0010
0100
0001
0000
0000
0000
,  // measure 58
0110
0000
0001
1000
0000
0110
0000
0101
0000
1000
0010
0100
0001
0000
0011
0000
,  // measure 59
1100
0000
1001
0000
0001
0000
MMMM
0000
0110
0000
0010
0100
0000
0001
0010
1000
,  // measure 60
0100
MMMM
1100
0101
MMMM
0011
1010
MMMM
,  // measure 61
1001
0000
0000
0000
;
