#TITLE:CaptivAte ~浄化~;
#SUBTITLE:;
#ARTIST:A/I;
#TITLETRANSLIT:CaptivAte ~JOUKA~;
#SUBTITLETRANSLIT:;
#ARTISTTRANSLIT:;
#GENRE:;
#CREDIT:;
#MENUCOLOR:;
#NEWMETERSYSTEM:NO;
#BANNER:CaptivAte ~JOUKA~.png;
#BACKGROUND:CaptivAte ~JOUKA~-bg.png;
#LYRICSPATH:;
#CDTITLE:./CDTITLES/BEATMANIA IIDX.PNG;
#MUSIC:CaptivAte ~JOUKA~.mp3;
#OFFSET:-1.284;
#SAMPLESTART:77.780;
#SAMPLELENGTH:15.000;
#SELECTABLE:YES;
#LISTSORT:;
#DISPLAYBPM:160.000;
#BPMS:0.000=159.990;
#STOPS:;
#BGCHANGES:;
#ATTACKS:;

//---------------dance-single - ----------------
#NOTES:
     dance-single:
     :
     Beginner:
     1:
     0.162,0.193,0.010,0.038,0.000:
0010
0000
0000
0000
,
0100
0000
0000
0000
,
0001
0000
0000
0000
,
1000
0000
0100
0000
,
1000
0000
0000
0000
,
0001
0000
0000
0000
,
0100
0000
0000
0000
,
0010
0000
1000
0000
,
1001
0000
0000
0000
,
0000
1000
0000
0001
,
0000
1000
0000
0001
,
0000
0010
0000
0100
,
0000
0010
0000
0100
,
0000
1000
0000
0001
,
0000
1000
0000
0100
,
0000
0001
0000
1000
,
0000
0010
0000
0100
,
0000
1000
0000
0100
,
0000
0010
0000
0001
,
0000
0010
0000
0001
,
0000
0100
0000
1000
,
0000
1000
0000
0001
,
0000
0001
0000
1000
,
1000
0000
0001
0000
,
0100
0000
0010
0000
,
0200
0000
0000
0300
,
0020
0000
0000
0030
,
0200
0000
0000
0300
,
0020
0000
0000
0000
,
0000
0000
0000
0030
,
1000
0000
0000
0000
,
0001
0000
0000
0000
,
0100
0000
0010
0000
,
0100
0000
0001
0000
,
1000
0000
0000
0000
,
0100
0000
0000
0000
,
1000
0000
0010
0000
,
0100
0000
0001
0000
,
0100
0000
0000
0000
,
0001
0000
0000
0000
,
0010
0000
0001
0000
,
0010
0000
0100
0000
,
1000
0000
0000
0000
,
0001
0000
0000
0000
,
1000
0000
0100
0000
,
1000
0000
0010
0000
,
0100
0000
0000
0000
,
0001
0000
0000
0000
,
0100
0000
1000
0000
,
0100
0000
0000
0000
,
0000
0000
0000
0000
,
0010
0000
0100
0000
,
1000
0000
0100
0000
,
0010
0000
0001
0000
,
0010
0000
1000
1000
,
1000
0000
0001
0000
,
0100
0000
0001
0000
,
1000
0000
0010
0000
,
0100
0000
0001
0001
,
0001
0000
1000
0000
,
0100
0000
1000
0000
,
0010
0000
0100
0000
,
0001
0000
0100
0100
,
0100
0000
0010
0000
,
0100
0000
0001
0000
,
1000
0000
0100
0000
,
0010
0000
0001
0001
,
0001
0000
0000
0000
;

//---------------dance-single - ----------------
#NOTES:
     dance-single:
     :
     Easy:
     5:
     0.327,0.322,0.077,0.432,0.000:
2000
0000
0000
3000
,
0020
0000
0000
0030
,
0200
0000
0000
0300
,
0002
0000
2000
3003
,
1000
1000
1000
1000
,
0010
0010
0010
0010
,
0100
0100
0100
0100
,
0002
0000
2000
3003
,
0220
0000
0000
0330
,
0010
1000
0001
0100
,
0001
1000
0001
0010
,
0100
0000
1000
0000
,
0010
0100
0001
1000
,
1001
0010
1000
0001
,
0100
0001
0010
0100
,
2000
3000
0002
0003
,
0200
0300
0010
0100
,
0110
1000
0001
0100
,
0001
1000
0001
0010
,
0200
0300
0020
0030
,
1000
0010
0100
0001
,
1001
0001
1000
0010
,
1000
0001
0100
0001
,
2000
0000
0020
3000
,
0230
0000
0301
1000
,
0002
0000
0000
0003
,
0020
0000
0000
0030
,
0200
0000
0000
0300
,
2000
0000
0000
0000
,
0002
0000
0000
3003
,
1000
0001
0100
0000
,
0001
1000
0010
1000
,
0002
0003
2000
3000
,
0001
0010
0100
1000
,
0200
0300
0020
0030
,
0002
0003
0200
0300
,
0020
0000
0000
0030
,
2000
0000
0000
3000
,
0010
1000
0001
0100
,
0001
1000
0010
1000
,
0200
0300
0020
0030
,
1000
0100
0001
0100
,
2000
3000
0001
0100
,
0020
0030
0200
0300
,
0002
0003
1000
0000
,
2002
3003
0010
0100
,
0020
0030
0000
1000
,
2000
3000
0002
0003
,
0200
0300
0020
0030
,
0200
0000
0000
0000
,
0020
0000
0000
0330
,
1000
0000
1000
1000
,
0001
0000
0001
0001
,
0100
0000
0010
0010
,
1000
0010
0100
0001
,
1000
0000
0100
0100
,
0010
0000
0001
0001
,
0010
0000
0001
0100
,
0001
1001
1000
1001
,
0010
0000
0100
0010
,
1000
0000
0010
0100
,
0001
0000
1000
0000
,
0001
1000
0010
1000
,
0001
0001
0001
0001
,
1000
1000
1000
1000
,
0100
0010
0001
1000
,
0100
1000
0001
0100
,
0110
0000
0000
0000
;

//---------------dance-single - ----------------
#NOTES:
     dance-single:
     :
     Medium:
     9:
     0.465,0.644,0.355,0.586,0.187:
1001
0000
0000
0020
0000
0000
0130
0000
,
0002
0000
0000
0013
0000
0000
0001
0000
,
0200
0000
0000
0002
0000
0000
0303
0000
,
1000
0100
0010
0001
,
1000
1000
1000
1000
,
0010
0010
0010
0010
,
1000
1000
1000
1000
,
0002
0000
2000
3003
,
0220
0000
0330
1001
,
2000
0000
0000
3100
0000
0000
0001
0000
,
0020
0000
0000
0031
0000
1000
0001
0000
,
0200
0000
0300
0100
0000
0000
0000
0010
,
1000
0000
0000
0000
0001
0000
0000
0000
0100
0000
0000
0100
0000
0000
0100
0000
,
0002
0000
0000
1003
0000
0000
0010
0000
,
2000
0000
0000
3100
0000
0000
1000
0000
,
0020
0030
0200
0300
,
2002
0000
0000
0000
3003
0000
0000
0000
0001
0000
0000
1000
0000
0000
0001
0000
,
0200
0000
0000
0310
0000
0000
1000
0000
,
0002
0000
0000
0013
0000
0100
0001
0000
,
0210
0000
0000
0310
0000
0000
0000
1000
,
0100
0000
0000
0000
1000
0000
0000
0000
0010
0000
0000
1000
0000
0000
0001
0000
,
0200
0000
0300
0000
0000
0010
1000
0001
,
0002
0003
2000
3000
,
0022
0033
2200
3300
,
0202
0000
0000
0000
0303
0000
0000
0000
1000
0000
0000
0100
0000
0000
0010
0000
,
0002
0000
0000
0003
,
2000
0000
0000
3000
,
0020
0000
0000
0030
,
0220
0000
0000
0330
,
2000
0000
0000
3000
,
0002
0000
0000
1003
0000
0000
0001
0000
,
0200
0000
0000
0301
0000
0000
1000
0000
,
0200
0000
0300
0100
0000
0000
0000
0010
,
0001
0000
0000
0000
1000
0000
0000
0000
0010
0000
0000
0010
0000
0000
0100
0000
,
0002
0000
0000
1003
0000
0010
0000
0100
,
0002
0000
0000
0013
0000
0100
0000
1000
,
0200
0300
2000
3000
,
0002
0003
0020
0030
,
0002
0000
0000
1003
0000
0010
0000
1000
,
0200
0000
0000
0310
0000
0100
0000
1000
,
0200
0000
0300
1000
0000
0000
0000
0010
,
0100
0000
0000
0000
0001
0000
0000
0000
1000
0000
0000
0010
0000
0000
1000
0000
,
0002
0000
0000
1003
0000
0001
0000
0010
,
0002
0000
0000
0103
0020
0000
0000
1030
,
0200
0300
2002
3003
,
0010
0000
0000
0000
0000
0000
0000
0000
0100
0000
0000
0100
0000
0000
0100
0000
,
0020
0000
0000
1030
0000
0001
0000
1000
,
0200
0000
0000
0310
0200
0000
0000
1300
,
0200
0300
2002
3003
,
0020
0000
0000
0030
,
0200
0000
0000
0300
,
0010
0000
1000
0000
0000
1000
0000
0000
0001
0000
0000
0100
0000
0000
0001
0000
,
0000
0000
0010
0000
0000
0001
0000
0000
0100
0000
0000
0010
0000
0000
1000
0000
,
0000
0000
0010
0000
0000
0100
0000
0000
0001
0000
0000
1000
0000
0000
0001
0000
,
0010
0000
0000
0001
0000
0000
0001
0000
0100
0000
0000
0100
0000
0000
0110
0000
,
0000
0000
1000
0000
0000
0001
0000
0000
0100
0000
0000
0010
0000
0000
1000
0000
,
0000
0000
0001
0000
0000
0010
0000
0000
0100
0000
0000
1000
0000
0000
0100
0000
,
0000
0000
1000
0000
0000
0010
0000
0000
0100
0000
0000
0001
0000
0000
1000
0000
,
0010
0000
0000
1100
0000
0000
0001
0000
0010
0000
0000
0101
0000
0000
1001
0000
,
0000
0000
0110
0000
0000
1001
0000
0000
0110
0000
0000
1001
0000
0000
0101
0000
,
0000
0000
1100
0000
0000
0011
0000
0000
1100
0000
0000
0101
0000
0000
1001
0000
,
0000
0000
0110
0000
0000
0011
0000
0000
1010
0000
0000
0110
0000
0000
0001
0000
,
1000
0000
0000
1001
0000
0000
1000
0000
0100
0000
0000
1100
0000
0000
0110
0000
,
0000
0000
1000
0000
0000
0001
0000
0000
1000
0000
0000
0010
0000
0000
0100
0000
,
0000
0000
0001
0000
0000
1000
0000
0000
0001
0000
0000
0010
0000
0000
0100
0000
,
0000
0000
1000
0000
0000
0010
0000
0000
0101
0000
0000
1100
0000
0000
0001
0000
,
0010
0000
0000
1001
0000
0000
1000
0000
0010
0000
0000
1001
0000
0000
0110
0000
,
1000
0000
0000
0000
;

//---------------dance-single - ----------------
#NOTES:
     dance-single:
     :
     Hard:
     14:
     0.722,0.708,0.663,0.365,0.394: // measure 1
1001
0000
0100
0000
0010
0000
2000
0000
0000
0000
3001
0000
0000
0000
0010
0100
,  // measure 2
0010
0001
0010
0200
0000
1300
0010
0100
,  // measure 3
0002
0000
0000
0000
0000
0000
2003
0000
0000
0000
0000
0000
3000
0000
0010
1000
,  // measure 4
0010
0000
0100
0000
0001
0000
1000
0000
0001
0000
0000
0011
0000
0000
0100
0000
,  // measure 5
0001
1000
0001
1000
0001
0001
1000
1000
,  // measure 6
0010
0100
0010
0100
0010
0010
0100
0100
,  // measure 7
0001
0010
0001
0000
1000
0000
0010
0000
0100
0000
0001
0000
1000
0000
0100
0000
,  // measure 8
2002
0000
0000
3003
,  // measure 9
0110
0000
0000
0010
,  // measure 10
1001
0000
0010
0000
0100
0000
0002
0000
0000
0000
1003
0000
0000
0000
0010
1000
,  // measure 11
0010
0100
0001
2000
0000
3100
0010
0100
,  // measure 12
1000
0000
0010
0000
0100
0000
0002
0000
0000
0000
0003
0000
0000
0000
0010
0001
,  // measure 13
0010
0000
0001
0000
0100
0000
0010
0000
1000
0000
0000
0101
0000
0000
1100
0000
,  // measure 14
0001
0000
1000
0000
0010
0000
0200
0000
0000
0000
0310
0000
1000
0000
0001
1000
,  // measure 15
0001
0000
1000
0000
0100
0000
1000
0010
1000
0000
0001
0000
0100
0000
0001
1000
,  // measure 16
0002
1003
0120
1030
,  // measure 17
2100
0000
0000
0000
3001
0000
0000
0000
1100
0000
0000
0101
0000
0000
1010
0000
,  // measure 18
0100
0000
0010
0000
1000
0000
0020
0000
0000
0000
0130
0000
0001
0000
1000
0100
,  // measure 19
1000
0010
1000
0002
0000
0013
0100
0010
,  // measure 20
0001
0000
1000
0000
0010
0000
0220
0000
0000
0000
0330
0000
0000
0000
1000
0100
,  // measure 21
1000
0000
0010
0000
0100
0000
0001
0000
0010
0000
0000
0101
0000
0000
1001
0000
,  // measure 22
1000
0000
0001
0000
0010
0000
0100
0000
0000
0000
0010
0000
0001
0000
1000
0010
,  // measure 23
1000
0000
0001
0000
0100
0000
0001
0010
0001
0000
1000
0000
0100
0000
0010
0100
,  // measure 24
0010
0001
1000
0010
0100
0100
0010
0010
,  // measure 25
1000
0000
0001
0000
1001
0000
0000
0000
0110
0000
0000
1001
0000
0000
0101
0000
,  // measure 26
1010
0000
1000
0000
0001
0000
0200
0000
0000
0000
0301
0000
1000
0000
0001
0010
,  // measure 27
0002
0000
0000
0000
0000
0000
1003
0100
2000
0000
0000
0000
0000
0000
3010
0100
,  // measure 28
0020
0030
1001
0000
,  // measure 29
0220
0000
0000
0330
,  // measure 30
0020
0000
0000
0030
,  // measure 31
1000
0000
0100
0000
0010
0000
0001
0000
0000
0000
1000
0000
0100
0000
1000
0010
,  // measure 32
1000
0000
0001
0100
0000
0001
0010
0100
,  // measure 33
0010
0000
0001
0000
1000
0000
0010
0000
0000
0000
0000
0000
0000
0000
0100
0001
,  // measure 34
0100
0000
0001
0000
1000
0000
0010
0000
0100
0000
0000
0100
0000
0000
0010
0000
,  // measure 35
1000
0000
0001
0000
0010
0000
0100
0000
0000
0000
0010
0000
0000
0000
1000
0010
,  // measure 36
2000
0000
0000
0000
0000
0000
3001
1000
0002
0000
0000
0000
0000
0000
0103
0010
,  // measure 37
0200
0300
0110
0000
,  // measure 38
2002
0000
0000
0000
3003
0000
0000
0000
1000
0000
0000
1000
0000
0000
0001
0000
,  // measure 39
1000
0000
0100
0000
0001
0000
0100
0000
0000
0000
1000
0000
0010
0000
0001
0010
,  // measure 40
0001
1000
0100
0010
0000
0001
0010
0100
,  // measure 41
1000
0000
0001
0000
0100
0000
0001
0000
0000
0000
0000
0000
0000
0000
0010
0100
,  // measure 42
0010
0000
1000
0000
0001
0000
0100
0000
0001
0000
0000
0010
0000
0000
0100
0000
,  // measure 43
0010
0000
0001
0000
1000
0000
0100
0000
0000
0000
1000
0000
0010
0000
0100
0010
,  // measure 44
0200
0000
0000
0000
0000
0000
0301
0010
0002
0000
0000
0000
0000
0000
1003
0100
,  // measure 45
2000
3000
1001
0000
,  // measure 46
0011
0000
0000
0000
1000
0000
0000
0000
0100
0000
0000
0010
0000
0000
1000
0000
,  // measure 47
0100
0000
1000
0000
0010
0000
0200
0000
0000
0000
0301
0000
0000
0000
1000
0100
,  // measure 48
2000
0000
0000
0000
0000
0000
3010
0100
0020
0000
0000
0000
0000
0000
1030
0001
,  // measure 49
2000
3001
0011
0000
,  // measure 50
0202
0000
0000
0303
,  // measure 51
0000
0000
0000
1000
,  // measure 52
0001
0000
0100
0000
0000
1001
0000
0000
0110
0000
0000
1001
0000
0000
1100
0000
,  // measure 53
0010
0000
0100
0000
0000
1100
0000
0000
0101
0000
0000
1100
0000
0000
0011
0000
,  // measure 54
0001
0000
0010
0000
0000
0101
0000
0000
1010
0000
0000
1001
0000
0000
1000
0000
,  // measure 55
0001
0000
0000
0101
0000
0000
1000
0000
0010
0000
0000
1100
0000
0000
1001
0000
,  // measure 56
0010
0000
0100
0000
0000
0110
0000
0000
1001
0000
0000
1100
0000
0000
0011
0000
,  // measure 57
1000
0000
0100
0000
0000
0011
0000
0000
1100
0000
0000
0101
0000
0000
1010
0000
,  // measure 58
0010
0000
0100
0000
0000
1001
0000
0000
0110
0000
0000
1001
0000
0000
0001
0000
,  // measure 59
0101
0000
0000
1001
0000
0000
0100
0000
1100
0000
0000
1001
0000
0000
0110
0000
,  // measure 60
0010
0000
1000
0000
0001
0100
0000
0001
0010
0000
0001
0100
0000
0001
1000
0000
,  // measure 61
0010
0000
1000
0000
0010
0100
0000
0010
1000
0000
0010
0100
0000
0010
1000
0000
,  // measure 62
0001
0000
0100
0000
0001
0010
0000
0001
0100
0000
0001
0010
0000
0001
1000
0000
,  // measure 63
0010
0000
0000
0110
0000
0000
1000
0000
1001
0000
0000
0110
0000
0000
1001
0000
,  // measure 64
0001
0000
0100
0000
0001
1000
0000
1000
0001
0000
1000
0100
0000
0100
1000
0000
,  // measure 65
0001
0000
0010
0000
0001
0100
0000
0100
0010
0000
1000
0010
0000
0010
1000
0000
,  // measure 66
0001
0000
1000
0000
0100
0010
0000
0001
1000
0000
0010
0100
0000
0001
1000
0000
,  // measure 67
0101
0000
0000
0011
0000
0000
1010
0000
1100
0000
0000
1001
0000
0000
0110
0000
,  // measure 68
1001
0000
0000
0000
;
