#TITLE:Bad Maniacs;
#SUBTITLE:;
#ARTIST:kors k as teranoid;
#TITLETRANSLIT:;
#SUBTITLETRANSLIT:;
#ARTISTTRANSLIT:;
#GENRE:;
#CREDIT:;
#MENUCOLOR:;
#METERTYPE:DDR;
#BANNER:Bad Maniacs.png;
#BACKGROUND:Bad Maniacs-bg.png;
#LYRICSPATH:;
#CDTITLE:./CDTITLES/BEATMANIA IIDX.PNG;
#MUSIC:Bad Maniacs.ogg;
#OFFSET:0.000;
#SAMPLESTART:86.154;
#SAMPLELENGTH:15.000;
#SELECTABLE:YES;
#LISTSORT:;
#BPMS:0.000=195.000;
#STOPS:;
#BGCHANGES:;
#ATTACKS:;

//---------------dance-single - ----------------
#NOTES:
     dance-single:
     :
     Beginner:
     4:
     0.165,0.277,0.066,0.066,0.000: // measure 1
0000
0000
0000
0000
,  // measure 2
0000
0000
0000
0000
,  // measure 3
0000
0000
0000
0000
,  // measure 4
0000
0000
0000
0000
,  // measure 5
0000
0000
0000
0000
,  // measure 6
0000
0000
0000
0000
,  // measure 7
0000
0000
0000
0000
,  // measure 8
0000
0000
0000
0000
,  // measure 9
0000
0000
0000
0000
,  // measure 10
0000
0000
0000
0000
,  // measure 11
0000
0000
0000
0000
,  // measure 12
0000
0000
0000
0000
,  // measure 13
0000
0000
1001
0000
,  // measure 14
0000
0000
0000
0000
,  // measure 15
0100
0000
0100
0000
,  // measure 16
0100
0000
0100
0000
,  // measure 17
0001
0000
0001
0000
,  // measure 18
0001
0000
0001
0000
,  // measure 19
1000
0000
1000
0000
,  // measure 20
1000
0000
1000
0000
,  // measure 21
0010
0000
0010
0000
,  // measure 22
0010
0000
0010
0000
,  // measure 23
1000
0000
0100
0000
,  // measure 24
0010
0000
0001
0000
,  // measure 25
1000
0000
0001
0000
,  // measure 26
0100
0000
0010
0000
,  // measure 27
1000
0000
0010
0000
,  // measure 28
0100
0000
0001
0000
,  // measure 29
1000
0000
0001
0000
,  // measure 30
1000
0000
1001
0000
,  // measure 31
0010
0000
0000
0000
,  // measure 32
0000
0000
0000
0000
,  // measure 33
0100
0000
0000
0000
,  // measure 34
0000
0000
0000
0000
,  // measure 35
0001
0000
1000
0000
,  // measure 36
0001
0000
1000
0000
,  // measure 37
0001
0000
1000
0000
,  // measure 38
2002
0000
0000
3003
,  // measure 39
1000
0000
0000
0000
,  // measure 40
0001
0000
0000
0000
,  // measure 41
0100
0000
0000
0000
,  // measure 42
0010
0000
0000
0000
,  // measure 43
1000
0000
0000
0000
,  // measure 44
0100
0000
0000
0000
,  // measure 45
0001
0000
0010
0000
,  // measure 46
2002
0000
0000
3003
,  // measure 47
0001
0001
0001
0000
,  // measure 48
0100
0000
0001
0000
,  // measure 49
1000
0000
0010
0000
,  // measure 50
1000
0000
0100
0000
,  // measure 51
1000
1000
1000
0000
,  // measure 52
0010
0000
0100
0000
,  // measure 53
0001
0000
1000
0000
,  // measure 54
0100
0000
0010
0000
,  // measure 55
1001
0000
0000
0000
,  // measure 56
0000
0000
0000
0000
,  // measure 57
0000
0000
0000
0000
,  // measure 58
0000
0000
0000
0000
,  // measure 59
0010
0000
0000
0000
,  // measure 60
0100
0000
0000
0000
,  // measure 61
0001
0000
0000
0000
,  // measure 62
1000
0000
0000
0000
,  // measure 63
0002
0000
0003
0000
,  // measure 64
2000
0000
3000
0000
,  // measure 65
0020
0000
0030
0000
,  // measure 66
0200
0000
0300
0000
,  // measure 67
0001
0000
1000
0000
,  // measure 68
0001
0000
1000
0000
,  // measure 69
0010
0000
0100
0000
,  // measure 70
0001
0000
1000
0000
,  // measure 71
0001
0001
0001
0001
,  // measure 72
0000
0000
1000
0000
,  // measure 73
0100
0000
1000
0000
,  // measure 74
0010
0000
0000
0000
,  // measure 75
0100
0100
0100
0100
,  // measure 76
0000
0000
0000
0000
,  // measure 77
0010
0000
1000
0000
,  // measure 78
0001
0000
1000
0000
,  // measure 79
1001
0000
1000
0000
,  // measure 80
0001
0000
1000
0000
,  // measure 81
0001
0000
1000
0000
,  // measure 82
0001
0000
0100
0000
,  // measure 83
0110
0000
0010
0000
,  // measure 84
0100
0000
0001
0000
,  // measure 85
1000
0000
0100
0000
,  // measure 86
0010
0000
0001
0000
,  // measure 87
1001
0000
0000
0000
,  // measure 88
0000
0000
0000
0000
,  // measure 89
0000
0000
0000
0000
,  // measure 90
0000
0000
0000
0000
,  // measure 91
0000
0000
0000
0000
,  // measure 92
0000
0000
0000
0000
,  // measure 93
0000
0000
0000
0000
,  // measure 94
0000
0000
0000
0000
,  // measure 95
0000
0000
0000
0000
,  // measure 96
0010
0010
0010
0010
,  // measure 97
0010
0000
0000
0000
;

//---------------dance-single - ----------------
#NOTES:
     dance-single:
     :
     Easy:
     7:
     0.369,0.554,0.181,0.322,0.016: // measure 1
0000
0000
0000
0000
,  // measure 2
0000
0000
0000
0000
,  // measure 3
0000
0000
0000
0000
,  // measure 4
0000
0000
0000
0000
,  // measure 5
0000
0000
0000
0000
,  // measure 6
0000
0000
0000
0000
,  // measure 7
0000
0000
0000
0000
,  // measure 8
0010
0000
0000
0000
,  // measure 9
1000
0000
0000
0000
,  // measure 10
0001
0000
0000
0000
0000
0000
0000
0100
,  // measure 11
0000
0000
0000
0011
,  // measure 12
0000
0000
1010
0000
,  // measure 13
0110
0000
2002
0000
,  // measure 14
0000
0000
0000
3003
,  // measure 15
1000
0100
0100
0010
,  // measure 16
0001
1000
0002
0003
,  // measure 17
0100
0010
0010
1000
,  // measure 18
0010
0100
0020
0030
,  // measure 19
1000
0001
0100
0010
,  // measure 20
1000
0001
2000
3000
,  // measure 21
0001
0010
0100
0100
,  // measure 22
0010
0001
0200
0300
,  // measure 23
0010
0100
0001
1000
,  // measure 24
0001
0010
2200
3300
,  // measure 25
1000
0010
0100
0001
,  // measure 26
0100
0001
0022
0033
,  // measure 27
0100
0010
1000
0001
,  // measure 28
0010
0100
0020
0030
,  // measure 29
0001
0000
0000
1000
0000
0000
0001
0000
0000
0100
0000
0000
0001
0000
0000
0010
,  // measure 30
0000
0000
0100
0000
0000
1000
0000
0000
2002
0000
0000
0000
3003
0000
0000
0000
,  // measure 31
2000
0100
0000
0100
,  // measure 32
0000
0010
0010
3001
,  // measure 33
0002
0100
0000
0100
,  // measure 34
0000
0010
0010
1003
,  // measure 35
1001
0000
1001
0000
,  // measure 36
0010
0100
0010
1000
,  // measure 37
0110
0000
0110
0000
,  // measure 38
2002
0000
0000
3003
,  // measure 39
2000
0000
3100
0000
,  // measure 40
0010
0001
0200
0300
,  // measure 41
0001
0010
0100
0010
,  // measure 42
0001
0001
2000
3000
,  // measure 43
0020
0000
0130
0000
,  // measure 44
0001
1000
0002
0003
,  // measure 45
1000
0001
0100
0010
,  // measure 46
2000
0000
0200
3300
,  // measure 47
1000
1000
1000
1000
,  // measure 48
0001
0001
0100
0010
,  // measure 49
1000
0010
0100
0001
,  // measure 50
1000
0001
0220
0330
,  // measure 51
0001
0010
0100
0100
,  // measure 52
0010
0001
1000
0001
,  // measure 53
1000
1000
0010
0010
,  // measure 54
0100
0001
1000
0001
,  // measure 55
2002
0000
0000
0000
,  // measure 56
0000
0000
0000
0000
,  // measure 57
3003
0000
0000
0000
,  // measure 58
0000
0000
0000
0000
,  // measure 59
1000
0000
0010
0000
,  // measure 60
0100
0000
0001
0000
,  // measure 61
1001
0000
0100
0000
,  // measure 62
0010
0000
1000
0000
,  // measure 63
0002
0010
0000
0103
,  // measure 64
2000
0010
0000
3100
,  // measure 65
0002
1000
0000
0103
,  // measure 66
2000
0001
0000
3100
,  // measure 67
0020
0030
0200
0300
,  // measure 68
0002
0003
2000
3000
,  // measure 69
0001
1000
0001
1000
,  // measure 70
0010
0100
0010
1001
,  // measure 71
1000
0100
0010
0001
,  // measure 72
0010
0100
1000
0100
,  // measure 73
1000
0010
0100
0002
,  // measure 74
1000
0000
1003
0001
1000
0100
0000
0100
,  // measure 75
0010
0100
0010
0001
,  // measure 76
0100
0010
1000
0010
,  // measure 77
0100
0001
1000
0001
,  // measure 78
0010
1000
0010
0001
,  // measure 79
1001
0100
0010
1000
,  // measure 80
0010
0100
0001
1000
,  // measure 81
0100
0010
0100
1000
,  // measure 82
0001
0010
0100
0010
,  // measure 83
0011
1000
0001
1000
,  // measure 84
1001
0100
0010
0100
,  // measure 85
1010
0001
1100
0001
,  // measure 86
0010
0100
0010
0000
0001
1000
0001
0000
,  // measure 87
0220
0000
0000
0330
,  // measure 88
0000
0000
0000
0000
,  // measure 89
0000
0000
0000
0000
,  // measure 90
0000
0000
0000
0000
,  // measure 91
0000
0000
0000
0000
,  // measure 92
0000
0000
0000
0000
,  // measure 93
0000
0000
0000
0000
,  // measure 94
0000
0000
0000
0000
,  // measure 95
0000
0000
0000
0000
,  // measure 96
0001
1000
0001
1000
0001
1000
0001
1000
,  // measure 97
0010
0000
0000
0000
;

//---------------dance-single - ----------------
#NOTES:
     dance-single:
     :
     Medium:
     11:
     0.514,0.634,0.412,0.346,0.095: // measure 1
0000
0000
0000
0000
,  // measure 2
0000
0000
0000
0000
,  // measure 3
0000
0000
0000
0000
,  // measure 4
0000
0000
0000
0000
,  // measure 5
0000
0000
0000
0000
,  // measure 6
0000
0000
0000
0000
,  // measure 7
0000
0000
0000
0000
,  // measure 8
0001
0000
0000
0000
,  // measure 9
0100
0000
0000
0000
,  // measure 10
1000
0000
0000
0000
0000
0000
0000
0010
,  // measure 11
0000
0000
0000
1001
,  // measure 12
0000
0000
1100
0000
,  // measure 13
0011
0000
2002
0000
,  // measure 14
0000
0000
0000
3003
,  // measure 15
1000
0100
0010
0001
,  // measure 16
1000
0000
0001
0000
0200
0000
0310
1000
,  // measure 17
0001
0010
0100
0010
,  // measure 18
0001
0000
0100
0000
0020
0000
0130
0001
,  // measure 19
1000
0001
1000
0100
,  // measure 20
0010
0000
0100
0000
2000
0000
3001
0100
,  // measure 21
0001
0100
0010
1000
,  // measure 22
0010
0000
0010
0000
0100
0000
1001
0001
,  // measure 23
0010
1000
0100
1000
,  // measure 24
0010
0001
0200
0300
,  // measure 25
0010
0010
0100
0010
,  // measure 26
1001
0000
0001
0000
0010
0000
0100
0010
,  // measure 27
0001
1000
0100
0001
,  // measure 28
0100
1000
2002
3003
,  // measure 29
0001
0000
0000
0010
0000
0000
0001
0000
0000
1000
0000
0000
0010
0000
0000
0100
,  // measure 30
0000
0000
0010
0000
0000
1000
0000
0000
2002
0000
0000
0000
3003
0000
0000
0000
,  // measure 31
2000
0100
0100
0010
,  // measure 32
0010
0001
0100
3001
,  // measure 33
0002
0100
0100
0010
,  // measure 34
0010
1000
0010
1003
,  // measure 35
2001
0100
0010
0001
,  // measure 36
0100
0010
0100
3001
,  // measure 37
1002
0100
0010
1003
,  // measure 38
0220
0000
0000
0330
,  // measure 39
0010
1000
0010
0000
2002
0000
3003
0000
,  // measure 40
0001
0100
0001
0000
0220
0000
0330
0000
,  // measure 41
0001
0010
0100
0000
1000
0000
0100
0000
,  // measure 42
1000
0010
0100
0000
0001
0000
1000
0000
,  // measure 43
0001
1000
0100
0000
2002
0000
3003
0000
,  // measure 44
1000
0010
0100
0000
0220
0000
0330
0000
,  // measure 45
0010
1000
0100
0000
0010
0001
0100
0000
,  // measure 46
0001
1000
0100
0000
2002
0000
3003
0000
,  // measure 47
1000
1010
1000
1010
,  // measure 48
1000
1100
0001
0101
,  // measure 49
0010
0110
1000
1001
,  // measure 50
0001
0010
0100
0000
1000
0100
0001
0000
,  // measure 51
0100
0110
0100
0110
,  // measure 52
0001
1001
0010
1010
,  // measure 53
0001
0010
0100
0100
1000
0010
0100
0100
,  // measure 54
0001
1000
0100
0000
2000
0000
3001
0000
,  // measure 55
2002
0000
0000
0000
,  // measure 56
0000
0000
0000
0000
,  // measure 57
3003
0000
0000
0000
,  // measure 58
0000
0000
0000
0000
,  // measure 59
0102
0000
1000
0000
,  // measure 60
0100
0000
1003
0000
,  // measure 61
2100
0000
0001
0000
,  // measure 62
0010
0000
3001
0000
,  // measure 63
2001
0100
0100
3100
,  // measure 64
0210
0001
0001
0301
,  // measure 65
0120
1000
1000
1030
,  // measure 66
1002
0100
0100
0103
,  // measure 67
2000
3100
0020
0031
,  // measure 68
0200
0310
2000
3001
,  // measure 69
0010
0001
1000
0100
,  // measure 70
0010
0100
1000
0001
2000
0000
3001
0000
,  // measure 71
1000
1100
1000
1001
,  // measure 72
0001
0010
0100
0000
0010
0001
0100
0000
,  // measure 73
0001
0101
0010
1010
,  // measure 74
0010
0000
0010
0100
0010
0000
0010
0100
,  // measure 75
0001
0110
1000
0110
,  // measure 76
0001
0100
1000
0000
0001
0010
1000
0000
,  // measure 77
0010
0011
0100
1100
,  // measure 78
1001
0000
1000
0000
0001
1000
0100
1000
,  // measure 79
0001
0000
0100
0000
0010
1000
0100
0000
,  // measure 80
0010
0000
0001
0000
1000
0001
0100
0000
,  // measure 81
0001
0100
0010
0000
1000
0100
0001
0000
,  // measure 82
0100
1000
0001
0000
0100
0010
1000
0000
,  // measure 83
0010
0100
0001
0000
1000
0001
0100
0000
,  // measure 84
0001
0010
0100
0000
1000
0100
0001
0000
,  // measure 85
1000
0010
0001
0000
0010
1000
0100
0000
,  // measure 86
0010
0001
0100
0001
1000
0010
0100
0001
,  // measure 87
0220
0000
0000
0330
,  // measure 88
0000
0000
0000
0000
0000
0000
1000
0000
0000
0000
0000
0000
0000
0000
0000
0000
0000
0000
0000
0000
0000
0000
0000
0000
0000
0000
0000
0000
0000
0000
0000
0000
0000
0000
0000
0000
0000
0000
1000
0000
0000
0000
0000
0000
0000
0000
0000
0000
0000
0000
0000
0000
0000
0000
0000
0000
0000
0000
0000
0000
0000
0000
0000
0000
0000
0000
0000
0000
0000
0000
0001
0000
0000
0000
0000
0000
0000
0000
0000
0000
0000
0000
0000
0000
0000
0000
0000
0000
0000
0000
0000
0000
0000
0000
0000
0000
0000
0000
0000
0000
0000
0000
0100
0000
0000
0000
0000
0000
0000
0000
0000
0000
0000
0000
0000
0000
0000
0000
0000
0000
0000
0000
0000
0000
0000
0000
0000
0000
0000
0000
0000
0000
0000
0000
0010
0000
0000
0000
0000
0000
0000
0000
0000
0000
0000
0000
0000
0000
0000
0000
0000
0000
0000
0000
0000
0000
0000
0000
0000
0000
0000
0000
0000
0000
0000
0000
1000
0000
0000
0000
0000
0000
0000
0000
0000
0000
0000
0000
0000
0000
0000
0000
0000
0000
0000
0000
0000
0000
0000
0000
0000
0000
,  // measure 89
0000
0001
0000
0000
0000
0000
0000
0000
0000
0000
0000
0000
0000
0000
0000
0000
0000
0000
0000
0000
0000
0000
0000
0000
0000
0000
0000
0000
0000
0000
0000
0000
,  // measure 90
0000
0000
0000
0000
0000
0000
1000
0000
0000
0000
0000
0000
0000
0000
0000
0000
0000
0000
0000
0000
0000
0000
0000
0000
0000
0000
0000
0000
0000
0000
0000
0000
0000
0000
0000
0000
0000
0000
0000
0000
0000
0000
0000
0000
0000
0000
0000
0000
0000
0000
0000
0000
0000
0000
0100
0000
0000
0000
0000
0000
0000
0000
0000
0000
0000
0000
0000
0000
0000
0000
0000
0000
0000
0000
0000
0000
0000
0000
0000
0000
0000
0000
0000
0000
0000
0000
0010
0000
0000
0000
0000
0000
0000
0000
0000
0000
0000
0000
0000
0000
0000
0000
0000
0000
0000
0000
0000
0000
0000
0000
0000
0000
0000
0000
0000
0000
0000
0000
0001
0000
0000
0000
0000
0000
0000
0000
0000
0000
0000
0000
0000
0000
0000
0000
0010
0000
0000
0000
0000
0000
0000
0000
0000
0000
0000
0000
0000
0000
0000
0000
0000
0000
0000
0000
0000
0000
0000
0000
0000
0000
0000
0000
0000
0000
0000
0000
0000
0000
0000
0000
0000
0000
0000
0000
0000
0000
0000
0000
0000
0000
0000
0000
0000
0000
0000
0000
0000
0000
0000
0000
0000
0000
,  // measure 91
0000
0000
0000
0000
0000
0000
0000
0000
0000
0000
0000
0000
0000
0000
0000
0000
0000
0000
0000
0000
0000
0000
0000
0000
0000
0000
0000
0001
0000
0000
0000
0000
,  // measure 92
0000
0000
0000
0110
0000
0000
0000
0000
0000
0000
0000
0000
0000
0000
1001
0000
0000
0000
0000
0000
0000
0000
0000
0000
0000
0000
0000
0000
0000
0000
0000
0000
,  // measure 93
0000
0000
0000
1000
0000
0001
0000
0010
0000
0001
0000
0000
,  // measure 94
0000
1001
0000
0000
0000
0100
0000
0000
0000
0010
0000
0000
,  // measure 95
0000
0110
0000
0000
,  // measure 96
1000
0100
1100
0010
0001
0100
0101
0001
,  // measure 97
1001
0000
0000
0000
;

//---------------dance-single - ----------------
#NOTES:
     dance-single:
     :
     Hard:
     14:
     0.738,1.000,0.916,0.330,0.144: // measure 1
0000
0000
0000
0000
,  // measure 2
0000
0000
0000
0000
,  // measure 3
0000
0000
0000
0000
,  // measure 4
0000
0000
0000
0000
,  // measure 5
0000
0000
0000
0000
,  // measure 6
0000
0000
0000
0000
,  // measure 7
0000
0000
0000
0000
,  // measure 8
1010
0000
0000
0000
,  // measure 9
1001
0000
0000
0000
,  // measure 10
1100
0000
0000
0000
0000
0000
0000
0011
,  // measure 11
0000
0000
0000
1001
,  // measure 12
0000
0000
0110
0000
,  // measure 13
1001
0000
0220
0000
,  // measure 14
0000
0000
0000
0330
,  // measure 15
1010
0101
1100
0011
,  // measure 16
0101
0000
1001
0000
0210
0000
0310
0100
,  // measure 17
0001
1100
1010
1001
,  // measure 18
0110
0000
0101
0000
1100
0100
2000
0000
,  // measure 19
3010
0110
1001
0011
,  // measure 20
1010
0000
1100
0000
2001
0000
3001
1000
,  // measure 21
0100
0101
1010
0110
,  // measure 22
1001
1000
0010
0000
1200
0000
1300
0100
,  // measure 23
1000
0010
0100
0001
1000
0010
1000
0001
,  // measure 24
0100
0001
0010
0100
0210
0000
0310
0000
,  // measure 25
0001
1000
0001
0100
0010
1000
0010
0100
,  // measure 26
0001
1000
0100
0010
0012
0000
1003
0000
,  // measure 27
0010
0100
0010
1000
0100
1000
0001
0100
,  // measure 28
0010
1000
0001
0100
0201
0000
0310
0000
,  // measure 29
1100
0000
0000
1100
0000
0000
0011
0000
0000
1001
0000
0000
0110
0000
0000
1001
,  // measure 30
0000
0000
0110
0000
0000
0110
0000
0000
2002
0000
0000
0000
3003
0000
0000
0000
,  // measure 31
0001
0100
0100
0001
0010
0010
0001
1000
,  // measure 32
0001
0100
0020
0000
2030
0000
3200
0000
,  // measure 33
1300
0100
0100
1000
0010
0010
1000
0001
,  // measure 34
0100
0001
2000
0000
3020
0000
2030
0000
,  // measure 35
3001
0100
0100
0001
2001
0000
3001
0010
,  // measure 36
0010
0100
0020
0000
0032
0000
2003
0000
,  // measure 37
3100
1000
1000
0010
0110
0000
0010
1000
,  // measure 38
2002
0000
0000
3003
,  // measure 39
0001
0100
0001
0100
1001
0000
1000
0010
,  // measure 40
0100
0010
1000
0100
0011
0000
0001
0100
,  // measure 41
0010
1000
0001
0100
0010
1000
0100
0010
,  // measure 42
0001
1000
0001
1000
1001
0000
0001
0010
,  // measure 43
0100
0010
0001
1000
1100
0000
0100
1000
,  // measure 44
0010
0100
0010
1000
1001
0000
0001
0010
,  // measure 45
0001
1000
0100
1000
0010
0100
0010
0100
,  // measure 46
0001
1000
0100
1000
0002
0000
0000
0000
2003
0000
0000
0000
3010
0000
0000
0000
,  // measure 47
1001
0100
0010
1000
0010
0100
0001
1000
,  // measure 48
0100
0001
0100
1000
0010
0100
0001
1000
,  // measure 49
0010
1000
0001
0100
0010
1000
0001
0100
,  // measure 50
0110
0010
1000
0001
1001
0001
0010
0100
,  // measure 51
0110
0001
0010
0100
0010
0001
1000
0100
,  // measure 52
0010
0100
1000
0001
0100
0010
0100
0010
,  // measure 53
1000
1000
1000
0001
0100
0100
0100
0010
,  // measure 54
1000
1000
0100
0010
0001
0010
0100
1000
,  // measure 55
2002
0000
0000
0000
,  // measure 56
0000
0000
0000
0000
,  // measure 57
3003
0000
0000
0000
,  // measure 58
0001
0100
0010
1000
0100
0000
1100
0000
,  // measure 59
0120
1000
1000
0001
,  // measure 60
0001
0001
0130
0000
,  // measure 61
2001
0010
0010
0001
,  // measure 62
0001
0001
3100
0000
,  // measure 63
2001
0000
0100
0000
3100
0000
0010
0001
,  // measure 64
1002
0000
0100
0000
0103
0000
0010
0100
,  // measure 65
0210
0000
0001
0000
0301
0000
0100
0010
,  // measure 66
0120
0000
1000
0000
1030
0000
0001
1000
,  // measure 67
2001
3100
0012
1003
,  // measure 68
0210
0301
2100
3010
,  // measure 69
0110
1001
1100
0011
,  // measure 70
1001
0000
0110
0000
1002
0000
0013
0100
,  // measure 71
0101
0000
1010
0000
1100
0000
0001
0010
,  // measure 72
0100
1000
0100
0010
0001
1000
0100
1000
,  // measure 73
1010
0101
1100
1001
,  // measure 74
0100
0000
0000
0000
0100
0000
0010
0100
0001
0000
0100
0000
0000
0000
0100
0001
,  // measure 75
1000
0000
1001
0000
0011
0000
1000
0010
,  // measure 76
0100
0001
0100
0010
1000
0001
1000
0001
,  // measure 77
0010
0000
0110
0000
1100
0000
0010
0001
,  // measure 78
0100
0100
0010
0100
0001
1000
0001
0001
,  // measure 79
1001
0100
1100
0000
0010
0001
0101
0010
,  // measure 80
0010
1000
1001
1000
0100
0010
0011
0001
,  // measure 81
1000
0100
0010
0001
0100
0010
1000
0010
,  // measure 82
0100
0001
1000
0001
0100
0010
1000
0001
,  // measure 83
1001
0100
0101
0000
0010
0001
1001
0100
,  // measure 84
0110
0010
1010
1000
1100
0100
1000
0001
,  // measure 85
0010
0100
1100
0010
0001
0100
0110
1000
,  // measure 86
0110
0110
0101
0101
0110
1010
1001
0000
,  // measure 87
2200
0000
0000
3300
,  // measure 88
0000
0000
0000
0000
0000
0000
0001
0000
0000
0000
0000
0000
0000
0000
0000
0000
0000
0000
0000
0000
0000
0000
0000
0000
0000
0000
0000
0000
0000
0000
0000
0000
0000
0000
0000
0000
0000
0000
0001
0000
0000
0000
0000
0000
0000
0000
0000
0000
0000
0000
0000
0000
0000
0000
0000
0000
0000
0000
0000
0000
0000
0000
0000
0000
0000
0000
0000
0000
0000
0000
1000
0000
0000
0000
0000
0000
0000
0000
0000
0000
0000
0000
0000
0000
0000
0000
0000
0000
0000
0000
0000
0000
0000
0000
0000
0000
0000
0000
0000
0000
0000
0000
0010
0000
0000
0000
0000
0000
0000
0000
0000
0000
0000
0000
0000
0000
0000
0000
0000
0000
0000
0000
0000
0000
0000
0000
0000
0000
0000
0000
0000
0000
0000
0000
0100
0000
0000
0000
0000
0000
0000
0000
0000
0000
0000
0000
0000
0000
0000
0000
0000
0000
0000
0000
0000
0000
0000
0000
0000
0000
0000
0000
0000
0000
0000
0000
0001
0000
0000
0000
0000
0000
0000
0000
0000
0000
0000
0000
0000
0000
0000
0000
0000
0000
0000
0000
0000
0000
0000
0000
0000
0000
,  // measure 89
0000
1000
0000
0000
0000
0000
0000
0000
0000
0000
0000
0000
0000
0000
0000
0000
0000
0000
0000
0000
0000
0000
0000
0000
0000
0000
0000
0000
0000
0000
0000
0000
,  // measure 90
0000
0000
0000
0000
0000
0000
0001
0000
0000
0000
0000
0000
0000
0000
0000
0000
0000
0000
0000
0000
0000
0000
0000
0000
0000
0000
0000
0000
0000
0000
0000
0000
0000
0000
0000
0000
0000
0000
0000
0000
0000
0000
0000
0000
0000
0000
0000
0000
0000
0000
0000
0000
0000
0000
0010
0000
0000
0000
0000
0000
0000
0000
0000
0000
0000
0000
0000
0000
0000
0000
0000
0000
0000
0000
0000
0000
0000
0000
0000
0000
0000
0000
0000
0000
0000
0000
0100
0000
0000
0000
0000
0000
0000
0000
0000
0000
0000
0000
0000
0000
0000
0000
0000
0000
0000
0000
0000
0000
0000
0000
0000
0000
0000
0000
0000
0000
0000
0000
1000
0000
0000
0000
0000
0000
0000
0000
0000
0000
0000
0000
0000
0000
0000
0000
0100
0000
0000
0000
0000
0000
0000
0000
0000
0000
0000
0000
0000
0000
0000
0000
0000
0000
0000
0000
0000
0000
0000
0000
0000
0000
0000
0000
0000
0000
0000
0000
0000
0000
0000
0000
0000
0000
0000
0000
0000
0000
0000
0000
0000
0000
0000
0000
0000
0000
0000
0000
0000
0000
0000
0000
0000
0000
,  // measure 91
0000
0000
0000
0000
0000
0000
0000
0000
0000
0000
0000
0000
0000
0000
0000
0000
0000
0000
0000
0000
0000
0000
0000
0000
0000
0000
0000
1000
0000
0000
0000
0000
,  // measure 92
0000
0000
0000
0110
0000
0000
0000
0000
0000
0000
0000
0000
0000
0000
1001
0000
0000
0000
0000
0000
0000
0000
0000
0000
0000
0000
0000
0000
0000
0000
0000
0000
,  // measure 93
0000
0000
0000
0001
0000
1000
0000
0100
0000
1000
0000
0000
,  // measure 94
0000
1001
0000
0000
0000
0010
0000
0000
0000
0100
0000
0000
,  // measure 95
0000
0110
0000
0000
,  // measure 96
0001
1000
0001
1000
0001
1000
0001
1000
0001
1000
0001
1000
0001
1000
0001
1000
,  // measure 97
0001
0000
0000
0000
;

//---------------dance-single - ----------------
#NOTES:
     dance-single:
     :
     Challenge:
     18:
     1.000,1.000,0.866,0.198,0.924: // measure 1
0000
0000
0000
0000
,  // measure 2
0000
0000
0000
0000
,  // measure 3
0000
0000
0000
0000
,  // measure 4
0000
0000
0000
0000
,  // measure 5
0000
0000
0000
0000
,  // measure 6
0000
0000
0000
0000
,  // measure 7
0000
0000
0000
0000
,  // measure 8
0110
0000
0000
0000
,  // measure 9
1001
0000
0000
0000
,  // measure 10
0101
0000
0000
0000
0000
0000
0000
1010
,  // measure 11
0000
0000
0000
0110
,  // measure 12
0000
0000
1100
0000
,  // measure 13
0011
0000
2002
0000
,  // measure 14
0000
0000
0000
0000
0000
0000
0000
0000
3003
0000
0000
0000
0010
0100
0001
0100
,  // measure 15
0010
0000
0000
0000
1100
0000
0100
1000
0010
0000
0100
0000
0001
0000
0010
0100
,  // measure 16
1000
0000
0100
0000
0010
0001
0100
0001
0010
0000
0001
0000
1000
0001
1000
0001
,  // measure 17
0100
0000
0000
0000
0101
0000
0001
0010
0100
0000
0010
0000
0001
0000
1000
0010
,  // measure 18
0100
0000
0010
0000
1000
0000
0001
0100
0010
0000
0010
0000
0210
0000
0000
0000
,  // measure 19
0301
0000
0000
0000
0011
0000
0001
1000
0010
0000
1000
0000
0100
0000
0010
0100
,  // measure 20
1000
0000
0100
0000
0010
0001
0010
0001
0100
0000
0000
0000
0010
1000
0001
1000
,  // measure 21
0100
0000
0000
0000
0110
0000
0100
1000
0010
0000
0100
0000
0001
1000
0010
1000
,  // measure 22
0001
0000
1000
0000
0001
0010
0100
0010
0001
0000
0001
0000
0100
0010
0100
0010
,  // measure 23
0100
0000
0010
0000
1000
0100
0010
0100
1000
0000
0001
0000
0100
0001
0010
0001
,  // measure 24
0100
0000
0001
0000
1000
0010
0100
0001
1000
0000
0001
0000
0101
0000
0000
0000
,  // measure 25
0011
0000
0001
0000
0100
0010
1000
0010
0100
0000
0001
0000
0010
0001
1000
0001
,  // measure 26
0100
0000
0001
0000
1000
0100
0010
0001
1000
0000
0001
0000
1002
0000
0000
0000
,  // measure 27
1003
0000
0100
0000
1000
0010
0100
0010
1000
0000
0001
0000
0010
0001
0100
0001
,  // measure 28
0010
0000
0001
0000
1000
0010
0100
0001
0100
0000
0000
0000
0010
0100
0010
0100
,  // measure 29
0001
0000
0000
0011
0000
0000
1001
0000
0000
1100
0000
0000
1001
0000
0000
1010
,  // measure 30
0000
0000
0110
0000
0000
0101
0000
0000
0210
0000
0000
0000
0301
0000
0100
0000
,  // measure 31
0010
1000
0010
1000
0100
0000
0010
0001
0010
0001
0100
0000
0010
1000
0010
1000
,  // measure 32
0100
0100
0020
0000
0230
0000
2300
0000
,  // measure 33
3001
0100
0010
0100
0001
0000
1000
0010
0100
0010
1000
0000
0001
0010
0100
0010
,  // measure 34
0001
0001
0020
0000
0032
0000
2003
0000
,  // measure 35
3010
1000
0100
1000
0010
0000
0100
0001
0010
0001
0100
0000
0010
1000
0100
1000
,  // measure 36
0010
0010
0200
0000
0302
0000
2003
0000
,  // measure 37
3001
0010
0100
0010
0001
0000
1000
0010
0100
0010
1000
0000
0001
0010
0100
1000
,  // measure 38
0001
1000
0001
0000
0100
0000
0110
0000
,  // measure 39
0010
1000
0001
1000
0010
0000
0100
0001
1000
0010
1000
0000
0001
0010
0100
1000
,  // measure 40
0001
0001
0010
0000
0012
0000
1003
0000
,  // measure 41
0001
0100
0010
1000
0100
0000
1000
0100
0010
0001
0100
0000
0010
1000
0001
0100
,  // measure 42
0010
0010
0100
0000
0102
0000
1003
0000
,  // measure 43
1000
0100
0001
0100
1000
0000
0001
0010
1000
0010
0001
0000
1000
0100
0001
0100
,  // measure 44
1000
1000
0002
0000
0103
0000
0210
0000
,  // measure 45
0301
0010
1000
0010
0001
0000
1000
0100
0001
0100
1000
0000
0001
0010
0100
1000
,  // measure 46
0001
0100
0001
0100
0020
0000
0000
0000
0130
0000
0000
0000
0101
0000
0000
0000
,  // measure 47
1000
0000
0100
0010
0001
0000
0100
0000
0110
0000
0010
0000
0110
0000
0010
0000
,  // measure 48
1000
0000
0001
0100
0010
0000
0100
0000
0101
0000
0001
0000
1001
0000
1000
0000
,  // measure 49
0100
0000
1000
0010
0100
0000
0010
0000
1010
0000
0010
0000
1010
0000
0010
0000
,  // measure 50
1100
1100
0010
0000
0101
0101
0010
0100
,  // measure 51
1001
0000
0001
0010
0100
0000
0010
0000
0011
0000
0001
0000
1001
0000
1000
0000
,  // measure 52
1010
0000
0010
0100
0001
0000
0100
0000
0110
0000
0010
0000
1010
0000
1000
0000
,  // measure 53
0100
0100
0110
0110
0010
0010
0011
0011
,  // measure 54
0001
0001
1001
1001
1000
1000
1010
0110
,  // measure 55
0202
0000
0000
0000
,  // measure 56
0000
0000
0000
0000
,  // measure 57
0303
0000
0000
0000
,  // measure 58
0001
0100
0001
0000
1000
0100
1000
0001
1000
0000
0000
0000
1001
0000
0000
0000
,  // measure 59
0110
0000
0010
0100
0001
0000
0010
0000
0100
0000
1000
0000
0100
0000
0001
0000
,  // measure 60
0100
0000
1000
0010
0100
0000
0001
0000
0010
0000
0100
0000
1000
0000
0000
0000
,  // measure 61
0110
0000
1000
0010
0100
0000
0010
0000
1000
0000
0001
0000
0010
0000
0001
0000
,  // measure 62
1000
0000
0010
0100
0001
0000
1000
0010
0200
0000
0000
0000
0300
0000
0000
0000
,  // measure 63
1010
0000
0010
1000
0100
0000
0010
0000
0110
0000
0010
0000
0011
0000
0001
0000
,  // measure 64
1001
0000
0001
0100
0010
0000
0100
0000
0110
0000
0010
0000
1010
0000
1000
0000
,  // measure 65
1001
0000
1000
0100
0010
0000
0001
0000
0101
0000
0010
0000
1001
0000
1000
0000
,  // measure 66
1100
0000
1000
0100
0010
0000
0100
0000
1100
0000
0010
0000
1001
0000
0001
0000
,  // measure 67
0101
0000
0001
0100
0010
0000
1000
0000
1100
0000
1000
0100
0010
0000
0001
0000
,  // measure 68
1001
0000
0001
1000
0010
0000
1000
0000
1001
0000
1000
0001
0100
0000
0001
0000
,  // measure 69
1100
0000
0000
0100
0000
0000
0110
0000
0000
0010
0000
0000
0001
0000
0010
0000
1000
0000
0001
0000
0100
0000
1000
0000
,  // measure 70
0001
0100
0001
0100
1000
0100
1000
0100
0001
0010
0100
1000
0001
0000
0000
0000
,  // measure 71
1100
0000
0010
0000
1001
0000
0010
0000
0101
0000
0010
0000
1000
0010
1000
0010
,  // measure 72
0100
0001
0100
0001
1000
0100
1000
0100
0010
0100
0010
0100
1000
0100
0010
0001
,  // measure 73
1000
0100
0010
0001
1000
0000
0001
0000
0101
0000
0001
0000
1000
0001
1000
0001
,  // measure 74
0100
0010
0100
0010
1000
0010
0100
0010
1000
0100
0010
0001
1000
0100
0010
0001
,  // measure 75
1000
0000
0001
0000
0101
0000
0001
0000
1001
0000
0001
0000
0100
0010
0100
0010
,  // measure 76
1000
0010
1000
0010
0100
0001
0100
0001
1000
0010
0100
0001
1000
0010
0100
0001
,  // measure 77
1000
0001
0100
0001
1000
0000
0001
0000
0101
0000
0010
0000
0100
0001
0100
0001
,  // measure 78
0100
0100
0110
0110
0010
0010
1010
1001
,  // measure 79
0011
0000
0001
0000
1001
0000
0001
0000
0101
0000
0001
0000
1000
0010
1000
0010
,  // measure 80
0100
0001
0100
0001
1000
0100
0010
0100
1000
0100
0010
0001
1000
0100
0010
0001
,  // measure 81
1000
0000
0010
0000
0110
0000
0010
0000
1010
0000
1000
0000
0001
0010
0001
0010
,  // measure 82
0100
1000
0100
1000
0001
0010
0100
0010
0001
0010
0100
1000
0001
0010
0100
1000
,  // measure 83
0001
0000
0100
0000
0110
0000
0100
0000
0101
0000
0001
0000
1000
0010
1000
0010
,  // measure 84
0100
0001
0100
0001
1000
0100
0010
0100
1000
0010
0100
0001
1000
0010
0100
0001
,  // measure 85
1000
0000
0010
0000
0110
0000
0010
0000
1010
0000
1000
0000
0001
0010
1000
0010
,  // measure 86
0001
0001
0101
0101
0110
1010
1001
0000
,  // measure 87
2200
0000
0000
3300
,  // measure 88
0000
0000
0000
0000
0000
0000
1000
0000
0000
0000
0000
0000
0000
0000
0000
0000
0000
0000
0000
0000
0000
0000
0000
0000
0000
0000
0000
0000
0000
0000
0000
0000
0000
0000
0000
0000
0000
0000
1000
0000
0000
0000
0000
0000
0000
0000
0000
0000
0000
0000
0000
0000
0000
0000
0000
0000
0000
0000
0000
0000
0000
0000
0000
0000
0000
0000
0000
0000
0000
0000
0001
0000
0000
0000
0000
0000
0000
0000
0000
0000
0000
0000
0000
0000
0000
0000
0000
0000
0000
0000
0000
0000
0000
0000
0000
0000
0000
0000
0000
0000
0000
0000
0100
0000
0000
0000
0000
0000
0000
0000
0000
0000
0000
0000
0000
0000
0000
0000
0000
0000
0000
0000
0000
0000
0000
0000
0000
0000
0000
0000
0000
0000
0000
0000
0010
0000
0000
0000
0000
0000
0000
0000
0000
0000
0000
0000
0000
0000
0000
0000
0000
0000
0000
0000
0000
0000
0000
0000
0000
0000
0000
0000
0000
0000
0000
0000
1000
0000
0000
0000
0000
0000
0000
0000
0000
0000
0000
0000
0000
0000
0000
0000
0000
0000
0000
0000
0000
0000
0000
0000
0000
0000
,  // measure 89
0000
0001
0000
0000
0000
0000
0000
0000
0000
0000
0000
0000
0000
0000
0000
0000
0000
0000
0000
0000
0000
0000
0000
0000
0000
0000
0000
0000
0000
0000
0000
0000
,  // measure 90
0000
0000
0000
0000
0000
0000
1000
0000
0000
0000
0000
0000
0000
0000
0000
0000
0000
0000
0000
0000
0000
0000
0000
0000
0000
0000
0000
0000
0000
0000
0000
0000
0000
0000
0000
0000
0000
0000
0000
0000
0000
0000
0000
0000
0000
0000
0000
0000
0000
0000
0000
0000
0000
0000
0100
0000
0000
0000
0000
0000
0000
0000
0000
0000
0000
0000
0000
0000
0000
0000
0000
0000
0000
0000
0000
0000
0000
0000
0000
0000
0000
0000
0000
0000
0000
0000
0010
0000
0000
0000
0000
0000
0000
0000
0000
0000
0000
0000
0000
0000
0000
0000
0000
0000
0000
0000
0000
0000
0000
0000
0000
0000
0000
0000
0000
0000
0000
0000
0001
0000
0000
0000
0000
0000
0000
0000
0000
0000
0000
0000
0000
0000
0000
0000
0010
0000
0000
0000
0000
0000
0000
0000
0000
0000
0000
0000
0000
0000
0000
0000
0000
0000
0000
0000
0000
0000
0000
0000
0000
0000
0000
0000
0000
0000
0000
0000
0000
0000
0000
0000
0000
0000
0000
0000
0000
0000
0000
0000
0000
0000
0000
0000
0000
0000
0000
0000
0000
0000
0000
0000
0000
0000
,  // measure 91
0000
0000
0000
0000
0000
0000
0000
0000
0000
0000
0000
0000
0000
0000
0000
0000
0000
0000
0000
0000
0000
0000
0000
0000
0000
0000
0000
0001
0000
0000
0000
0000
,  // measure 92
0000
0000
0000
0110
0000
0000
0000
0000
0000
0000
0000
0000
0000
0000
1001
0000
0000
0000
0000
0000
0000
0000
0000
0000
0000
0000
0000
0000
0000
0000
0000
0000
,  // measure 93
0000
0000
0000
1000
0000
0001
0000
0010
0000
0001
0000
0000
,  // measure 94
0000
1001
0000
0000
0000
0100
0000
0000
0000
0010
0000
0000
,  // measure 95
0000
0110
0000
0000
,  // measure 96
0010
1000
0100
0001
0100
1000
0010
0001
0010
1000
0100
0010
0001
1000
0001
1000
,  // measure 97
0001
0000
0000
0000
;

//---------------dance-double - ----------------
#NOTES:
     dance-double:
     :
     Easy:
     8:
     0.404,0.554,0.297,0.313,0.000:
00000000
00000000
00000000
00000000
,
00000000
00000000
00000000
00000000
,
00000000
00000000
00000000
00000000
,
00000000
00000000
00000000
00000000
,
00000000
00000000
00000000
00000000
,
00000000
00000000
00000000
00000000
,
00000000
00000000
00000000
00000000
,
00100000
00000000
00000000
00000000
,
00001000
00000000
00000000
00000000
,
00010000
00000000
00000000
00000000
00000000
00000000
00000000
00001000
,
00000000
00000000
00000000
00000110
,
00000000
00000000
00001001
00000000
,
00000010
00000000
00020000
00000000
,
00000000
00000000
00000000
00030000
,
00011000
00001000
00100000
01000000
,
10000000
01000000
00200000
00300000
,
00010000
01000000
00001000
00100000
,
00001000
00010000
00000010
00000100
,
00000010
00001000
00000100
00000010
,
00000001
00000010
00000200
00000300
,
00001000
00010000
01000000
00100000
,
00010000
01000000
00100000
10000000
,
00010000
01000000
00001000
00010000
,
00000010
00000100
00000220
00000330
,
00000010
00010000
00000100
00010000
,
00001000
00100000
02100000
03010000
,
10000000
00100000
01000000
00001000
,
00100000
00001000
00022000
00033000
,
00000010
00000010
00000100
00000100
,
00000001
00001000
00002002
00003003
,
00000010
00000000
00000010
00000000
,
00010000
00000100
00002000
00003000
,
00000100
00000000
00000100
00000000
,
00010000
00001000
00200000
00300000
,
00010000
00000000
00010000
00000000
,
01000000
00100000
20000000
30000000
,
00100000
00000000
00100000
00000000
,
02200000
00000000
00000000
03300000
,
00010000
01000000
10100000
01000000
,
01000000
00001000
00022000
00033000
,
00010000
00010000
00000100
00000010
,
00000001
00000010
00000100
00001000
,
00000001
00000001
00001010
00000001
,
00000001
00000100
00020020
00030030
,
00010000
00010000
00001000
00010000
,
00021000
00000000
00002000
00033000
,
00001000
00001000
01001000
01001000
,
01000000
01000000
02200000
03300000
,
10000000
10000000
01000000
01000000
,
00100000
00001000
00100000
00000000
00001000
00000000
00000000
00000000
,
00010000
00010000
00011000
00011000
,
00000010
00000010
00000100
00000110
,
00000010
00001000
00000010
00000000
00001000
00000000
00001000
00000000
,
00000100
00010000
00000100
00000000
00010000
00000000
00010000
00000000
,
00022000
00000000
00000000
00000000
,
00000000
00000000
00000000
00000000
,
00033000
00000000
00000000
00000000
,
00000000
00000000
00100000
00100000
,
00101000
00000000
00000000
00000000
,
00002000
00000000
00013000
00000000
,
00010010
00000000
00000000
00000000
,
00000020
00000000
00000130
00000000
,
00000001
00000010
00000100
00001000
,
00010000
00100000
01000000
10000000
,
10000000
01000000
00100000
00010000
,
00001000
00000100
00000010
00000001
,
00000010
00001000
00010000
00100000
,
10000000
00100000
00010000
00001000
,
00000010
00000001
00000010
00000100
,
00010000
00001000
00022000
00033000
,
00110000
00010000
00010000
02000000
,
00010000
00100000
00001000
03010000
,
00101000
00001000
00001000
00010000
,
00000020
00000100
00000200
00000330
,
00001001
00000010
00000010
00000100
,
00020000
00000100
00001000
00030100
,
00010000
00001000
00001000
00100000
,
00010000
01000000
00010000
00000000
00010000
01000000
00010000
00000000
,
10010000
11000000
11000000
00200000
,
00010000
01000000
00001000
00310000
,
00001000
00011000
00011000
00020000
,
00000010
00000100
00001000
00030100
,
00001000
00001010
00001010
00000020
,
00000100
00000001
00001000
00000130
,
00000010
00000011
00000011
00000100
,
00010000
00001000
00010000
00000000
00010000
00001000
00010000
00000000
,
00022000
00000000
00000000
00033000
,
00100000
00000000
00000000
00000000
,
00000000
00000000
00000000
00000000
,
01000000
00000000
00000000
00000000
,
00000000
00000000
00000000
00000000
,
00001000
00000000
00000000
00000000
,
00000000
00010000
00000000
00000000
,
00000000
00000010
00000000
00000000
,
00000000
00000100
00000000
00000000
,
00010000
00001000
00010000
00001000
00010000
00001000
00010000
00001000
,
00010000
00000000
00000000
00000000
;

//---------------dance-double - ----------------
#NOTES:
     dance-double:
     :
     Medium:
     12:
     0.541,0.673,0.322,0.198,0.025:
00000000
00000000
00000000
00000000
,
00000000
00000000
00000000
00000000
,
00000000
00000000
00000000
00000000
,
00000000
00000000
00000000
00000000
,
00000000
00000000
00000000
00000000
,
00000000
00000000
00000000
00000000
,
00000000
00000000
00000000
00000000
,
00100000
00000000
00000000
00000000
,
00011000
00000000
00000000
00000000
,
00000100
00000000
00000000
00000000
00000000
00000000
00000000
00001100
,
00000000
00000000
00000000
00000110
,
00000000
00000000
00001001
00000000
,
00000010
00000000
00020000
00000000
,
00000000
00000000
00000000
00030000
,
00011000
00000000
00001000
01000000
00100000
00000000
10000000
00010000
,
01000000
00100000
02100000
03010000
,
10000000
00000000
01000000
00100000
00001000
00000000
00010000
00000100
,
00001000
00000000
00000010
00000100
00000001
00001000
00000001
00000000
,
00000010
00000000
00000001
00000010
00000100
00000000
00010000
00000100
,
00001000
00000000
00000010
00000100
00000002
00000000
00001003
00000000
,
00000010
00000000
00001000
00000100
00010000
00000000
00001000
01000000
,
00100000
00000000
10000000
01000000
10000000
00010000
01000000
00000000
,
00100000
00000000
01000000
00010000
01000000
00010000
00000000
00010000
,
00100000
00000000
00001000
00010000
00002000
00000000
00013000
00000000
,
00000010
00000000
00000100
00000010
00000100
00000010
00000000
00001000
,
00000001
00000000
00000010
00000100
00010000
00000000
00002000
00000000
,
00103000
00000000
00010000
01000000
00100000
01000000
00000000
01000000
,
00010000
00000000
10000000
00100000
01000000
00000000
00010000
10000000
,
00010000
00000000
00000000
10000000
00000000
00000000
01000000
00000000
00000000
00010000
00000000
00000000
00001000
00000000
00000000
00000100
,
00000000
00000000
00000001
00000000
00000000
00000100
00000000
00000000
00002000
00000000
00000000
00000000
00013000
00000000
00000000
00000000
,
00201000
00010000
00010000
00000000
,
00001000
00010000
00301000
00000000
,
00001020
00001000
00001000
00000000
,
00000100
00010000
00001030
00000000
,
00010010
00000000
00010010
00000000
,
00000100
00000010
00020000
00000000
00032000
00000000
00023000
00000000
,
00031000
00000000
00011000
00000000
,
00200000
00000000
00000000
00300000
,
01000000
00000000
00100000
00000000
00210000
00000000
00310000
00100000
,
00010000
01000000
02001000
00000000
,
03001000
00010000
00001000
00000000
00010000
00010000
00000000
00010000
,
00000010
00000000
00000100
00000000
00000210
00000000
00000310
00001000
,
00000001
00000000
00000010
00000000
00000012
00000000
00001003
00000100
,
00001000
00000100
00020100
00000000
,
00031000
00010000
00001000
00000000
00010000
00001000
00010000
00000000
,
00001000
00010000
02000000
00000000
10000000
00000000
03010000
00000000
,
11000000
11000000
10100000
10100000
,
01100000
01100000
01010000
01010000
,
00010000
00100000
00010000
00000000
00100000
00001000
00100000
00000000
,
00001000
00001000
00010000
00000000
00010000
00010000
00000010
00000000
,
00000110
00000110
00000101
00000101
,
00000011
00000011
00001001
00001001
,
00000100
00001000
00000100
00000000
00010000
00001000
00010000
00000000
,
00001000
00100000
00001000
00100000
00010000
01000000
00010000
00000000
,
02200000
00000000
00000000
00000000
,
00000000
00000000
00000000
00000000
,
03300000
00000000
00000000
00000000
,
00000000
00000000
10000000
10000000
,
01100000
00000000
00010000
01000000
00010000
00100000
00001000
00010000
,
00002000
00010000
00013000
00000000
,
00000110
00000000
00000001
00000100
00000001
00000010
00000001
00001000
,
00000200
00010000
00010300
00000000
,
00010100
00000000
00000100
00010000
00001000
00010000
00001000
00000000
,
00100000
00000000
00001000
00010000
00001000
01000000
00001000
00000000
,
00010000
00000000
00000010
00001000
00000001
00001000
00000010
00000000
,
00000100
00000000
00000001
00000010
00000001
00001000
00000001
00000000
,
00000100
00000010
00001000
00000000
00010000
00100000
10000000
00000000
,
00100000
01000000
00010000
00000000
00001000
00000010
00000001
00000000
,
00000010
00000100
00000010
00000100
00000001
00000100
00000001
00000000
,
00001000
00000100
00000010
00000100
00010000
00000000
00012000
00000000
,
00103000
00000000
00100000
00010000
00100000
00000000
00010000
01000000
,
00010000
00100000
00010000
00100000
00001000
00010000
00001000
00010000
,
00000010
00000000
00000100
00000010
00000100
00000000
00000010
00001000
,
00000100
00000000
00000100
00001000
00000001
00000000
00000100
00000010
,
00010000
00000000
00000010
00010000
00001000
00010000
00000000
00010000
,
00001000
00100000
00001000
00100000
00001000
01000000
00010000
01000000
,
00100000
00000000
10000000
01000000
00100000
01000000
00000000
01000000
,
10000000
10000000
00010000
00010000
01000000
01000000
00001000
00001000
,
00010000
00000000
00011000
00000000
00010100
00000000
00010000
00000010
,
00000100
00000010
00001000
00000000
00000010
00001000
00000001
00000100
,
00000001
00000000
00000010
00000100
00010000
00000100
00001000
00000000
,
00000010
00000100
00000010
00000100
00000001
00001000
00000100
00010000
,
00001000
00000000
00100000
00010000
01000000
00000000
00100000
10000000
,
01000000
10000000
01000000
10000000
00010000
01000000
00001000
00100000
,
00001000
00000000
00010000
00000100
00010000
00000000
00000010
00000100
,
00000001
00000001
00000010
00000010
00001000
00001000
00010000
00010000
,
00200000
00000000
00000000
00300000
,
00010000
00000000
00000000
00000000
,
00000000
00000000
00000000
00000000
,
01000000
00000000
00000000
00000000
,
00000000
00000000
00000000
00000000
,
00001000
00000000
00000000
00000000
,
00000000
00000010
00000000
00000000
,
00000000
00000100
00000000
00000000
,
00000000
00010000
00000000
00000000
,
00001000
00000000
00010000
00001000
00010000
00000000
00001000
00000000
00010000
00000000
00001000
00010000
00001000
00000000
00010000
00000000
,
00001000
00000000
00000000
00000000
;

//---------------dance-double - ----------------
#NOTES:
     dance-double:
     :
     Hard:
     15:
     0.757,0.871,0.874,0.214,0.198:
00000000
00000000
00000000
00000000
,
00000000
00000000
00000000
00000000
,
00000000
00000000
00000000
00000000
,
00000000
00000000
00000000
00000000
,
00000000
00000000
00000000
00000000
,
00000000
00000000
00000000
00000000
,
00000000
00000000
00000000
00000000
,
00000001
00000000
00000000
00000000
,
00001100
00000000
00000000
00000000
,
00010000
00000000
00000000
00000000
00000000
00000000
00000000
00010100
,
00000000
00000000
00000000
00110000
,
00000000
00000000
01100000
00000000
,
10000000
00000000
00220000
00000000
,
00000000
00000000
00000000
00330000
,
10010000
00000000
00010000
01000000
00100000
01000000
00010000
00100000
,
00001000
00010000
00000010
00000100
00000001
00000000
00000010
00000100
,
00010000
00000000
00000100
00010000
00000010
00000100
00000001
00000010
,
00000100
00010000
00001000
00100000
00001000
00001000
01000000
00100000
,
10000000
00000000
00100000
01000000
00010000
10000000
01000000
00100000
,
00001000
00010000
00000010
00001000
00000001
00000000
00000010
00000001
,
00000100
00000000
00000001
00000010
00000100
00000010
00000001
00000100
,
00001000
00001000
00010000
00000000
01000000
00100000
00010000
10000000
,
10010000
00000000
00000000
00000000
00010000
00000000
01000000
00010000
01000000
00000000
00010000
00000000
00100000
00000000
00010000
00000000
,
01000000
00001000
00100000
00001000
00010000
00000000
00000010
00000000
,
00000110
00000000
00000000
00000000
00000010
00000000
00001000
00000010
00001000
00000000
00000001
00000000
00000010
00000000
00000100
00000000
,
00001000
00000100
00010000
00001000
00100000
00100000
00010000
00000000
,
00110000
00000000
00000000
00000000
00010000
00000000
01000000
00010000
01000000
00000000
00010000
00000000
10000000
00000000
00100000
00000000
,
01000000
00000000
00100000
00000000
10000000
00000000
00010000
00000000
01000000
00000000
00000000
00000000
00010000
10000000
00010000
00000000
,
10000000
00000000
00000000
11000000
00000000
00000000
01100000
00000000
00000000
00101000
00000000
00000000
00011000
00000000
00000000
00010010
,
00000000
00000000
00000110
00000000
00000000
00000101
00000000
00000000
00001001
00000000
00000000
00000000
00000010
00000000
00000100
00000000
,
00000001
00000010
00000001
00001000
00000200
00000000
00010300
00000100
,
00010000
00010000
00002000
00000000
00023000
00000000
00032000
00000000
,
01003000
00100000
10000000
00100000
02000000
00000000
03100000
10000000
,
00010000
00010000
00200000
00000000
02300000
00000000
03200000
00000000
,
00301000
00100000
00001000
00010000
00011000
00000000
00010000
00000010
,
00000110
00000010
00002000
00000000
00003002
00000000
00000203
00000000
,
00000301
00000010
00000001
00001000
00001001
00000000
00000010
00000100
,
00000020
00000000
00001000
00001030
,
00010100
00000100
00010000
00001000
00200000
00000000
00310000
01000000
,
00010000
10000000
00100000
01000000
00200000
00000000
00300000
00000000
,
10000000
01000000
00100000
01000000
10000000
10000000
00010000
01000000
,
00010000
00100000
00001000
00010000
00021000
00000000
00030010
00001000
,
00000010
00000100
00000001
00000010
00000002
00000000
00001003
00000010
,
00000100
00000010
00010000
00000100
00020000
00000000
00031000
00100000
,
00010000
01000000
10000000
01000000
00010000
00000100
00000010
00001000
,
00000001
00001000
00000001
00001000
00000002
00000000
00000000
00000000
00001003
00000000
00000000
00000000
00001100
00000000
00000000
00000000
,
00000011
00000000
00000101
00000001
00001000
00000000
00001100
00000000
,
00010100
00000000
00011000
00001000
00100000
00000000
00101000
00000000
,
01010000
00010000
01000000
00100000
10000000
10000000
00100000
01000000
,
00010000
00010000
00100000
00000000
11000000
01000000
10000000
00100000
,
01100000
00100000
01000000
00001000
00011000
00000000
00011000
00000000
,
00010010
00000000
00000110
00000000
00000101
00000001
00001000
00000000
,
00000011
00000001
00001000
00001000
00001100
00000100
00010000
00010000
,
00011000
00001000
00100000
00100000
00010000
00010000
01000000
10000000
,
02200000
00000000
00000000
00000000
,
00000000
00000000
00000000
00000000
,
03300000
00000000
00000000
00000000
,
00010000
00000000
10000000
00000000
00010000
10000000
00010000
10000000
00010000
00000000
00000000
00000000
10000000
00000000
00000000
00000000
,
11000000
01000000
00100000
00001000
00010000
00000010
00000100
00000001
,
00001000
00000100
00000001
00000100
00002000
00000000
00013000
00000000
,
01010000
01000000
10000000
00100000
01000000
00001000
00010000
00000010
,
00000100
00000001
00001000
00000100
00002000
00000000
00003001
00000000
,
00001001
00001000
00001010
00000000
00001100
00000000
00010100
00000000
,
00011000
00001000
00101000
00000000
01010000
00000000
01100000
00000000
,
10100000
00100000
01100000
00000000
10100000
00000000
10010000
00000000
,
11000000
01000000
01100000
00000000
00101000
00000000
00011000
00000000
,
00010010
00000010
00000100
00000000
00000101
00000001
00000010
00000000
,
00001100
00000100
00010000
00000000
00011000
00001000
01000000
00000000
,
01100000
00100000
01000000
01000000
00001000
00001000
00010000
00010000
,
00000010
00000000
00000100
00000000
00000001
00000000
00001000
00000000
00000100
00010000
00001000
00010000
00000010
00000000
00000000
00000000
,
00000110
00000000
00000000
00000000
00000101
00000000
00000000
00000000
00001001
00000000
00000000
00000000
00000001
00000000
00000001
00000010
,
00000100
00000000
00001000
00000000
00000100
00000000
00010000
00000000
00001000
00000000
00100000
00000000
00010000
00000000
01000000
00100000
,
10000000
00000000
00000000
00000000
11000000
00000000
00000000
00000000
01010000
00000000
00000000
00000000
11000000
00000000
01000000
00100000
,
00001000
00000000
00010000
00000000
00000010
00000000
00000100
00000010
00000100
00000000
00000001
00000000
00001000
00000000
00000001
00000000
,
00001001
00000000
00000000
00000000
00000011
00000000
00000000
00000000
00000101
00000000
00000000
00000000
00000010
00000000
00000010
00000100
,
00000010
00000000
00000100
00000000
00000001
00000000
00001000
00000000
00000100
00000000
00010000
00000000
00001000
00000000
01000000
00001000
,
01000000
00000000
00000000
00000000
01010000
00000000
00000000
00000000
01100000
00000000
00000000
00000000
10100000
00000000
00100000
10000000
,
00010000
00010000
00100000
00100000
00001000
00001000
00000010
00000001
,
00000110
00000000
00001100
00000000
00001010
00000000
00001001
00000001
,
00000101
00000100
00000110
00000000
00001010
00001000
00001100
00000100
,
00010100
00000000
00011000
00000000
01001000
00000000
00110000
00010000
,
10010000
10000000
10100000
00000000
01100000
01000000
01010000
00010000
,
00100000
00000000
00101000
00000000
00011000
00000000
00010100
00000100
,
00000110
00000010
00000011
00000000
00000101
00000100
00000110
00000010
,
00010010
00000000
00011000
00000000
01010000
00000000
00010000
01000000
,
00100000
00100000
01000000
01000000
00010000
10000000
00010000
00100000
,
00022000
00000000
00000000
00033000
,
00000000
00000000
00000000
00000000
00000000
00000000
00000001
00000000
00000000
00000000
00000000
00000000
00000000
00000000
00000000
00000000
00000000
00000000
00000000
00000000
00000000
00000000
00000000
00000000
00000000
00000000
00000000
00000000
00000000
00000000
00000000
00000000
00000000
00000000
00000000
00000000
00000000
00000000
00000001
00000000
00000000
00000000
00000000
00000000
00000000
00000000
00000000
00000000
00000000
00000000
00000000
00000000
00000000
00000000
00000000
00000000
00000000
00000000
00000000
00000000
00000000
00000000
00000000
00000000
00000000
00000000
00000000
00000000
00000000
00000000
00001000
00000000
00000000
00000000
00000000
00000000
00000000
00000000
00000000
00000000
00000000
00000000
00000000
00000000
00000000
00000000
00000000
00000000
00000000
00000000
00000000
00000000
00000000
00000000
00000000
00000000
00000000
00000000
00000000
00000000
00000000
00000000
01000000
00000000
00000000
00000000
00000000
00000000
00000000
00000000
00000000
00000000
00000000
00000000
00000000
00000000
00000000
00000000
00000000
00000000
00000000
00000000
00000000
00000000
00000000
00000000
00000000
00000000
00000000
00000000
00000000
00000000
00000000
00000000
10000000
00000000
00000000
00000000
00000000
00000000
00000000
00000000
00000000
00000000
00000000
00000000
00000000
00000000
00000000
00000000
00000000
00000000
00000000
00000000
00000000
00000000
00000000
00000000
00000000
00000000
00000000
00000000
00000000
00000000
00000000
00000000
00010000
00000000
00000000
00000000
00000000
00000000
00000000
00000000
00000000
00000000
00000000
00000000
00000000
00000000
00000000
00000000
00000000
00000000
00000000
00000000
00000000
00000000
00000000
00000000
00000000
00000000
,
00000000
00000100
00000000
00000000
00000000
00000000
00000000
00000000
00000000
00000000
00000000
00000000
00000000
00000000
00000000
00000000
00000000
00000000
00000000
00000000
00000000
00000000
00000000
00000000
00000000
00000000
00000000
00000000
00000000
00000000
00000000
00000000
,
00000000
00000000
00000000
00000000
00000000
00000000
00000010
00000000
00000000
00000000
00000000
00000000
00000000
00000000
00000000
00000000
00000000
00000000
00000000
00000000
00000000
00000000
00000000
00000000
00000000
00000000
00000000
00000000
00000000
00000000
00000000
00000000
00000000
00000000
00000000
00000000
00000000
00000000
00000000
00000000
00000000
00000000
00000000
00000000
00000000
00000000
00000000
00000000
00000000
00000000
00000000
00000000
00000000
00000000
00000100
00000000
00000000
00000000
00000000
00000000
00000000
00000000
00000000
00000000
00000000
00000000
00000000
00000000
00000000
00000000
00000000
00000000
00000000
00000000
00000000
00000000
00000000
00000000
00000000
00000000
00000000
00000000
00000000
00000000
00000000
00000000
00001000
00000000
00000000
00000000
00000000
00000000
00000000
00000000
00000000
00000000
00000000
00000000
00000000
00000000
00000000
00000000
00000000
00000000
00000000
00000000
00000000
00000000
00000000
00000000
00000000
00000000
00000000
00000000
00000000
00000000
00000000
00000000
00010000
00000000
00000000
00000000
00000000
00000000
00000000
00000000
00000000
00000000
00000000
00000000
00000000
00000000
00000000
00000000
00001000
00000000
00000000
00000000
00000000
00000000
00000000
00000000
00000000
00000000
00000000
00000000
00000000
00000000
00000000
00000000
00000000
00000000
00000000
00000000
00000000
00000000
00000000
00000000
00000000
00000000
00000000
00000000
00000000
00000000
00000000
00000000
00000000
00000000
00000000
00000000
00000000
00000000
00000000
00000000
00000000
00000000
00000000
00000000
00000000
00000000
00000000
00000000
00000000
00000000
00000000
00000000
00000000
00000000
00000000
00000000
00000000
00000000
,
00000000
00000000
00000000
00000000
00000000
00000000
00000000
00000000
00000000
00000000
00000000
00000000
00000000
00000000
00000000
00000000
00000000
00000000
00000000
00000000
00000000
00000000
00000000
00000000
00000000
00000000
00000000
00010000
00000000
00000000
00000000
00000000
,
00000000
00000000
00000000
00001100
00000000
00000000
00000000
00000000
00000000
00000000
00000000
00000000
00000000
00000000
00010010
00000000
00000000
00000000
00000000
00000000
00000000
00000000
00000000
00000000
00000000
00000000
00000000
00000000
00000000
00000000
00000000
00000000
,
00000000
00000000
00000000
00001000
00000000
00100000
00000000
00010000
00000000
00100000
00000000
00000000
,
00000000
00001000
00000000
00000000
00000000
00010000
00000000
00000000
00000000
00001000
00000000
00000000
,
00000000
00011000
00000000
00000000
,
00001000
00010000
00001000
00010000
00001000
00010000
00001000
00010000
00001000
00010000
00001000
00010000
00001000
00010000
00001000
00010000
,
00001000
00000000
00000000
00000000
;

//---------------dance-double - ----------------
#NOTES:
     dance-double:
     :
     Challenge:
     18:
     1.000,1.000,1.000,0.181,0.895:
00000000
00000000
00000000
00000000
,
00000000
00000000
00000000
00000000
,
00000000
00000000
00000000
00000000
,
00000000
00000000
00000000
00000000
,
00000000
00000000
00000000
00000000
,
00000000
00000000
00000000
00000000
,
00000000
00000000
00000000
00000000
,
11000000
00000000
00000000
00000000
,
00110000
00000000
00000000
00000000
,
00010010
00000000
00000000
00000000
00000000
00000000
00000000
00101000
,
00000000
00000000
00000000
00001100
,
00000000
00000000
00000110
00000000
,
00000001
00000000
00020200
00000000
,
00000000
00000000
00000000
00000000
00000000
00000000
00000000
00000000
00000300
00000000
00000000
00000000
00031000
01000000
00001000
00100000
,
00001000
00000000
01000000
00000000
00100000
10000000
00010000
10000000
00100000
00000000
10000000
00000000
01000000
00100000
00001000
00100000
,
01000000
00000000
00100000
00000000
00001000
01000000
00001000
00010000
00000010
00000000
00000100
00000000
00000001
00001000
00000100
00001000
,
00000001
00000000
00000010
00000000
00000100
00000010
00000001
00000010
00000100
00000000
00010000
00000000
00000100
00010000
00001000
00010000
,
00001000
00000000
01000000
00000000
01001000
00000000
01000000
00000000
01100000
00000000
01100000
00000000
00100000
01000000
00010000
01000000
,
00100000
00000000
10000000
00000000
01000000
00100000
00001000
00100000
01000000
00000000
00100000
00000000
00001000
01000000
00010000
00100000
,
00001000
00000000
00010000
00000000
00000010
00000100
00000001
00001000
00000010
00000000
00000100
00000000
00000001
00001000
00000100
00001000
,
00000001
00000000
00000010
00000000
00000001
00000010
00000100
00010000
00001000
00000000
00100000
00000000
00001000
01000000
00010000
00100000
,
00010000
00000000
01010000
00000000
01100000
00000000
00010000
00000000
10010000
00000000
00100000
00000000
00010000
00100000
01000000
10000000
,
00010000
00000000
01000000
00000000
00100000
10000000
01000000
00100000
00001000
00000000
01000000
00000000
00001000
00100000
00001000
00010000
,
00001000
00000000
00010000
00000000
00000010
00000100
00000001
00001000
00000010
00000000
00000100
00000000
00001010
00000000
00000000
00000000
,
00000101
00000000
00000010
00000000
00000001
00000010
00000100
00010000
00001000
00000000
00100000
00000000
00001000
01000000
00100000
10000000
,
00010000
00000000
10000000
00000000
00100000
01000000
00001000
00100000
00010000
00000000
00100000
00000000
00001000
00010000
00000010
00000100
,
00000001
00000000
00000010
00000000
00000001
00000100
00000010
00010000
00001000
00000000
00010000
00000000
00001000
01000000
00100000
01000000
,
00010000
00000000
10000000
00000000
01000000
00100000
00001000
00010000
00001000
00000000
00010000
00000000
00000010
00000100
00000001
00000100
,
00000010
00000000
00000000
00001010
00000000
00000000
00001100
00000000
00000000
00010100
00000000
00000000
00011000
00000000
00000000
00101000
,
00000000
00000000
01100000
00000000
00000000
11000000
00000000
00000000
01100000
00000000
00000000
00000000
00100000
01000000
00001000
00000000
,
00100000
00001000
00100000
00001000
01000000
00000000
00001000
00100000
00001000
00100000
00001000
00000000
00010000
00000010
00010000
00000010
,
00000100
00000100
00000020
00000000
00002030
00000000
00003002
00000000
,
00000013
00000100
00000010
00000100
00001000
00000000
00000100
00010000
00000100
00010000
00001000
00000000
00100000
00001000
00100000
00001000
,
00010000
00010000
00000020
00000000
00000230
00000000
00000302
00000000
,
00001003
00000100
00000001
00000100
00001000
00000000
00000001
00000100
00001000
00000100
00010000
00000000
00001000
00100000
00010000
00100000
,
10000000
10000000
00200000
00000000
00320000
00000000
02030000
00000000
,
13000000
00100000
00010000
00100000
10000000
00000000
00010000
00100000
10000000
00100000
00010000
00000000
01000000
00000000
00001000
00000000
,
00200000
00001000
00001000
00000000
00010000
00000000
00301000
00000000
,
00000110
00000000
00000001
00000000
00000100
00000000
00000010
00000000
00002010
00000000
00000000
00000000
00003001
00000000
00000010
00000100
,
00010000
00000100
00010000
00001000
00021000
00000000
00031000
00000000
,
01000000
00100000
01000000
00100000
10000000
00000000
00100000
01000000
00100000
01000000
00010000
00000000
10000000
01000000
00010000
01000000
,
10000000
10000000
00100000
00000000
02100000
00000000
03001000
00000000
,
00110000
00000000
00001000
00000000
00010000
00000000
00000100
00000000
00010200
00000000
00000000
00000000
00001300
00000000
00000010
00000100
,
00000001
00000000
00001000
00000001
00001000
00000000
00000001
00000000
00002001
00000000
00000000
00000000
00003010
00000000
00000000
00000000
,
00000001
00000010
00000100
00010000
00001000
00000000
00010000
00000010
00000100
00000010
00010000
00000000
00000100
00010000
00001000
00010000
,
00001000
01000000
00100000
10000000
00010000
00000000
00000000
00000000
02100000
00000000
00000000
00000000
03001000
00000000
00000000
00000000
,
11000000
01000000
01100000
00100000
00101000
00001000
00011000
00001000
,
00101000
00001000
00011000
00010000
00010010
00000010
00000110
00000010
,
00000110
00000100
00000101
00000001
00000011
00000010
00000110
00000100
,
00010100
00010100
00011000
00000000
00101000
00101000
00011000
00000000
,
01001000
00001000
01001000
00001000
01010000
00010000
01010000
00010000
,
01100000
00100000
01100000
00100000
11000000
01000000
01100000
00100000
,
00101000
00101000
00011000
00011000
00010010
00010010
00000110
00000110
,
00000101
00000101
00000011
00000011
00000110
00001100
00011000
00110000
,
00022000
00000000
00000000
00000000
,
00000000
00000000
00000000
00000000
,
00033000
00000000
00000000
00000000
,
10000000
01000000
00100000
00001000
00010000
00001000
00010000
00001000
00010000
00000000
00000000
00000000
00001000
00000000
00000000
00000000
,
00011000
00000000
00000010
00000100
00000001
00000000
00001000
00000000
00000001
00000010
00000100
00010000
00001000
00100000
00001000
00100000
,
00001000
00000000
01000000
00100000
10000000
00000000
00000000
00000000
00010000
00000000
10000000
00000000
01000000
00000000
00000000
00000000
,
11000000
00000000
01000000
00100000
00001000
00000000
00010000
00000000
00000010
00000100
00000001
00001000
00000001
00000010
00000100
00010000
,
00001000
01010000
00002200
00003300
,
00000110
00000000
00000001
00001000
00000100
00000000
00001000
00000000
00000100
00000000
00000001
00000000
00000100
00000000
00010000
00000000
,
00011000
00000000
00001000
01000000
00100000
00000000
10000000
00000000
01000000
00000000
00010000
00000000
01000000
00000000
10000000
00000000
,
01100000
00000000
00010000
01000000
00100000
00000000
01000000
00000000
00001000
00000000
00100000
00000000
00001000
00000000
00010000
00000000
,
00000110
00000000
00000001
00000100
00000010
00000000
00001000
00000000
00000100
00000000
00000010
00000000
00000100
00000000
00010000
00000000
,
00011000
00000000
00001000
01000000
00100000
00000000
01000000
00000000
01010000
00000000
01000000
00001000
00010000
00000000
00001000
00000000
,
00011000
00000000
00010000
00000010
00000100
00000000
00000010
00000000
00001010
00000000
00000010
00001000
00000001
00000000
00001000
00000000
,
00000011
00000000
00000001
00000100
00000010
00000000
00001000
00000100
00010000
00000000
00001000
01000000
00100000
00000000
10000000
01000000
,
10000000
01000000
10000000
01000000
10000000
00010000
10000000
00010000
01000000
00001000
00100000
00001000
00010000
00000000
00000000
00000000
,
00010010
00000000
00000010
00000000
00000110
00000000
00000010
00000000
00010010
00000000
00000000
00000000
00010000
00000100
00010000
00000100
,
00010000
00001000
00010000
00001000
01000000
00001000
01000000
00001000
00100000
00001000
00010000
00001000
00010000
00000000
00001000
00010000
,
00000100
00000000
00010000
00000000
00010100
00000000
00010000
00000000
00011000
00000000
00000000
00000000
00010000
00001000
01000000
00100000
,
01000000
00100000
10000000
01000000
10000000
01000000
00100000
01000000
10000000
01000000
00100000
00001000
00010000
00000000
00000010
00001000
,
00000100
00000000
00000010
00000000
00000110
00000000
00000010
00000000
00000011
00000000
00000000
00000000
00000001
00000010
00000001
00000010
,
00000100
00010000
00000100
00010000
00001000
00010000
00001000
00010000
00001000
01000000
00001000
01000000
00100000
00000000
10000000
00010000
,
00100000
00000000
00010000
00000000
00110000
00000000
00100000
00000000
01100000
00000000
00000000
00000000
00010000
10000000
01000000
00100000
,
00001000
00011000
00010100
00011000
00010000
00011000
01001000
00011000
,
00110000
00000000
00001000
00000000
01010000
00000000
00001000
00000000
00110000
00000000
01000000
00000000
10000000
01000000
10000000
01000000
,
00100000
00001000
00100000
00001000
00010000
00001000
00010000
00001000
00010000
00000010
00010000
00000010
00000100
00000010
00000100
00000010
,
00001000
00000000
00000001
00000000
00001100
00000000
00000001
00000000
00001010
00000000
00000001
00000000
00000010
00000100
00000010
00000100
,
00010000
00000100
00010000
00000100
00010000
00001000
00010000
00001000
00100000
00010000
01000000
00100000
10000000
00010000
10000000
00100000
,
01000000
00000000
00010000
00000000
10100000
00000000
00010000
00000000
11000000
00000000
00010000
00000000
10000000
01000000
10000000
00100000
,
01000000
00001000
01000000
00001000
00100000
00001000
00010000
00000100
00010000
00000100
00010000
00000010
00010000
00000010
00000100
00000010
,
00001000
00000000
00000001
00000000
00001100
00000000
00000001
00000000
00000110
00000000
00001000
00000000
00000100
00010000
00000100
00010000
,
00001000
00001100
00000110
00001100
00010100
00011000
01010000
00110000
,
00011000
00000000
00000000
00000000
,
00000000
00000000
00000000
00000000
00000000
00000000
10000000
00000000
00000000
00000000
00000000
00000000
00000000
00000000
00000000
00000000
00000000
00000000
00000000
00000000
00000000
00000000
00000000
00000000
00000000
00000000
00000000
00000000
00000000
00000000
00000000
00000000
00000000
00000000
00000000
00000000
00000000
00000000
10000000
00000000
00000000
00000000
00000000
00000000
00000000
00000000
00000000
00000000
00000000
00000000
00000000
00000000
00000000
00000000
00000000
00000000
00000000
00000000
00000000
00000000
00000000
00000000
00000000
00000000
00000000
00000000
00000000
00000000
00000000
00000000
00010000
00000000
00000000
00000000
00000000
00000000
00000000
00000000
00000000
00000000
00000000
00000000
00000000
00000000
00000000
00000000
00000000
00000000
00000000
00000000
00000000
00000000
00000000
00000000
00000000
00000000
00000000
00000000
00000000
00000000
00000000
00000000
00000010
00000000
00000000
00000000
00000000
00000000
00000000
00000000
00000000
00000000
00000000
00000000
00000000
00000000
00000000
00000000
00000000
00000000
00000000
00000000
00000000
00000000
00000000
00000000
00000000
00000000
00000000
00000000
00000000
00000000
00000000
00000000
00000001
00000000
00000000
00000000
00000000
00000000
00000000
00000000
00000000
00000000
00000000
00000000
00000000
00000000
00000000
00000000
00000000
00000000
00000000
00000000
00000000
00000000
00000000
00000000
00000000
00000000
00000000
00000000
00000000
00000000
00000000
00000000
00001000
00000000
00000000
00000000
00000000
00000000
00000000
00000000
00000000
00000000
00000000
00000000
00000000
00000000
00000000
00000000
00000000
00000000
00000000
00000000
00000000
00000000
00000000
00000000
00000000
00000000
,
00000000
00100000
00000000
00000000
00000000
00000000
00000000
00000000
00000000
00000000
00000000
00000000
00000000
00000000
00000000
00000000
00000000
00000000
00000000
00000000
00000000
00000000
00000000
00000000
00000000
00000000
00000000
00000000
00000000
00000000
00000000
00000000
,
00000000
00000000
00000000
00000000
00000000
00000000
00010000
00000000
00000000
00000000
00000000
00000000
00000000
00000000
00000000
00000000
00000000
00000000
00000000
00000000
00000000
00000000
00000000
00000000
00000000
00000000
00000000
00000000
00000000
00000000
00000000
00000000
00000000
00000000
00000000
00000000
00000000
00000000
00000000
00000000
00000000
00000000
00000000
00000000
00000000
00000000
00000000
00000000
00000000
00000000
00000000
00000000
00000000
00000000
00001000
00000000
00000000
00000000
00000000
00000000
00000000
00000000
00000000
00000000
00000000
00000000
00000000
00000000
00000000
00000000
00000000
00000000
00000000
00000000
00000000
00000000
00000000
00000000
00000000
00000000
00000000
00000000
00000000
00000000
00000000
00000000
00000100
00000000
00000000
00000000
00000000
00000000
00000000
00000000
00000000
00000000
00000000
00000000
00000000
00000000
00000000
00000000
00000000
00000000
00000000
00000000
00000000
00000000
00000000
00000000
00000000
00000000
00000000
00000000
00000000
00000000
00000000
00000000
00000010
00000000
00000000
00000000
00000000
00000000
00000000
00000000
00000000
00000000
00000000
00000000
00000000
00000000
00000000
00000000
00000100
00000000
00000000
00000000
00000000
00000000
00000000
00000000
00000000
00000000
00000000
00000000
00000000
00000000
00000000
00000000
00000000
00000000
00000000
00000000
00000000
00000000
00000000
00000000
00000000
00000000
00000000
00000000
00000000
00000000
00000000
00000000
00000000
00000000
00000000
00000000
00000000
00000000
00000000
00000000
00000000
00000000
00000000
00000000
00000000
00000000
00000000
00000000
00000000
00000000
00000000
00000000
00000000
00000000
00000000
00000000
00000000
00000000
,
00000000
00000000
00000000
00000000
00000000
00000000
00000000
00000000
00000000
00000000
00000000
00000000
00000000
00000000
00000000
00000000
00000000
00000000
00000000
00000000
00000000
00000000
00000000
00000000
00000000
00000000
00000000
00000010
00000000
00000000
00000000
00000000
,
00000000
00000000
00000000
00001100
00000000
00000000
00000000
00000000
00000000
00000000
00000000
00000000
00000000
00000000
00010010
00000000
00000000
00000000
00000000
00000000
00000000
00000000
00000000
00000000
00000000
00000000
00000000
00000000
00000000
00000000
00000000
00000000
,
00000000
00000000
00000000
00010000
00000000
00000100
00000000
00001000
00000000
00000100
00000000
00000000
,
00000000
00010000
00000000
00000000
00000000
00000010
00000000
00000000
00000000
00010100
00000000
00000000
,
00000000
01001000
00000000
00000000
,
10000000
01000000
00100000
00010000
00100000
00001000
00010000
00001000
00010000
00000100
00000010
00000001
00000010
00000100
00010000
00001000
,
00010000
00000000
00000000
00000000
;
