#TITLE:BRIDAL FESTIVAL !!!;
#SUBTITLE:;
#ARTIST:S.S.D. with ななっち;
#TITLETRANSLIT:;
#SUBTITLETRANSLIT:;
#ARTISTTRANSLIT:S.S.D. with NANACCHI;
#GENRE:;
#CREDIT:;
#MENUCOLOR:;
#NEWMETERSYSTEM:NO;
#BANNER:BRIDAL FESTIVAL !!!.png;
#BACKGROUND:BRIDAL FESTIVAL !!!-bg.png;
#LYRICSPATH:;
#CDTITLE:./CDTITLES/BEATMANIA IIDX.PNG;
#MUSIC:BRIDAL FESTIVAL !!!.mp3;
#OFFSET:-0.147;
#SAMPLESTART:88.837;
#SAMPLELENGTH:15.000;
#SELECTABLE:YES;
#LISTSORT:;
#BPMS:0.000=69.000;
#STOPS:;
#BGCHANGES:0.000=BRIDAL FESTIVAL !!!.avi=1.000=1=1=0,
99999=-nosongbg-=1.000=0=0=0 // don't automatically add -songbackground-
;
#ATTACKS:;

//---------------dance-single - ----------------
#NOTES:
     dance-single:
     :
     Beginner:
     1:
     0.086,0.098,0.008,0.000,0.000:
0000
0000
0000
0000
,
0000
0000
0000
0000
,
0001
0000
0100
0000
,
0010
0000
1000
0000
,
0100
0000
1000
0000
,
0001
0000
0010
0000
,
0001
0001
0001
0000
,
1000
1000
1000
0000
,
0010
0000
0100
0000
,
0001
0000
1000
0000
,
0001
0000
0001
0000
,
1000
0000
1000
0000
,
0010
0010
0000
0100
,
0000
0001
0000
0000
,
1000
1000
1000
0000
,
0001
0001
0001
0000
,
0100
0100
0100
0000
,
0010
0010
0010
0000
,
0100
0000
0001
0000
,
1000
0000
0010
0000
,
1000
0000
0100
0000
,
0010
0000
0001
0000
,
1000
0000
1000
0000
,
0001
0000
0001
0000
,
0100
0000
0010
0000
,
0100
0000
0000
0000
,
0001
0000
1000
0000
,
0001
0000
1000
0000
,
0100
0000
0010
0000
,
0100
0000
1000
1000
,
1000
0000
0001
0000
,
0100
0000
0010
0010
,
0010
0000
0100
0000
,
0001
0000
1001
0000
;

//---------------dance-single - ----------------
#NOTES:
     dance-single:
     :
     Easy:
     6:
     0.221,0.253,0.076,0.000,0.000:
0000
0000
0000
0000
,
0000
0000
0000
0000
,
1000
0001
1000
0001
,
0100
0010
0100
0100
,
0001
1000
0001
1000
,
0001
0010
0100
1000
,
0100
0100
0100
0000
1000
1000
1000
0000
,
0001
0001
0001
0000
0010
0010
0010
0000
,
0001
0100
0001
0000
1000
0100
1000
0000
,
0001
0010
0001
0000
1000
0100
0010
0000
,
1100
0000
0101
0000
,
0110
0000
1001
0000
,
1000
1000
1000
0000
0001
0001
0001
0000
,
0100
0100
0100
0000
0010
0010
0010
0010
,
0100
0000
0001
0000
1000
0000
0100
0100
,
1000
0000
0100
0000
0010
0000
0001
0001
,
0010
0000
0001
0000
0100
0000
0010
1000
,
0001
0000
1000
0000
0100
0000
1000
0100
,
0010
0000
0001
0000
0100
0000
0010
0100
,
0001
0000
1000
0000
0100
0000
1000
0010
,
1000
0000
0001
0000
0100
0000
0010
0100
,
0001
0000
0010
0000
1000
0010
0001
0000
,
0110
0000
1000
0000
0001
0000
0100
0100
,
0010
0000
1000
0000
0001
0000
0010
0010
,
0001
0000
1100
0000
0001
0100
0010
1000
,
1001
0000
0010
0000
0100
0100
0100
0100
,
0010
1000
0001
0100
0010
1000
0001
0100
,
0001
0010
0100
1000
0001
0010
0100
1000
,
1001
0010
0100
0001
1000
0010
0100
0001
,
1000
0100
0001
0100
1000
0010
0001
0010
,
1000
0001
0100
0001
1000
0010
1000
0001
,
0010
0001
0100
0010
1000
1000
0100
0010
,
0001
0100
0010
1000
,
0001
0000
1000
0001
1001
0000
0000
0000
;

//---------------dance-single - ----------------
#NOTES:
     dance-single:
     :
     Medium:
     7:
     0.320,0.295,0.193,0.000,0.000:
0000
0000
0000
0000
,
0000
0000
0000
0000
1000
0001
0100
0100
,
0010
0010
1000
1000
0001
0100
0001
0001
,
0010
0100
1000
1000
0100
0010
0100
1000
,
1001
0001
0100
0100
0010
1000
0001
0100
,
0001
0001
0010
0010
0100
0100
1000
1000
,
0100
1000
0010
0100
0001
0010
0100
1000
,
1001
0001
0100
0001
0010
0001
1000
0100
,
1100
0001
0010
0001
0100
0010
0100
0001
,
1001
0010
1000
0001
0100
0001
1000
1001
,
0110
0010
1000
0000
0001
0001
0100
0000
,
0001
0010
0100
0000
1000
1000
0010
0000
,
1000
0001
0100
0000
0010
1000
0001
0000
,
1000
0100
0011
0000
0001
0001
0100
0010
,
1000
1000
0010
0010
0100
0100
0001
1001
,
0010
0010
0100
0100
0001
0001
0010
0110
,
0100
0100
1000
1000
0010
1000
0001
1100
,
0001
0010
0001
0100
0010
1000
0101
1010
,
0010
0100
0001
0001
1000
1000
0100
0010
,
1100
0001
0010
0001
0100
0010
0100
0001
,
0101
0010
1000
0010
0100
0001
1000
0100
,
0011
0100
1000
0100
0001
0010
1000
0100
,
1010
0100
0001
0010
1000
0100
0001
0010
,
0001
0100
1000
0010
0001
0100
1000
0010
,
0110
0000
1001
0000
1000
0100
0010
0001
,
1000
0000
0010
0000
0100
0100
0100
0100
,
0001
1000
0001
1000
0001
0010
0001
0010
,
0100
1000
0100
1000
0010
0100
0001
1001
,
0110
0010
1000
0001
0100
0001
1000
0100
,
0010
0100
1000
0001
0100
0100
0010
0010
,
1001
0010
1000
0001
0010
0001
1000
0100
,
0001
0100
1000
0010
0001
0010
1000
0001
,
1001
0100
0010
0000
0100
0100
1000
0000
,
0001
0001
0100
0010
1001
0000
0000
0000
;

//---------------dance-single - ----------------
#NOTES:
     dance-single:
     :
     Hard:
     13:
     0.650,0.549,0.369,0.000,1.000: // measure 1
0000
0000
0000
0000
,  // measure 2
0000
0000
0000
0000
0010
1001
0110
1001
,  // measure 3
1100
0000
0100
1000
0000
1000
0010
0000
0010
0100
0001
1000
0001
0000
0001
0010
0000
0010
0100
0000
0100
0010
0001
1000
,  // measure 4
0001
0000
0001
0100
0000
0100
0010
0000
0010
1000
0010
0100
0001
0000
0001
1000
0000
1000
0100
0000
0100
1000
0000
0000
,  // measure 5
1010
0000
0010
1000
0000
1000
0001
0000
0001
0010
0001
0100
0001
0000
1000
0100
0000
0100
0010
0000
0010
0100
1000
0001
,  // measure 6
0100
0000
0100
0001
0000
0001
1000
0000
1000
0010
1000
0001
1000
0000
0001
0010
0000
0010
0100
0000
0010
1000
0000
0001
,  // measure 7
0100
0000
0100
0001
0000
1000
0100
0000
0010
0001
0000
1000
0010
0000
0100
0001
0000
1000
0001
0000
0100
0010
0000
0000
,  // measure 8
1010
0000
0001
0100
0000
0001
0010
0000
1000
0100
0000
0001
0100
0000
0010
1000
0000
0001
0010
0000
0100
0010
0000
0000
,  // measure 9
0110
0000
0010
0001
0000
1000
0100
0000
0010
1000
0000
0010
0001
0000
0100
0010
0000
1000
0001
0000
1000
0010
0000
0000
,  // measure 10
1100
0000
0100
1000
0000
0001
0010
0000
0001
0100
0000
0010
0100
0000
0001
1000
0010
0100
0010
0000
0000
1001
0000
0000
,  // measure 11
0110
0000
0000
0000
0010
0000
0000
0000
0000
0000
1000
0100
1000
0000
0000
0000
0001
0000
0100
0000
0000
0000
0100
0000
0000
0000
0000
0000
1001
0000
0000
0000
0000
0000
0010
0000
1000
0000
0000
0000
1000
0000
0001
0000
0000
0000
0000
0000
,  // measure 12
0011
0000
0000
0000
0001
0000
0000
0000
0000
0000
0100
0010
0100
0000
0000
0000
1000
0000
0010
0000
0000
0000
0100
0000
0000
0000
0000
0000
1001
0000
0000
0000
0000
0000
0001
0000
0010
0000
0000
0000
0010
0000
0001
0000
0000
0000
0000
0000
,  // measure 13
1001
0000
1000
0100
0000
0100
0010
0000
0010
0100
0000
0000
1001
0000
0001
0100
0000
0100
0001
0000
0001
1000
0000
0000
,  // measure 14
1001
0000
1000
0100
0000
0100
1000
0000
1000
0001
0000
0100
0010
0000
0000
0110
0000
0000
1001
0000
0000
0011
0000
0000
,  // measure 15
1100
0000
0100
1000
0000
0001
0010
0000
0100
1000
0000
0100
0001
0000
0100
0010
0000
0001
1000
0000
0000
0110
0000
1000
,  // measure 16
0010
0000
0001
0100
0000
0010
1000
0000
0001
0010
0000
0100
1000
0000
0010
0001
0000
0010
1000
0000
0000
0110
0000
0001
,  // measure 17
1000
0000
1000
0001
0000
0010
0001
0000
1000
0100
0000
1000
0010
0000
0100
0001
0000
0100
0010
0000
0000
1010
0000
1000
,  // measure 18
0100
0000
0010
0001
0000
1000
0010
0000
0100
0001
0000
0010
0100
1000
0100
0010
0000
0001
0100
0000
0000
0110
0000
0010
,  // measure 19
1000
0000
1000
0001
0000
0001
0100
0000
0100
0010
0000
0010
1000
0000
1000
0001
0000
0001
0010
0000
0010
0001
0000
0000
,  // measure 20
1100
0000
0100
1000
0000
1000
0100
0000
0100
0010
0000
0010
0001
0000
0001
0100
0000
0100
0010
0000
0010
0100
0000
0000
,  // measure 21
0011
0000
0001
1000
0000
1000
0001
0000
0001
0010
0000
0010
0001
0000
0001
1000
0000
1000
0100
0000
0100
1000
0000
0000
,  // measure 22
0101
0000
0100
0010
0000
0010
0100
0000
0100
0001
0000
0001
1000
0000
1000
0100
1000
0100
0010
0000
0000
0101
0000
0001
,  // measure 23
0100
0000
0001
1000
0000
0010
1000
0000
0100
0010
0001
0100
0010
0000
1000
0100
0000
0010
0001
0000
1000
1000
0000
0000
,  // measure 24
1010
0000
0010
1000
0000
0001
0100
0000
0010
0100
0001
1000
0010
0000
0100
0001
0000
1000
0100
0000
0010
0010
0000
0000
,  // measure 25
1100
0000
0000
0000
0000
0000
1000
0010
0100
0001
0000
0000
1010
0000
0000
0101
0000
0000
1100
0000
0000
1000
0001
1000
,  // measure 26
0010
0000
0010
0100
0000
0100
0001
0000
0001
1000
0000
1000
0001
0000
0000
1100
0000
0000
0101
0000
0000
0001
0100
0001
,  // measure 27
1000
0000
1000
0010
1000
0100
1000
0000
0001
0010
0001
0100
0001
0000
1000
0010
0100
0001
1000
0000
0001
0010
0100
1000
,  // measure 28
0100
0000
1000
0010
0100
0001
1000
0000
0001
0010
0001
1000
0100
0000
0000
1100
0000
0000
0011
0000
0000
1000
0010
0100
,  // measure 29
0001
0000
1000
0001
0100
0001
1000
0000
0001
0010
0001
1000
0100
0000
1000
0010
1000
0001
0100
0000
0010
0100
0001
1000
,  // measure 30
0010
0000
0100
0010
1000
0001
0100
0000
0001
0010
0001
1000
0100
0000
0000
1100
0000
0000
1010
0000
0000
0010
1000
0100
,  // measure 31
1000
0000
0001
0010
0001
0100
0001
0000
1000
0010
0100
0010
1000
0000
0001
0100
0010
0100
0001
0000
1000
0001
0100
0001
,  // measure 32
1000
0000
0001
0010
1000
0010
0001
0000
1000
0100
0001
0100
1000
0000
0000
1001
0000
0000
0110
0000
0000
0100
0001
1000
,  // measure 33
0010
0000
0010
0100
0000
0100
0001
1000
0001
0100
0000
0000
1100
0000
0100
1000
0000
1000
0010
1000
0010
0001
0000
0000
,  // measure 34
0101
0000
0001
0100
0000
0100
0001
1000
0001
0100
0000
0100
1001
0000
0000
0000
0000
0000
0000
0000
0000
0000
0000
0000
;
