#TITLE:connect;
#SUBTITLE:;
#ARTIST:kuma feat. Hitsuji Ami;
#TITLETRANSLIT:;
#SUBTITLETRANSLIT:;
#ARTISTTRANSLIT:;
#GENRE:;
#CREDIT:;
#BANNER:;
#BACKGROUND:;
#LYRICSPATH:;
#CDTITLE:;
#MUSIC:connect.ogg;
#OFFSET:-0.837961;
#SAMPLESTART:65.298195;
#SAMPLELENGTH:12.568000;
#SELECTABLE:YES;
#BPMS:0.000000=147.998001
;
#STOPS:
;
#BGCHANGES:;
#KEYSOUNDS:;
#ATTACKS:;

//---------------dance-single - ----------------
#NOTES:
     dance-single:
     :
     Hard:
     10:
     0.468422,0.566365,0.289054,0.144527,0.036132,363.000000,331.000000,32.000000,16.000000,0.000000,0.000000,0.468422,0.566365,0.289054,0.144527,0.036132,363.000000,331.000000,32.000000,16.000000,0.000000,0.000000:
0000
0000
0000
0000
,
0000
0000
0000
0000
,
0000
0000
0000
0000
,
0000
0000
0000
0000
,
2000
0000
0000
3001
0000
0000
0010
0100
,
0000
1000
0000
0001
0000
1000
0000
0000
,
0010
0000
0100
0200
0000
0000
0000
0300
,
0001
0010
0100
1000
0001
0100
0010
0000
,
1001
0000
0000
0000
1000
0000
0001
0000
0000
0000
0000
0000
0010
0001
0010
0000
,
0100
0000
1000
0000
0010
0000
1000
0000
0000
0000
0001
0000
0000
0001
0000
0000
,
0011
0000
0001
1000
0000
0010
0000
1000
,
0000
0000
0001
0000
0100
0001
0100
0000
0010
1000
0010
0000
1000
0000
0001
0000
,
1000
0000
0100
0000
0010
0000
0001
1000
0000
0000
0010
0000
1000
0000
0001
0000
,
0010
0000
0100
0000
1000
0000
0001
0100
0000
0000
0010
0000
1000
0000
0100
0000
,
0020
0000
0001
0031
0000
1001
0000
1010
,
0000
1001
0000
0011
0000
0010
0100
1000
,
0002
0000
1000
1000
,
2003
0000
0010
3010
,
1000
0100
0010
0001
,
2000
0000
3002
0000
,
0013
0000
0100
1000
,
0002
0000
0203
0000
,
2300
0000
3200
0000
,
0301
0000
1000
0000
0100
0000
0010
0001
,
1000
0010
0100
0010
1000
0001
1000
0000
,
0001
0100
1000
0100
0001
0100
0010
0000
,
1000
0100
0001
0100
1000
0100
0010
0000
,
0001
0100
0010
1000
0001
0010
0100
1000
,
0001
0100
0010
0100
0001
1000
0001
0000
,
1000
0100
0001
0100
1000
0100
0010
0000
,
0001
0100
1000
0100
0001
0100
0010
0000
,
1000
0010
0100
0001
1000
0100
0010
0001
,
2000
0000
0010
3010
0000
1000
0000
1000
,
0001
0000
0000
0001
0000
0000
0001
0000
0000
0000
1000
0000
0100
0000
0010
0000
,
0002
0000
0010
0013
0000
0001
0000
0001
,
1000
0000
0000
1000
0000
0000
1000
0000
0000
0000
0001
0000
0100
0000
0010
0000
,
0000
1000
0001
1000
0000
0100
1000
0010
,
0000
0100
0001
0010
0000
0100
1000
0001
,
0000
0100
0001
0010
0001
0100
0010
2000
,
0000
0001
3001
0000
1000
0100
0010
0001
,
1000
0010
1000
0010
0000
1001
0000
0011
,
0000
0001
1000
0010
0100
0010
1000
0000
,
0001
0010
1000
0010
0001
1000
0001
0010
,
0000
0001
1000
0000
1010
0000
0011
0000
,
1000
0100
1000
0100
0000
0000
0010
0001
,
0000
0010
0100
0000
1100
0000
0101
0000
,
0001
0100
0010
0100
0001
1000
0100
0010
,
0000
0001
1000
0000
1001
0000
0110
0000
,
0001
0100
0001
0100
0000
1010
0000
1001
,
0000
0001
1000
0100
0010
0100
1000
0000
,
0001
0100
1000
0100
0001
1000
0001
0010
,
0000
0001
1000
0000
1010
0000
0011
0000
,
0001
0010
0001
0010
0000
0000
0100
0010
,
0000
0100
1000
0000
1100
0000
0101
0000
,
0100
0001
0010
0100
1000
0010
0100
0001
,
1000
0100
0010
0001
1000
0010
0100
0000
,
0001
0001
0000
1000
1000
0000
0010
0100
,
0000
0001
1000
0000
0011
0000
1010
0000
,
1000
1000
0000
0001
0001
0000
0010
0100
,
0000
1000
0001
0000
1100
0000
0101
0000
,
0100
0001
0000
1000
0100
0000
0001
0100
,
0000
1000
0100
0000
0010
0000
0001
0000
,
0011
1001
0000
1010
1001
0000
0101
1001
,
0000
1100
2002
0000
0000
0000
0000
0000
,
0000
0000
0000
0000
,
0000
0000
0000
0000
,
3003
0000
0000
0000
;

//---------------dance-single - ----------------
#NOTES:
     dance-single:
     :
     Medium:
     6:
     0.274859,0.387513,0.126461,0.117428,0.000000,213.000000,199.000000,14.000000,13.000000,0.000000,0.000000,0.274859,0.387513,0.126461,0.117428,0.000000,213.000000,199.000000,14.000000,13.000000,0.000000,0.000000:
// measure 0
0000
0000
0000
0000
,  // measure 1
0000
0000
0000
0000
,  // measure 2
0000
0000
0000
0000
,  // measure 3
0000
0000
0000
0000
,  // measure 4
2000
0000
0010
0000
,  // measure 5
3001
0010
0100
1000
,  // measure 6
0002
0000
1000
0003
,  // measure 7
1000
0100
0001
0100
,  // measure 8
1000
0000
0001
0000
0100
0000
0010
1000
,  // measure 9
0010
0000
0100
0000
0001
0000
1000
0001
,  // measure 10
1000
0001
0010
0100
,  // measure 11
1000
0000
0001
0000
1000
0001
1000
0001
,  // measure 12
0010
0000
0001
1000
0100
0000
1000
0000
,  // measure 13
1000
0000
0001
1000
0010
0000
0100
0000
,  // measure 14
0200
0000
0000
0001
0000
0000
0300
0001
,  // measure 15
0000
1000
0000
0001
0000
1000
0000
0000
,  // measure 16
2001
0000
0000
0000
,  // measure 17
3020
0000
0000
0000
,  // measure 18
0230
0000
0000
0000
,  // measure 19
0301
0000
1000
0000
,  // measure 20
0002
0000
0000
0000
,  // measure 21
0013
0000
0100
0000
,  // measure 22
1000
0000
0001
0000
,  // measure 23
0010
0000
0001
0001
,  // measure 24
0100
0001
0010
0001
,  // measure 25
0100
0010
1000
0100
,  // measure 26
1000
0010
0100
0001
,  // measure 27
1000
0100
0001
0100
,  // measure 28
1000
0010
1000
0100
,  // measure 29
0010
0001
0100
0001
,  // measure 30
0010
0100
1000
0001
,  // measure 31
1000
0100
0001
0100
,  // measure 32
1000
0000
0000
1000
0000
1000
0000
0000
,  // measure 33
0001
0010
0001
0000
,  // measure 34
0100
0000
0000
0100
0000
0100
0000
0000
,  // measure 35
0010
1000
0010
0100
,  // measure 36
1000
0100
0001
1000
,  // measure 37
0100
0001
0100
1000
,  // measure 38
0001
1000
0010
0100
,  // measure 39
0220
0000
0330
0000
,  // measure 40
0002
0000
0000
0010
0000
0013
0000
0001
,  // measure 41
0000
1000
0000
0001
0000
0000
0100
0000
,  // measure 42
1000
0100
0001
1000
,  // measure 43
0100
0010
0001
1000
,  // measure 44
1001
0000
0000
0011
0000
0000
1001
0000
,  // measure 45
0000
1010
0000
0000
0010
0000
0100
0000
,  // measure 46
0001
0100
1000
0100
,  // measure 47
0010
1000
0001
1000
,  // measure 48
2000
0000
0000
0010
0000
3010
0000
1000
,  // measure 49
0000
0001
0000
1000
0000
0000
0100
0000
,  // measure 50
0001
0100
1000
0001
,  // measure 51
0100
0010
1000
0001
,  // measure 52
1001
0000
0000
1100
0000
0000
1001
0000
,  // measure 53
0000
0101
0000
0000
0100
0000
0010
0000
,  // measure 54
1000
0010
0001
0010
,  // measure 55
0100
0001
1000
0001
,  // measure 56
0001
0000
0000
0010
0000
0000
1000
0000
,  // measure 57
0000
0010
0000
0000
0001
0000
0001
0000
,  // measure 58
1000
0000
0000
0100
0000
0000
0010
0000
,  // measure 59
0000
0001
0000
0000
1000
0000
1000
0000
,  // measure 60
0001
0000
0000
0100
0000
0000
1000
0000
,  // measure 61
0000
0100
0000
0000
0001
0000
0001
0000
,  // measure 62
0011
0000
0000
1010
0000
0000
0110
0000
,  // measure 63
0000
2002
0000
0000
0000
0000
0000
0000
,  // measure 64
0000
0000
0000
0000
,  // measure 65
0000
0000
0000
0000
,  // measure 66
3003
0000
0000
0000
;

//---------------dance-single - ----------------
#NOTES:
     dance-single:
     :
     Easy:
     4:
     0.160012,0.226727,0.081296,0.045165,0.000000,124.000000,115.000000,9.000000,5.000000,0.000000,0.000000,0.160012,0.226727,0.081296,0.045165,0.000000,124.000000,115.000000,9.000000,5.000000,0.000000,0.000000:
0000
0000
0000
0000
,
0000
0000
0000
0000
,
0000
0000
0000
0000
,
0000
0000
0000
0000
,
1000
0000
0000
0000
,
0001
0000
0001
0000
,
0010
0000
0000
0000
,
1001
0000
0000
0000
,
0001
0000
0001
0000
,
1000
0000
0100
1000
,
0010
0000
0010
0000
,
0100
0000
1001
0000
,
0001
0100
0010
0000
,
0100
0001
0100
0000
,
0002
0000
0000
0003
,
0001
0000
1000
0000
,
2000
0000
3000
0000
,
0020
0000
0030
0000
,
0002
0000
0003
0000
,
0010
0000
1000
0000
,
0002
0000
0003
0000
,
0010
0000
0100
0000
,
1000
0000
0010
0000
,
1000
0000
0000
0000
,
0001
0000
0001
0000
,
1000
0000
0010
0000
,
1000
0000
0100
0000
,
1000
0000
1000
0000
,
0001
0000
0010
0000
,
0001
0000
0100
0000
,
0001
0000
1000
0000
,
0001
0000
0000
0000
,
1001
0000
0000
0000
,
0110
0000
0000
0000
,
1001
0000
0000
0000
,
0110
0000
0000
0000
,
1000
0000
1000
0000
,
0001
0000
0100
0000
,
0010
0000
1000
0001
,
0000
0000
0000
0000
,
1000
0000
1000
0000
,
0010
0000
0100
0001
,
0010
0000
0010
0000
,
0100
0000
1000
0001
,
1000
0000
1000
0000
,
0001
0100
1000
0100
,
0001
0000
1000
0000
,
0010
0000
1000
0000
,
0001
0000
0001
0000
,
0010
0000
0100
1000
,
0010
0000
0010
0000
,
0100
0000
0001
1000
,
0001
0000
0001
0000
,
1000
0100
0001
0100
,
1000
0000
1000
0000
,
1001
0000
0000
0000
,
0001
0000
1000
0000
,
0010
0000
0100
0001
,
0100
0000
1000
0000
,
0100
0000
0001
1000
,
0001
0000
1000
0000
,
0100
0000
0010
0000
,
0110
0000
0000
1001
;

//---------------dance-single - ----------------
#NOTES:
     dance-single:
     :
     Beginner:
     3:
     0.120009,0.170045,0.099362,0.036132,0.000000,93.000000,82.000000,11.000000,4.000000,0.000000,0.000000,0.120009,0.170045,0.099362,0.036132,0.000000,93.000000,82.000000,11.000000,4.000000,0.000000,0.000000:
0000
0000
0000
0000
,
0000
0000
0000
0000
,
0000
0000
0000
0000
,
0000
0000
0000
0000
,
1000
0000
0000
0000
,
0001
0000
0000
0000
,
0200
0000
0000
0300
,
0000
0000
0000
0000
,
0001
0000
0000
0000
,
0010
0000
0000
0000
,
0001
0000
0000
0000
,
1000
0000
0001
0000
,
1000
0000
0000
0000
,
0010
0000
0000
0000
,
1000
0000
0000
0000
,
0100
0000
0010
0000
,
0002
0000
0000
0003
,
0000
0000
0000
0000
,
2000
0000
0000
3000
,
0000
0000
0010
0000
,
0200
0000
0300
0000
,
0001
0000
1000
0000
,
0100
0000
0010
0000
,
0001
0000
0000
0000
,
1000
0000
1000
0000
,
0001
0000
0001
0000
,
0100
0000
0010
0000
,
0100
0000
0001
0000
,
0001
0000
0001
0000
,
1000
0000
1000
0000
,
0100
0000
0010
0000
,
0100
0000
0000
0000
,
1001
0000
0000
0000
,
0110
0000
0000
0000
,
1001
0000
0000
0000
,
0110
0000
0000
0000
,
1000
0000
1000
0000
,
0001
0000
0001
0000
,
0100
0000
0010
0000
,
0110
0000
0000
0000
,
1000
0000
0010
0000
,
1000
0000
0000
0000
,
0001
0000
0000
0000
,
1000
0000
0000
0000
,
0001
0000
0010
0000
,
0001
0000
1000
0000
,
1001
0000
0000
0000
,
0110
0000
0000
0000
,
0001
0000
0010
0000
,
0001
0000
0000
0000
,
1000
0000
0000
0000
,
0001
0000
0000
0000
,
1000
0000
0010
0000
,
1000
0000
0001
0000
,
1001
0000
0000
0000
,
0110
0000
0000
0000
,
0001
0000
1000
0000
,
0001
0000
0000
0000
,
0100
0000
0010
0000
,
0100
0000
0000
0000
,
0001
0000
1000
0000
,
0010
0000
0100
0000
,
0110
0000
0000
1001
;
