#TITLE:licca;
#SUBTITLE:;
#ARTIST:Qrispy Joybox;
#TITLETRANSLIT:;
#SUBTITLETRANSLIT:;
#ARTISTTRANSLIT:;
#GENRE:;
#CREDIT:;
#MUSIC:licca.ogg;
#BANNER:licca.png;
#BACKGROUND:licca-bg.png;
#CDTITLE:;
#SAMPLESTART:59.694;
#SAMPLELENGTH:15.000;
#SELECTABLE:YES;
#OFFSET:0.000;
#BPMS:0.000=196.000;
#STOPS:;
#BGCHANGES:;
#FGCHANGES:;

//--------------- dance-single - ----------------
#NOTES:
     dance-single:
     :
     Beginner:
     5:
     0.220868,0.31279,0.14299,0.080432,0,173,157,16,9,0,0,0.220868,0.31279,0.14299,0.080432,0,173,157,16,9,0,0:
0000
0000
0000
0000
,
0000
0000
0000
0000
,
0000
0000
0000
0000
,
0000
0000
0000
0000
,
0000
0000
0000
0000
,
1000
0000
0000
0000
,
0001
0000
0000
0000
,
0010
0000
0000
0000
,
0100
0000
0000
0000
,
1001
0000
0000
0000
,
1001
0000
0000
0000
,
1001
0000
0000
0000
,
1001
0000
0000
0000
,
0110
0000
0000
0000
,
0110
0000
0000
0000
,
0110
0000
0000
0000
,
0110
0000
0000
0000
,
1000
1000
0100
0000
,
0000
0000
1000
0000
,
0001
0001
0100
0000
,
0000
0000
0001
0000
,
1000
1000
0010
0000
,
0000
0000
1000
0000
,
0001
0001
0010
0000
,
0000
0000
0001
0000
,
1000
1000
0000
0100
,
0100
0000
1000
0000
,
0001
0001
0000
0100
,
0100
0000
0001
0000
,
1000
1000
0000
0010
,
0010
0000
1000
0000
,
0001
0001
0000
0010
,
0010
0000
0001
0000
,
1000
0100
1000
0000
,
0000
0000
1000
0000
,
0001
0100
0001
0000
,
0000
0000
0001
0000
,
1000
0010
1000
0000
,
0000
0000
1000
0000
,
0001
0010
0001
0000
,
0000
0000
0001
0000
,
2000
0000
3000
0000
,
0002
0000
0003
0000
,
2000
0000
3000
0000
,
0002
0000
0003
0000
,
1000
0000
0100
0000
,
0001
0000
0010
0000
,
0200
0000
0000
0000
,
0000
0000
0300
0000
,
1000
0000
1000
0000
,
1000
1000
0100
0000
,
0001
0000
0001
0000
,
0001
0001
0100
0000
,
1000
0000
0100
0000
,
0010
0000
0001
0000
,
0100
0000
0100
0000
,
0100
0010
0100
0000
,
0001
0000
0001
0000
,
0001
0001
0100
0000
,
1000
0000
1000
0000
,
1000
1000
0100
0000
,
0001
0000
0100
0000
,
0010
0000
1000
0000
,
0200
0000
0300
0000
,
0100
0010
0100
0000
,
1000
0000
1000
0000
,
0200
0000
0300
0000
,
0001
0000
0001
0000
,
0200
0000
0300
0000
,
1000
0000
0010
0000
,
0100
0000
0001
0000
,
0010
0000
0010
0000
,
0010
0100
0010
0000
,
0001
0000
0001
0000
,
0100
0000
0001
0001
,
1000
0000
1000
0000
,
0100
0000
1000
0000
,
0001
0000
0010
0000
,
0100
0000
1000
0000
,
0020
0000
0030
0000
,
0010
0100
1001
0000
,
1000
0100
0110
0000
,
0000
0000
1001
0000
,
0001
0100
0110
0000
,
0000
0000
1001
0000
,
1000
0010
0110
0000
,
0000
0000
1001
0000
,
0001
0010
0110
0000
;

//--------------- dance-single - ----------------
#NOTES:
     dance-single:
     :
     Easy:
     8:
     0.347261,0.43193,0.241295,0.31279,0,272,245,27,35,0,0,0.347261,0.43193,0.241295,0.31279,0,272,245,27,35,0,0:
0000
0000
0000
0000
,
0000
0000
0000
0000
,
0000
0000
0000
0000
,
0000
0000
0000
0000
,
0000
0000
0000
0000
,
1001
0000
0100
0000
0010
0000
0000
0001
,
0000
0001
0000
0000
2000
0000
3001
0000
,
1001
0000
0010
0000
0100
0000
0000
1000
,
0000
1000
0000
0000
0001
0000
1000
0000
,
2002
0000
3003
0000
,
2002
0000
3003
0000
,
2002
0000
3003
0000
,
1001
0000
1001
0000
,
0220
0000
0330
0000
,
0220
0000
0330
0000
,
0220
0000
0330
0000
,
0110
0000
0110
0000
,
1000
0000
0100
0000
0000
1000
0000
0100
,
0000
1000
0010
0100
,
0001
0000
0100
0000
0000
0001
0000
0100
,
0000
0001
1000
0000
,
0001
0000
0010
0000
0000
0001
0000
0010
,
0000
0001
0100
0010
,
1000
0000
0010
0000
0000
1000
0000
0010
,
0000
0000
1001
0000
,
1000
1000
0100
1000
,
0010
0010
0110
0000
,
0001
0001
0100
0001
,
0010
0010
0110
0000
,
1000
1000
0010
0100
,
0100
0010
1001
0000
,
0001
0001
0100
0010
,
0010
0100
1001
0000
,
1000
0000
0100
0000
0000
0100
0000
1000
,
0000
1000
0010
0100
,
0001
0000
0100
0000
0000
0100
0000
0001
,
0000
0001
1000
0000
,
0001
0000
0010
0000
0000
0010
0000
0001
,
0000
0001
0100
0010
,
1000
0000
0010
0000
0000
0010
0000
1000
,
0000
0000
0002
0003
,
2000
0000
0000
3000
,
0002
0000
0000
0003
,
2000
0000
0000
3000
,
0002
0000
0000
0003
,
2000
3000
0200
0300
,
0002
0003
0020
0030
,
0200
0000
0000
0300
,
0020
0000
0030
0000
,
1000
1000
0100
0100
,
1000
0010
0110
0000
,
0001
0001
0010
0010
,
0001
0100
0110
0000
,
1000
1000
0001
0001
,
0100
0010
1000
0001
,
0020
0100
0100
0000
,
0130
0010
1001
0000
,
0001
0001
0100
0100
,
0001
0010
0110
0000
,
1000
1000
0010
0010
,
1000
0100
0110
0000
,
0001
0001
1000
1000
,
0100
0010
0001
1000
,
0020
0100
0100
0000
,
0130
0010
1001
0000
,
1000
1000
0100
0010
,
0002
0100
2000
3003
,
0001
0001
0100
0010
,
2000
0100
0002
3003
,
1000
1000
0001
0001
,
0100
0010
1000
0001
,
0020
0100
0100
0000
,
0130
0010
1001
0000
,
0001
0001
0100
0100
,
0001
0010
0100
1001
,
1000
1000
0100
0100
,
1000
0010
0220
0330
,
0001
0001
1000
1000
,
0010
0100
0001
1000
,
0020
0100
0100
0000
,
0130
0010
1001
0000
,
1000
0000
0100
0000
0000
0001
0000
0010
,
0000
0010
0100
1000
,
0001
0000
0100
0000
0000
1000
0000
0010
,
0000
0100
2002
3003
,
1000
0000
0010
0000
0000
0001
0000
0100
,
0000
0100
0010
1000
,
0001
0000
0010
0000
0000
1000
0000
0100
;

//--------------- dance-single - ----------------
#NOTES:
     dance-single:
     :
     Medium:
     13:
     0.633241,0.706795,0.411096,0.393222,0.067027,496,450,46,44,0,0,0.633241,0.706795,0.411096,0.393222,0.067027,496,450,46,44,0,0:
0000
0000
0000
0000
,
0000
0000
0000
0000
,
0000
0000
0000
0000
,
0000
0000
0000
0000
,
0000
0000
0000
0000
,
0101
0000
0100
0000
0010
0000
1000
0001
,
0000
1001
0000
0001
0200
0000
0310
0000
,
1010
0000
1000
0000
0100
0000
0010
0001
,
0000
1001
0000
1000
0020
0000
0130
0000
,
1001
0000
0100
0010
0100
0000
0100
0010
,
0100
0010
0100
0020
0200
0000
0330
0000
,
1001
0000
0010
0100
0010
0000
0010
0100
,
0010
0000
0000
0100
0000
0000
0010
0000
0000
0100
0000
0000
0010
0000
0000
0000
0010
0000
0000
0000
0010
0000
0000
0000
,
0110
0000
1000
0001
1000
0000
0001
1000
,
0001
1000
0001
2000
0002
0000
3003
0000
,
0110
0000
0001
1000
0001
0000
1000
0001
,
1000
0000
0000
0001
0000
0000
1000
0000
0000
0001
0000
0000
0100
0000
0010
0000
0100
0000
0010
0000
0100
0000
0010
0000
,
1000
0000
1100
0000
0100
1000
0000
1100
,
0000
0100
1000
0100
0010
0001
1000
0000
,
0001
0000
0101
0000
0100
0001
0000
0101
,
0000
0001
0100
0010
2000
0000
3000
0000
,
0001
0000
0011
0000
0010
0001
0000
0011
,
0000
0010
0001
0010
0100
1000
0001
0000
,
1000
0000
1010
0000
0010
1000
0000
1010
,
0000
0000
0000
0020
0000
0000
0000
0000
0000
0000
0000
0000
0130
0000
0001
0000
0100
0000
0001
0000
0100
0000
0001
0000
,
1000
0100
1000
0100
0010
0000
0001
0100
,
0001
0100
0010
0000
1000
0100
0020
0000
,
0031
0100
0001
0100
0010
0000
1000
0010
,
1000
0000
0000
0010
0000
0000
0100
0000
0000
0000
0000
0000
0101
0000
0000
0000
0000
0000
0100
0000
0001
0000
0100
0000
,
0001
0010
0001
0010
0100
0000
1000
0010
,
1000
0010
0100
0000
0001
0010
0200
0000
,
1300
0010
1000
0010
0100
0000
0001
0100
,
0001
0100
0010
0000
2000
0000
3002
0000
,
1003
0000
1010
0000
0010
1000
0000
1010
,
0000
0010
1000
0010
0100
0001
1000
0000
,
0001
0000
0011
0000
0010
0001
0000
0011
,
0000
0001
0010
0100
2000
0000
3000
0000
,
0001
0000
0101
0000
0100
0001
0000
0101
,
0000
0100
0001
0100
0010
1000
0001
0000
,
1000
0000
1100
0000
0100
1000
0000
1100
,
0000
0000
0220
0330
,
2200
0000
0000
0300
,
0020
0000
0000
0030
,
0200
0000
0000
0300
,
0020
0000
0000
3030
,
2200
0300
0020
0030
,
0002
3000
0020
0030
,
0200
0000
0000
0303
,
0220
0000
0000
0000
0330
0000
0100
0010
,
1000
0000
0010
0100
0001
0000
0100
0010
,
1000
0100
0010
0001
1000
0000
0001
1000
,
0001
0000
0100
0010
1000
0000
0010
0100
,
0001
0010
0100
1000
0001
0000
1000
0001
,
1000
0000
0010
0100
0001
0000
0100
0010
,
1000
0100
0010
0001
0100
0010
1000
0001
,
0000
0010
0100
0010
0100
0010
0000
0120
,
0000
0031
0100
0010
2000
0000
3100
0010
,
0001
0000
0010
0100
1000
0000
0100
0010
,
0001
0100
0010
1000
0001
0000
1000
0001
,
1000
0000
0100
0010
0001
0000
0010
0100
,
1000
0010
0100
0001
1000
0000
0001
1000
,
0001
0000
0010
0100
1000
0000
0100
0010
,
0001
0100
0010
1000
0100
0010
0001
1000
,
0000
0010
0100
0010
0100
0010
0000
0120
,
0000
1030
0100
0010
0002
0000
0103
0010
,
1000
0000
0001
0010
0200
0010
0000
0310
,
0002
0000
0100
0000
0013
0000
0100
1000
,
0001
0000
1000
0010
0200
0010
0000
0310
,
2000
0000
0100
0000
3010
0000
1000
0001
,
1000
0000
0100
0010
0001
0000
0100
0010
,
1000
0100
0010
0001
0100
0010
1000
0001
,
0000
0010
0100
0010
0100
0010
0000
0120
,
0000
0031
0100
0010
2000
0000
3100
0010
,
0001
0000
0010
0100
1000
0000
0100
0010
,
0001
0100
0010
1000
0001
0000
1001
0000
,
1000
0000
0100
0010
0001
0000
0100
0010
,
1000
0100
0010
0002
2000
0000
3003
0000
,
0001
0000
0010
0100
1000
0000
0100
0010
,
0001
0000
0010
0100
1000
0010
0100
0001
,
0000
0010
0100
0010
0100
0010
0000
0210
,
0000
1300
0010
0100
0002
0000
0000
0000
,
1003
0000
1100
0000
0100
1100
0000
1001
,
0000
0000
1000
0001
1000
0000
0001
0000
0100
0000
1000
0000
0100
0000
0000
0000
,
0001
0000
0101
0000
0100
0101
0000
1001
,
0000
0000
0001
1000
0001
0000
0020
0000
0200
0000
0000
0000
0330
0000
0000
0000
,
1000
0000
1010
0000
1000
1010
0000
1001
,
0000
0000
1000
0001
1000
0000
0001
0000
0010
0000
1000
0000
0010
0000
0000
0000
,
0001
0000
0011
0000
0010
0011
0000
1001
;

//--------------- dance-single - ----------------
#NOTES:
     dance-single:
     :
     Hard:
     16:
     0.836236,0.903127,0.732823,0.616644,0.236827,655,573,82,69,0,0,0.836236,0.903127,0.732823,0.616644,0.236827,655,573,82,69,0,0:
0000
0000
0000
0000
,
0000
0000
0000
0000
,
0000
0000
0000
0000
,
0000
0000
0000
0000
,
0000
0000
0000
0000
,
1100
0100
0010
0001
0100
0010
1000
1001
,
0000
0000
1001
0000
1000
0000
0100
0000
0010
0001
0010
0001
1000
0010
1000
0010
,
0100
0001
0100
0010
1000
0100
0010
0110
,
0000
0110
0100
1000
0010
0100
0001
0000
,
1001
0100
0010
0100
0010
0000
0100
0010
,
1001
0010
0100
0020
0200
0000
0330
0000
,
1001
0100
0010
0100
0010
0000
0100
0010
,
1001
0000
0000
0010
0000
0000
0100
0000
0000
0020
0000
0000
0100
0000
0000
0000
0100
0000
0000
0000
0130
0000
0000
0000
,
0110
0001
1000
0001
1000
0000
0001
1000
,
0110
1000
0001
2000
0002
0000
3003
0000
,
0110
1000
0001
1000
0001
0000
1000
0001
,
0110
0000
0000
0001
0000
0000
1000
0000
0000
0001
0000
0000
1000
0000
0100
0000
0010
0000
0001
0000
0010
0000
0100
0000
,
1000
0000
1100
0000
0100
1100
1000
1001
,
0000
0000
0000
0000
0000
0000
0001
0000
0000
1000
0000
0000
0001
0000
0000
0000
0000
0000
0010
0000
0000
0000
0000
0000
0100
0000
0000
0000
1000
0000
0000
0000
0100
0000
0000
0000
1000
0000
0000
0000
0001
0000
0000
0000
1000
0000
0000
0000
,
0001
0000
0101
0000
0100
0101
0001
1001
,
0000
0000
1000
0001
1000
0000
0100
0000
0010
0000
0001
0000
1000
0000
0000
0000
,
0001
0000
0011
0000
0010
0011
0001
1001
,
0000
0000
0000
0000
0000
0000
1000
0000
0000
0001
0000
0000
1000
0000
0000
0000
0000
0000
0100
0000
0000
0000
0000
0000
0010
0000
0000
0000
0001
0000
0000
0000
0010
0000
0000
0000
0001
0000
0000
0000
1000
0000
0000
0000
0001
0000
0000
0000
,
1000
0000
1010
0000
0010
1010
1000
1001
,
0000
0000
0000
0002
0000
0000
0000
0000
0000
0000
0000
0000
1003
0000
0010
0000
0100
0000
0001
0000
0010
0000
0100
0000
,
1000
0100
1000
0100
0010
0001
1000
0010
,
1000
0000
0010
0000
0100
0000
0001
0000
0010
0000
0100
0000
1000
0000
0001
1000
,
0001
0100
0001
0100
0010
1000
0001
0010
,
0001
0000
0000
0010
0000
0000
0100
0000
0000
1000
0000
0000
0100
0000
0000
0010
0000
0000
0001
0000
1000
0000
0001
0000
,
1000
0010
1000
0010
0100
0001
1000
0100
,
1000
0000
0100
0000
0010
0000
0001
0000
1000
0000
0010
0000
0100
0000
0001
1000
,
0001
0010
0001
0010
0100
1000
0001
0100
,
0001
0100
0010
1000
0200
0320
0032
2003
,
3001
0000
0101
0000
0100
0101
0001
1001
,
0000
0000
0000
0000
0000
0000
1000
0000
0000
0001
0000
0000
1000
0000
0000
0000
0000
0000
0010
0000
0000
0000
0000
0000
0100
0000
0000
0000
0001
0000
0000
0000
0100
0000
0000
0000
0001
0000
0000
0000
1000
0000
0000
0000
0001
0000
0000
0000
,
1000
0000
1100
0000
0100
1100
1000
1001
,
0000
0000
0001
1000
0001
0000
0100
0000
0010
0000
1000
0000
0001
0000
0000
0000
,
1000
0000
1010
0000
0010
1010
1000
1001
,
0000
0000
0000
0000
0000
0000
0001
0000
0000
1000
0000
0000
0001
0000
0000
0000
0000
0000
0100
0000
0000
0000
0000
0000
0010
0000
0000
0000
1000
0000
0000
0000
0010
0000
0000
0000
1000
0000
0000
0000
0001
0000
0000
0000
1000
0000
0000
0000
,
0001
0000
0011
0000
0010
0011
0001
1001
,
0000
0000
0220
0330
,
2200
0000
0000
0300
,
0020
0000
0000
3030
,
2200
0000
0000
0300
,
0020
0000
0000
3030
,
2200
0300
0020
3030
,
0022
0030
0200
0303
,
2002
0000
0000
3003
,
0220
0000
0000
0000
0330
0000
0100
0010
,
1010
1000
0100
0010
0011
0001
0100
0010
,
1000
0100
0010
0001
2000
0000
3001
0100
,
0101
0001
0100
0010
1010
1000
0100
0010
,
0001
0100
0010
1000
0002
0000
1003
0010
,
1010
1000
0010
0100
0101
0001
0100
0010
,
1000
0100
0010
0001
0100
0010
1000
0001
,
0010
0100
0010
0100
0010
0100
0020
0001
,
0230
1000
0320
0032
2003
0000
3100
0010
,
0011
0001
0100
0010
1010
1000
0100
0010
,
0001
0100
0010
1000
0002
0000
1003
0100
,
1100
1000
0100
0010
0011
0001
0100
0010
,
1000
0100
0010
0001
2000
0000
3001
0010
,
0011
0001
0010
0100
1100
1000
0100
0010
,
0001
0100
0010
1000
0100
0010
0001
1000
,
0010
0100
0010
0100
0010
0100
0020
1000
,
0230
0001
0320
2030
3002
0000
1003
0001
,
1001
0000
1000
0200
0010
2300
0001
3020
,
1000
0230
0010
0302
1000
0203
0320
1030
,
1001
0000
0001
0200
0010
0302
1000
0023
,
0001
0230
0010
2300
0001
3200
0320
0031
,
0101
0001
0100
0010
1010
1000
0010
0100
,
0001
0010
0100
1000
0010
0100
0001
1000
,
0100
0010
0100
0010
0100
0010
0200
1000
,
0320
0001
0230
2300
3002
0000
0013
0100
,
1001
1000
0100
0010
1001
0001
0010
0100
,
1000
0000
0010
0000
0100
0000
0001
0000
0010
0100
0010
0000
0100
0010
0100
0000
,
1001
0001
0010
0100
1001
1000
0010
0100
,
0001
0010
0100
2000
0002
0000
3003
0000
,
1001
1000
0100
0010
1001
0001
0100
0010
,
0110
1000
0001
1000
0110
0001
1000
0001
,
0100
0010
0100
0010
0100
0010
0200
0001
,
0320
1000
0230
0001
0020
0000
0330
0000
,
1010
0000
1100
1000
0001
0101
0100
0110
,
0000
0000
0000
0000
0000
0000
1000
0000
0000
0100
0000
0000
0001
0000
0000
0000
0000
0000
0100
0000
0000
0000
0000
0000
1000
0000
0000
0000
0010
0000
0000
0000
1000
0000
0000
0000
0001
0000
0000
0000
0010
0000
0000
0000
0001
0000
0000
0000
,
0100
0000
0101
0001
1000
1100
0100
0110
,
0000
0000
0010
0100
0010
0000
0002
0000
2000
0000
0000
0000
3003
0000
0000
0000
,
0011
0000
0101
0001
1000
1100
0100
0110
,
0000
0000
0000
0000
0000
0000
0001
0000
0000
0100
0000
0000
1000
0000
0000
0000
0000
0000
0100
0000
0000
0000
0000
0000
0001
0000
0000
0000
0010
0000
0000
0000
0001
0000
0000
0000
1000
0000
0000
0000
0010
0000
0000
0000
1000
0000
0000
0000
,
0100
0000
1100
1000
0001
0101
0100
0110
;
