#TITLE:TIEFSEE;
#SUBTITLE:;
#ARTIST:SOUND HOLIC Vs. dj TAKA feat. YURiCa;
#TITLETRANSLIT:;
#SUBTITLETRANSLIT:;
#ARTISTTRANSLIT:;
#GENRE:;
#CREDIT:;
#MUSIC:TIEFSEE.ogg;
#BANNER:TIEFSEE-bn.png;
#BACKGROUND:TIEFSEE-BG.png;
#CDTITLE:;
#SAMPLESTART:46.909;
#SAMPLELENGTH:15.000;
#SELECTABLE:YES;
#OFFSET:-0.000;
#BPMS:0.000=165.000;
#STOPS:;
#BGCHANGES:;
#FGCHANGES:;

//--------------- dance-single - ----------------
#NOTES:
     dance-single:
     :
     Beginner:
     3:
     0,0,0,0,0:
0000
0000
0000
0000
,
0000
0000
0000
0000
,
0000
0000
0000
0000
,
0000
0000
0000
0000
,
0000
0000
0000
0000
,
0001
0000
0000
0000
,
1000
0000
0000
0000
,
0010
0000
0000
0000
,
0100
0000
1001
0000
,
1000
0000
1000
0000
,
0100
0000
0000
0000
,
0001
0000
0001
0000
,
0100
0000
0000
0000
,
1000
0000
0000
0000
,
0010
0000
0000
0000
,
0001
0000
0000
0000
,
0010
0000
0000
0000
,
0100
0000
1000
0000
,
0100
0000
0000
0000
,
0010
0000
0001
0000
,
0010
0000
0000
0000
,
0001
0000
0001
0000
,
1000
0000
0000
0000
,
1000
0000
1000
0000
,
0001
0000
0000
0000
,
1000
1000
0000
0000
,
0001
0001
0000
0000
,
0100
0100
0000
0000
,
0010
0000
0010
0000
,
0200
0000
0300
0000
,
0002
0000
0003
0000
,
2000
0000
3000
0000
,
1001
0000
0000
0000
,
0001
0000
0000
0000
,
0010
0000
0100
0000
,
1000
0000
0000
0000
,
0001
0000
0000
0000
,
1000
0000
0100
0000
,
0001
0000
0100
0000
,
1000
0000
0010
0000
,
0001
0000
0010
0000
,
1000
0000
0000
0000
,
0100
0000
0010
0000
,
0001
0000
0000
0000
,
1000
0000
0000
0000
,
0001
0000
0010
0000
,
1000
0000
0010
0000
,
0001
0000
0100
0000
,
1000
0000
0100
0000
,
0002
0000
0003
0000
,
0020
0000
0030
0000
,
0200
0000
0300
0000
,
2000
0000
3000
0000
,
0001
0000
0001
0000
,
1000
0000
2000
0000
,
3000
0000
0020
0000
,
0030
0000
0100
0000
,
0100
0000
0002
0000
,
0003
0000
1000
0000
,
0001
0000
1000
0000
,
0002
0000
0003
0000
,
2000
0000
3000
0000
,
2002
0000
3003
0000
,
1000
0000
1000
0000
,
0100
0100
0000
0000
,
0001
0000
0001
0000
,
0100
0100
0000
0000
,
1000
0000
0100
0000
,
0001
0000
0100
0000
,
1000
0000
0000
0000
,
0001
0000
1000
0000
,
0001
0000
0001
0000
,
0010
0010
0000
0000
,
1000
0000
1000
0000
,
0010
0010
0000
0000
,
0001
0000
0010
0000
,
1000
0000
0010
0000
,
0001
0000
0000
0000
,
1000
0000
0001
0000
,
2002
0000
0000
0000
,
0000
0000
0000
0000
,
0000
0000
0000
0000
,
0000
0000
0000
0000
,
3003
0000
0000
0000
;

//--------------- dance-single - ----------------
#NOTES:
     dance-single:
     :
     Easy:
     6:
     0,0,0,0,0:
0000
0000
0000
0000
,
0000
0000
0000
0000
,
0000
0000
0000
0000
,
0000
0000
0000
0000
,
0000
0000
0000
0000
,
2000
0000
3100
0000
,
0002
0000
0103
0000
,
0020
0000
0000
0030
,
0100
0100
0010
1001
,
1000
1000
0100
0010
,
0001
0001
1000
0000
,
0001
0001
0100
0010
,
1000
1000
0001
1000
,
0010
0010
0100
0001
,
1000
0000
1001
0000
,
0100
0100
0010
1000
,
0001
1000
0001
1001
,
0010
0010
0100
0001
,
0010
0100
0010
0000
,
0100
0100
0010
0100
,
1000
1000
0001
0000
,
1000
0010
0100
0001
,
1000
0001
1000
0000
,
0001
0010
0100
1000
,
0001
0001
1000
1000
,
0010
1000
0100
0000
,
0010
0001
0100
0000
,
0010
1000
0001
1000
,
0001
0000
0110
0000
,
1000
1000
1000
0100
,
0001
0001
0001
0100
,
0010
0010
0010
0100
,
2002
0000
0000
3003
,
1000
0001
0100
0000
,
0010
0010
0100
0100
,
0001
0000
1000
0000
,
0010
0010
0100
0100
,
0001
0010
0100
0000
,
1000
0100
0010
0000
,
0001
0100
0010
0010
,
1000
0100
0010
0010
,
0001
1000
0100
0000
,
0010
0010
0100
0100
,
1000
0000
0001
0000
,
0010
0010
0100
0100
,
1000
0010
0100
0000
,
0001
0100
0010
0000
,
1000
0100
0010
0010
,
0001
0100
0010
0010
,
1000
0000
0100
0100
,
0001
0000
0100
0100
,
1000
0000
0010
0010
,
0001
0000
1000
0000
,
0001
0001
1000
1000
,
0001
0000
0010
0000
,
0100
0000
0010
0000
,
0100
0000
1000
1000
,
0001
0000
1000
0000
,
0100
0000
0001
0000
,
0100
0100
0010
0010
,
2000
0000
0100
3100
,
0002
0000
0100
0103
,
0020
0100
0100
0130
,
0001
0100
0001
0000
,
1000
1000
0001
0001
,
1000
0100
1000
0000
,
0001
0001
1000
1000
,
0001
0000
0010
0000
,
1000
0000
0010
0000
,
0001
0001
0100
0100
,
0010
0010
0110
1001
,
1000
0010
1000
0000
,
0001
0001
1000
1000
,
0001
0010
0001
0000
,
1000
1000
0001
0001
,
1000
0000
0100
0000
,
0001
0000
0100
0000
,
1000
1000
0010
0010
,
0100
0100
0110
1001
,
0002
0000
0000
0003
,
0020
0000
0000
0030
,
0200
0000
0000
0300
,
2000
0000
0000
3000
,
1001
0000
0000
0000
;

//--------------- dance-single - ----------------
#NOTES:
     dance-single:
     :
     Medium:
     10:
     0,0,0,0,0:
0000
0000
0000
0000
,
0000
0000
0000
0000
,
0000
0000
0000
0000
,
0000
0000
0000
0000
,
0000
0000
0000
0000
,
0002
0100
0103
0000
,
2000
3100
0002
0103
,
2000
3010
0002
0013
,
1000
0001
1000
0000
0001
1000
0001
0000
,
1000
0000
0001
0100
0000
0001
0100
0000
,
0010
0100
0001
1000
,
0001
0000
1000
0100
0000
1000
0100
0010
,
0100
1000
0001
0010
,
0001
0000
0010
0100
0000
0010
0100
1000
,
0002
0100
2000
3003
,
0010
0000
0100
0010
0000
0010
0000
1000
,
0001
0001
1000
1000
,
0110
0000
0100
0010
0100
0010
0100
0000
,
0001
1000
0001
1000
0001
0000
0000
0000
,
0100
0000
0010
0100
0000
0010
0100
0010
,
1000
1000
0001
0001
,
1000
0100
1000
0100
0000
0100
0010
0000
,
0001
1000
0001
1000
0001
0000
0000
0000
,
0001
0100
0001
0100
0000
0100
0010
0100
,
0010
0010
0100
1001
,
0001
0010
0001
0010
0000
0010
0100
0000
,
1000
0010
1000
0010
0000
0010
0100
0000
,
0001
1000
0001
1000
0000
0010
0100
0010
,
0100
0100
0010
1001
,
1000
0010
1000
0010
0000
0100
0001
0100
,
0001
0000
1000
0001
0000
0001
1000
0001
,
2000
0001
3002
1003
,
2002
0000
0000
3003
,
0101
0000
0100
0010
0000
0010
0100
0000
,
0001
1000
0000
1000
0001
0000
1000
0010
,
0000
1000
0010
0000
1000
0000
0001
0100
,
0000
0100
0001
0000
1000
0001
0000
0001
,
1000
0000
1000
0010
0000
0100
0010
1000
,
0001
0000
0010
0100
0000
0100
0010
0001
,
1000
0000
1000
0100
0000
0100
0010
0100
,
1000
0001
0000
0101
0000
0100
0001
0000
,
1100
0000
0100
0010
0000
0010
0100
0000
,
1000
0001
0000
0001
1000
0000
0001
0010
,
0000
0001
0010
0000
0001
0000
1000
0100
,
0000
0100
1000
0000
0001
1000
0000
1000
,
0001
0000
0001
0010
0000
0100
0010
0001
,
1000
0000
0010
0100
0000
0100
0010
1000
,
0001
0000
0001
0100
0000
0100
0010
0100
,
0001
1000
0000
1100
0000
0100
1000
0000
,
0001
0100
0001
0000
1000
0000
1000
0000
,
0001
0100
0001
0000
1000
0100
1000
0000
,
0001
0010
0001
0000
1000
0010
1000
0000
,
0001
0010
0100
0000
1000
0100
0010
0000
,
0001
0100
0010
0000
1000
0010
0100
0000
,
0002
0000
0003
0000
1000
0100
0010
0000
,
0001
0010
0100
0000
1000
0010
0100
0000
,
0001
0100
0010
0000
1000
0001
1000
0001
,
2000
0000
3000
0000
0010
0100
0010
0000
,
0100
0010
0100
0000
0001
1000
0001
0000
,
1001
1000
1001
0001
,
2001
0000
0000
0000
0100
0100
3100
0000
,
0001
0100
0001
0000
1000
0100
1000
0000
,
0010
0100
0010
0100
0020
0000
0130
0000
,
0001
0000
0010
0100
1000
0000
0010
0000
,
0100
0000
0000
0100
0000
0000
0100
0000
0001
0000
0000
0000
0101
0000
0000
0000
,
1000
0000
0010
0100
0001
0000
0010
0000
,
0100
0000
0000
0100
0000
0000
0100
0000
1000
0000
0000
0000
1100
0000
0000
0000
,
0010
0000
0001
0010
0001
0000
1000
0010
,
1000
0000
0001
0100
0001
0000
1000
0100
,
2000
0000
3001
0100
0001
0000
2000
0000
,
3001
0010
0001
0000
1000
0000
0001
0000
,
1000
0000
0100
0010
0001
0000
0100
0000
,
0010
0000
0000
0010
0000
0000
0010
0000
1000
0000
0000
0000
1010
0000
0000
0000
,
0001
0000
0100
0010
1000
0000
0100
0000
,
0010
0000
0000
0010
0000
0000
0010
0000
0001
0000
0000
0000
0011
0000
0000
0000
,
0100
0000
1000
0100
1000
0000
0001
0100
,
0001
0000
1000
0010
1000
0000
0001
0010
,
0002
0000
1003
0010
1000
0000
0002
0000
,
1003
0100
1000
0000
0001
0000
1000
0000
,
2001
0100
0001
0100
,
3002
0100
1000
0100
,
2003
0010
0001
0010
,
3002
0010
1000
0013
,
1001
0000
0000
0000
;

//--------------- dance-single - ----------------
#NOTES:
     dance-single:
     :
     Hard:
     13:
     0,0,0,0,0:
0000
0000
0000
0000
,
0000
0000
0000
0000
,
0000
0000
0000
0000
,
0000
0000
0000
0000
,
0000
0000
0000
0000
,
1000
0100
1000
0010
0000
0100
0010
1000
,
0001
0100
0001
0010
0000
0100
0010
0001
,
1000
0010
1000
0100
0000
0100
0010
0001
,
0100
0100
0010
0010
1000
0001
2000
0000
,
3001
0000
0001
0100
0010
0100
0010
1000
,
0100
0000
0000
0000
0010
0000
0000
0010
0100
0000
0000
1000
0001
0000
0000
0001
,
1000
0000
1000
0100
0010
0100
0010
0001
,
0100
0000
0000
0000
0010
0000
0000
0010
0100
0000
0000
0001
1000
0000
0000
1000
,
0001
0000
0010
0000
0100
0000
0000
0100
1000
0000
0001
0000
1001
0000
0000
0000
,
1000
0000
0100
0000
0010
0000
0000
0010
0001
0000
0100
0000
0110
0000
0000
0000
,
0100
0000
0001
0000
0100
0000
0000
0100
0010
0000
1000
0000
0010
0000
0000
0010
,
0100
0000
0010
0000
1000
0000
0001
1000
0001
0000
0010
0000
0100
0000
0000
0000
,
1100
0000
0100
1000
0010
0100
0001
0010
,
0100
0010
0001
1000
0020
0000
1030
0000
,
0101
0000
0100
0001
0010
0100
1000
0010
,
0100
1010
0100
0011
,
0010
0100
1000
0100
0010
0001
1000
0010
,
0100
0001
1000
0100
0010
0000
0110
0000
,
0100
1000
0001
0100
0010
1000
0001
0010
,
0100
1100
0110
0011
,
0001
0000
0100
0000
0010
0000
1000
0010
2000
0000
0001
0000
3001
0000
0000
0000
,
1000
0000
0100
0000
0010
0000
0001
0010
0002
0000
1000
0000
1003
0000
0000
0000
,
0010
0100
0010
1000
0001
0010
0100
1000
,
0001
0101
0010
1010
,
1000
0100
1000
0100
0010
0001
0010
0001
,
0100
0010
0100
0010
1000
0001
1000
0001
,
0100
0010
1000
0100
0010
0001
0100
0010
,
2000
0000
0000
3000
,
0100
0000
0010
0000
0100
0000
1000
0000
0000
0000
0001
0000
1001
0000
0000
0001
,
0100
0000
0010
0000
0100
0000
0000
0100
0001
0000
1000
0000
0001
0000
0000
0000
,
1000
0000
0100
0000
1000
0000
0000
0000
0001
0000
0100
0000
0001
0000
0000
0001
,
0100
0000
0010
0000
0100
0000
0000
0100
0010
0000
1000
0000
0001
0000
0000
0000
,
0010
0100
1000
0010
0000
0010
1000
0000
,
0100
0000
0010
0000
0001
0000
0100
0000
0000
0000
0100
0000
0001
0000
0000
1000
,
0010
0100
0001
1000
0000
1000
0001
0010
,
0100
1000
0001
0000
0100
0001
1000
0000
,
0010
0000
0100
0000
0010
0000
1000
0000
0000
0000
0001
0000
1001
0000
0000
0001
,
0010
0000
0100
0000
0010
0000
0000
0010
0001
0000
1000
0000
0001
0000
0000
0000
,
1000
0000
0010
0000
1000
0000
0000
0000
0001
0000
0010
0000
0001
0000
0000
0001
,
0010
0000
0100
0000
0010
0000
0000
0010
0100
0000
1000
0000
0001
0000
0000
0000
,
0100
0010
1000
0100
0000
0100
1000
0000
,
0010
0000
0100
0000
0001
0000
0010
0000
0000
0000
0010
0000
0001
0000
0000
1000
,
0100
0010
0001
1000
0000
1000
0001
0100
,
0010
1000
0001
0000
0010
0001
1000
0000
,
0001
0010
1000
0010
0001
0100
0001
0010
,
0001
0100
1000
0100
0001
0010
0100
1000
,
1000
0010
0001
0010
1000
0100
1000
0010
,
1000
0100
0001
0100
1000
0010
0100
0001
,
1000
0010
0001
0010
1000
0100
0001
0100
,
1000
0000
0000
1000
0010
0000
0100
0000
0001
0000
0010
0000
0001
0000
1000
0000
,
0001
0010
0001
0010
1000
0010
1000
0010
,
0001
0100
1000
0100
0001
0100
1000
0100
,
0001
0000
0000
0001
0100
0000
0010
0000
1000
0000
0100
0000
1000
0000
0001
0000
,
1000
0010
1000
0010
0001
0010
0001
0010
,
1000
0100
0001
0100
1000
0100
0001
0100
,
1000
0000
0001
0000
0001
0000
0000
0100
0010
0000
1000
0000
1000
0000
1000
0000
,
0001
0000
1000
0000
1000
0000
0000
0100
0010
0000
0001
0000
0001
0000
0001
0000
,
1000
0100
1000
0000
0001
0000
1000
0000
0001
0100
0001
0000
1000
0000
0001
0000
,
1000
0100
0100
0001
0100
0100
2000
0000
,
3001
0000
0100
0001
0000
0100
0001
0000
1000
0000
0100
0000
0010
0000
0001
0000
,
1000
0010
0010
0001
0010
0010
2000
0000
,
3001
0000
0010
0001
0000
0010
0001
0000
0100
0000
0010
0000
1000
0000
0001
0000
,
1000
0100
1000
0100
0010
0001
0010
0001
,
1000
0100
1000
0100
0001
0100
0001
0100
,
1000
0001
0000
0001
0100
0001
0000
0001
,
0010
0001
1000
0001
0010
0100
1000
0000
,
0001
0010
0010
1000
0010
0010
0002
0000
,
1003
0000
0010
1000
0000
0010
1000
0000
0001
0000
0010
0000
0100
0000
1000
0000
,
0001
0100
0100
1000
0100
0100
0002
0000
,
1003
0000
0100
1000
0000
0100
1000
0000
0010
0000
0100
0000
0001
0000
1000
0000
,
0001
0010
0001
0010
0100
1000
0100
1000
,
0001
0010
0001
0010
1000
0010
1000
0010
,
0001
1000
0000
1000
0010
1000
0000
1000
,
0100
1000
0001
1000
0100
0010
0001
0000
,
1002
0100
1000
0010
,
1003
0000
0000
1000
0000
0000
1000
0000
0001
0000
0000
0001
0000
0000
0001
0000
,
2001
0100
0001
0010
,
3001
0000
0000
0001
0000
0000
0001
0000
1000
0000
0000
1000
0000
0000
1000
0000
,
1001
0000
0000
0000
;

//--------------- dance-single - ----------------
#NOTES:
     dance-single:
     :
     Challenge:
     18:
     0,0,0,0,0:
0000
0000
0000
0000
,
0000
0000
0000
0000
,
0000
0000
0000
0000
,
0000
0000
0000
0000
,
0000
0000
0000
0000
,
2020
0000
0000
3030
,
0202
0000
0000
0303
,
2002
0000
0000
3003
,
0010
0000
0100
0000
0010
0000
0100
0000
0001
1000
0001
1000
0001
0000
1000
0001
,
1000
0100
1000
0010
0100
0001
0010
0100
,
0010
0000
0001
0000
1000
0000
0001
0010
0100
0000
1000
0010
0100
0000
0001
0010
,
0100
0010
0001
0010
0100
1000
0001
0100
,
0010
0000
1000
0000
0100
0000
0010
0001
1000
0000
0010
1000
0001
0000
0000
0000
,
1000
0000
0100
0000
0010
0000
0001
1000
0001
0000
0100
0000
0201
0000
0000
0000
,
0301
0000
0100
0000
0010
0000
1000
0100
1000
0000
0100
0000
1200
0000
0000
0000
,
1300
0010
1000
0010
1000
0000
0001
0000
0010
0001
0010
0001
0100
0000
0010
0000
,
1000
0001
1000
0001
0100
0010
0100
0010
1000
0100
0010
0001
0200
0000
0000
0000
,
0301
0001
0010
0001
0100
0010
1000
0100
,
0010
0001
0010
0100
1000
0010
1010
0000
,
1000
0100
1000
0010
0100
0001
0010
0100
,
1000
0100
1000
0000
0001
0100
0001
0000
1000
0010
1000
0000
0001
0010
0001
0000
,
1000
1000
0010
1000
0100
0010
0001
0100
,
0010
1000
0010
0100
0001
0010
0011
0000
,
0001
0100
0001
0010
0100
1000
0010
0100
,
0001
0100
0001
0000
1000
0100
1000
0000
0001
0010
0001
0000
1000
0010
1000
0000
,
0001
0000
0010
0000
0100
0010
0100
0010
0001
0100
0010
1000
0100
0010
0001
0000
,
1000
0000
0010
0000
0100
0010
0100
0010
1000
0010
0100
0001
0010
0100
1000
0000
,
0010
0000
0100
0000
0010
1000
0100
0010
0001
0100
0001
0100
0010
1000
0010
0000
,
1000
0100
1000
0100
0010
0001
1000
0000
0001
0100
0001
0100
0010
1000
0001
0000
,
1000
0100
1000
0100
1000
0100
1000
0100
0010
0001
0010
0001
1000
0010
1000
0000
,
0001
0100
0001
0100
0001
0100
0001
0100
0010
1000
0010
1000
0100
0010
0100
0000
,
0010
0001
0100
0010
1000
0100
0010
0001
0100
0010
1000
0100
0010
0001
0100
0010
,
2000
0000
0000
3000
,
0001
0000
0100
0000
0010
0000
1000
0100
1000
0000
0010
0100
0010
0000
1000
0001
,
1000
0000
0100
0000
1000
0000
0010
0100
0001
0000
0100
0000
0001
0000
0010
0100
,
2000
0000
0010
0000
3002
0000
0010
0000
0203
0000
0001
0000
0310
0000
0100
0010
,
0100
0000
0001
0000
1000
0000
0010
0100
0010
0000
1000
0000
0001
0000
0010
0100
,
1000
0000
0100
0000
1000
0000
0010
0100
0001
0000
0010
0000
0000
0000
0011
0000
,
0001
0000
0100
0000
0001
0000
0010
0100
1000
0000
0010
0000
0000
0000
1000
0010
,
0100
0000
0010
0000
0100
0000
0001
0010
0100
0000
0010
0000
0100
0000
0010
0001
,
1000
0000
0010
0000
0100
0000
0001
1000
0001
0000
0010
0000
0100
0000
1000
0001
,
1000
0000
0100
0000
0010
0000
0001
0100
0001
0000
0010
0100
0010
0000
0001
1000
,
0001
0000
0100
0000
0001
0000
0010
0100
1000
0000
0100
0000
1000
0000
0010
0100
,
0002
0000
0010
0000
2003
0000
0010
0000
3200
0000
1000
0000
0310
0000
0100
0010
,
0100
0000
1000
0000
0001
0000
0010
0100
0010
0000
0001
0000
1000
0000
0010
0100
,
0001
0000
0100
0000
0001
0000
0010
0100
1000
0000
0010
0000
0000
0000
1010
0000
,
1000
0000
0100
0000
1000
0000
0010
0100
0001
0000
0010
0000
0000
0000
0001
0010
,
0100
0000
0010
0000
0100
0000
1000
0010
0100
0000
0010
0000
0100
0000
0010
1000
,
0001
0000
0010
0000
0100
0000
1000
0001
1000
0000
0010
0000
0200
0000
0000
0000
,
0301
0010
0001
0100
0010
1000
0001
0000
1000
0010
1000
0100
0010
0001
1000
0000
,
0001
0100
0001
0010
0100
1000
0010
1000
0100
0010
0001
0100
0010
1000
0001
0000
,
1000
0100
1000
0100
0010
0000
0001
0010
0100
0000
0010
0100
1000
0000
0100
0010
,
0001
0100
0001
0100
0010
1000
0010
0000
1000
0100
1000
0100
0010
0001
1000
0000
,
0001
0100
0001
0100
0010
1000
0010
0000
0001
0100
0010
1000
0010
0100
0001
1000
,
0200
0000
0000
0000
0310
0000
0100
1000
0010
0000
1000
0100
0010
0000
0001
0010
,
0100
1000
0100
0000
1000
0010
0100
0000
0001
1000
0001
1000
0001
0100
0010
0000
,
1000
0100
1000
0100
0010
0001
0010
0000
1000
0100
0010
0001
0010
0100
1000
0001
,
0200
0000
0000
0000
0310
0000
0100
0010
1000
0100
0010
0000
0001
0010
0100
0000
,
0010
0100
0010
0100
1000
0001
1000
0000
0010
0100
0010
0100
0001
1000
0001
0000
,
1000
0100
1000
0000
0001
0100
0001
0000
1000
0010
1000
0000
0001
0010
0001
0000
,
2000
0000
0000
0000
0000
0000
0000
0000
3001
0100
0010
0100
0001
0100
0010
0000
,
1000
0100
0010
0001
1000
0001
1000
0000
0001
0100
0010
1000
0001
1000
0001
0000
,
0100
0010
0100
0010
1000
0001
1000
0001
0010
0100
0010
0100
1000
0100
0010
0001
,
1000
0000
0001
0100
0001
0000
1000
0100
0010
0001
0010
0001
1000
0010
0100
0001
,
0010
0000
0100
0010
0000
0100
0010
0000
0100
1000
0100
1000
0001
0100
0010
1000
,
0001
0010
0001
0010
0100
0000
1000
0010
1000
0010
0100
0000
0001
0100
0001
0100
,
0010
0000
1000
0010
0000
1000
0010
0100
0001
0000
0010
0001
0000
0010
0001
0010
,
0100
0000
1000
0000
0100
0010
0100
0010
0001
0010
0100
1000
0010
0100
0010
0100
,
0010
1000
0100
0010
0001
0000
0100
0001
0010
0100
1000
0000
0100
0010
0100
0010
,
0001
0100
0001
0100
0010
0000
1000
0100
1000
0100
0010
0000
0001
0010
0001
0010
,
0100
0000
1000
0010
1000
0010
0100
0000
0001
0010
0001
0010
0100
1000
0100
0010
,
0001
0000
1000
0100
1000
0000
0001
0100
0010
1000
0010
1000
0001
0010
0100
1000
,
0010
0000
0100
0010
0000
0100
0010
0000
0100
0001
0100
0001
1000
0100
0010
0001
,
1000
0010
1000
0010
0100
0000
0001
0010
0001
0010
0100
0000
1000
0100
1000
0100
,
0010
0000
0001
0010
0000
0001
0010
0100
1000
0000
0010
1000
0000
0010
1000
0010
,
0100
0000
0001
0000
0100
0010
0100
0010
1000
0010
0100
0001
0010
0100
0010
0100
,
0010
0001
0100
0010
1000
0000
0100
1000
0010
0100
0001
0000
0100
0010
0100
0010
,
1000
0100
1000
0100
0010
0000
0001
0100
0001
0100
0010
0000
1000
0010
1000
0010
,
0100
0000
0001
0010
0001
0010
0100
0000
1000
0010
1000
0010
0100
0001
0100
0020
,
2000
0000
0000
3030
,
0202
0000
0000
0303
,
2200
0000
0000
3300
,
0022
0000
0000
0033
,
1001
0000
0000
0000
;
