#TITLE:STARLIGHT DANCEHALL;
#SUBTITLE:;
#ARTIST:P*Light;
#TITLETRANSLIT:;
#SUBTITLETRANSLIT:;
#ARTISTTRANSLIT:;
#GENRE:;
#CREDIT:;
#MUSIC:STARLIGHT DANCEHALL.ogg;
#BANNER:STARLIGHT DANCEHALL-bn.png;
#BACKGROUND:STARLIGHT DANCEHALL-bg.png;
#CDTITLE:;
#SAMPLESTART:89.492;
#SAMPLELENGTH:15.000;
#SELECTABLE:YES;
#OFFSET:0.000;
#BPMS:0.000=177.000
,200.000=88.500
,216.000=177.000
;
#STOPS:;
#BGCHANGES:0.000=STARLIGHT DANCEHALL.mp4=1.000=0=0=0=StretchNoLoop====,
99999.000=-nosongbg-=1.000=0=0=0=StretchNoLoop====
;
#FGCHANGES:;

//--------------- dance-single - ----------------
#NOTES:
     dance-single:
     :
     Beginner:
     3:
     0.196189,0.301272,0.120165,0.094416,0,160,146,14,11,0,0,0.196189,0.301272,0.120165,0.094416,0,160,146,14,11,0,0:
0000
0000
0000
0000
,
0000
0000
0000
0000
,
0000
0000
0000
0000
,
0000
0000
0000
0000
,
0000
0000
0000
0000
,
0000
0000
0000
0000
,
0000
1000
0000
1000
,
0000
0001
0000
0001
,
0000
1000
0000
0000
,
0001
0000
1000
0000
,
0002
0000
0003
0000
,
0001
0000
0001
0000
,
2000
0000
3000
0000
,
1000
0000
1000
0000
,
0001
0000
0001
0000
,
1000
0000
1000
0000
,
0200
0000
0300
0000
,
0110
0000
0000
0000
,
0010
0000
0010
0000
,
1000
0000
1000
0000
,
0001
0000
0000
0000
,
0100
0000
0000
0000
,
0010
0000
0010
0000
,
0100
0000
0100
0000
,
0001
0000
0000
0000
,
1000
0000
0000
0000
,
0002
0000
0003
0000
,
0200
0000
0300
0000
,
0010
0000
0000
0000
,
1000
0000
0000
0000
,
2000
0000
3000
0000
,
0020
0000
0030
0000
,
0200
0000
0300
0000
,
0110
0000
0000
0000
,
0100
0000
0100
0000
,
0010
0000
1000
0000
,
0001
0000
0000
0000
,
1000
0000
0000
0000
,
0001
0000
0001
0000
,
1000
0000
0010
0000
,
0100
0000
0000
0000
,
0010
0000
0000
0000
,
2000
0000
3000
0000
,
1000
0000
1000
0000
,
0002
0000
0003
0000
,
0001
0000
0001
0000
,
0200
0000
0300
0000
,
0100
0000
0100
0000
,
0020
0000
0030
0000
,
1001
0000
0000
0000
,
1000
0000
1000
0000
,
0100
0000
0100
0000
,
0010
0000
0010
0000
,
0001
0000
0001
0000
,
0002
0000
0003
0000
,
0001
0000
0001
0000
,
2000
0000
3000
0000
,
1000
0000
1000
0000
,
0001
0000
0001
0000
,
1000
0000
1000
0000
,
0200
0000
0300
0000
,
0110
0000
0000
0000
,
0010
0000
0010
0000
,
0100
0000
0000
0000
,
1000
0000
1000
0000
,
0001
0000
0000
0000
,
0001
0000
0001
0000
,
0100
0000
0000
0000
,
0100
0000
0100
0000
,
1001
0000
0000
0000
,
0100
0000
0100
0000
,
0001
0000
1000
0000
,
0010
0000
0010
0000
,
1000
0000
0001
0000
,
1000
0000
1000
0000
,
0100
0000
0010
0000
,
0001
0000
0001
0000
,
0100
0000
0010
0000
,
1001
0000
0000
0000
;

//--------------- dance-single - ----------------
#NOTES:
     dance-single:
     :
     Easy:
     6:
     0.351913,0.480662,0.274664,0.214581,0,287,255,32,25,0,0,0.351913,0.480662,0.274664,0.214581,0,287,255,32,25,0,0:
0000
0000
0000
0000
,
0000
0000
0000
0000
,
0000
0000
0000
0000
,
0000
0000
0000
0000
,
0000
0000
0000
0000
,
0000
0000
0000
0000
,
0100
1000
0000
1000
,
0001
1000
0000
0001
,
0010
0001
0000
0010
,
0200
0300
0010
0010
,
0001
0001
0001
0001
,
0010
0010
0100
0000
,
1000
1000
1000
1000
,
0010
0010
0100
0000
,
0010
0010
0010
0000
,
0100
0100
0100
0000
,
2000
3000
0002
0003
,
2002
0000
0000
3003
,
1000
0100
1000
0000
,
0001
0010
0001
0000
,
1000
0001
1000
0000
,
0001
1000
0002
0003
,
0100
0001
0100
0000
,
0010
1000
0010
0000
,
1000
0000
1001
0000
,
0001
0001
1001
0000
,
0200
0000
0310
0010
,
0020
0000
0130
0100
,
1000
1000
0001
0000
,
0001
0001
1000
0000
,
2000
0000
3001
0001
,
0002
0000
1003
1000
,
0020
0030
0200
0300
,
1000
0001
0000
1001
,
1000
0100
0000
1000
,
0010
0100
0001
0010
,
0100
0000
0010
0000
,
0001
0000
1000
0000
,
0001
0100
0000
0001
,
0010
0100
1000
0010
,
0100
0000
0010
0000
,
1000
0000
0001
0000
,
2000
0000
0100
0000
,
3100
0100
0010
0000
,
0002
0000
0100
0000
,
0103
0100
0010
0000
,
2000
0000
0010
0000
,
3010
0010
0100
0000
,
0002
0000
0010
0000
,
0013
0100
2002
3003
,
1000
1000
0100
0000
1000
1000
0010
0000
,
0100
0100
0010
0000
0100
0100
0001
0000
,
0001
0010
0001
0000
0100
0001
0100
0000
,
0010
0100
0010
0000
1000
0010
1000
0010
,
1000
1000
1000
1000
,
0010
0010
0100
0000
,
0001
0001
0001
0001
,
0010
0010
0100
0000
,
0010
0010
0010
0000
,
0100
0100
0100
0000
,
2000
3000
0002
0003
,
2002
0000
0000
3003
,
0001
0000
0010
0100
,
1000
0000
0010
0100
,
0001
0000
1000
0100
,
1000
0000
0001
0100
,
0001
0000
0100
0010
,
1000
0000
0100
0010
,
0001
0000
1000
0000
,
0220
0000
0330
1001
,
1000
1000
0100
0100
,
1000
1000
1001
0000
,
0100
0100
0010
0010
,
0100
0100
0110
0000
,
0001
0001
0010
0010
,
0001
0001
1001
0000
,
0010
0010
0100
0100
,
0010
0010
1000
0001
,
2002
0000
0000
0000
,
0000
0000
0000
0000
,
3003
0000
0000
0000
;

//--------------- dance-single - ----------------
#NOTES:
     dance-single:
     :
     Medium:
     11:
     0.534614,0.789659,0.154498,0.274664,0.154498,436,418,18,32,0,0,0.534614,0.789659,0.154498,0.274664,0.154498,436,418,18,32,0,0:
0000
0000
0000
0000
,
0000
0000
0000
0000
,
0000
0000
0000
0000
,
0000
0000
0000
0000
,
0000
0000
0000
0000
,
0000
0000
0000
0000
,
0010
0000
1000
0000
0000
0001
0010
0000
,
0100
1000
0100
0000
0000
0100
0010
0000
,
0001
0000
0100
0000
0000
0001
0010
0000
,
0100
1000
0100
0000
0010
0001
1000
0001
,
1000
1000
0100
0100
,
0010
0000
0010
0001
1000
0000
1001
0000
,
0001
0001
0010
0010
,
0100
0000
0100
1000
0010
0000
1001
0000
,
1000
1100
0001
0101
,
1000
1010
0001
0011
,
0200
0320
2030
3002
,
0013
0000
0100
0010
0001
0000
1001
0000
,
1000
0010
1000
0000
0001
0010
0001
0000
,
1000
0100
1000
0000
0001
0100
0001
0000
,
1000
0100
0010
0000
0100
0010
0001
0000
,
0001
0010
0100
0000
0010
0000
1001
0000
,
0001
0010
0001
0000
1000
0010
1000
0000
,
0001
0100
0001
0000
1000
0100
1000
0000
,
0010
0100
0101
0001
,
0100
0000
0110
0000
0001
0010
0100
1000
,
0001
0000
0000
0100
0000
0000
0010
0000
0000
0100
0000
0000
0001
0000
0000
0000
,
1000
0000
0000
0100
0000
0000
0010
0000
0000
0100
0000
0000
1000
0000
0000
0000
,
0010
0100
0010
0000
1000
0100
0010
0000
,
0100
0010
0100
0000
1000
0001
1000
0000
,
1000
0000
0000
1000
0000
0000
0100
0000
0000
0100
0000
0000
0010
0000
0000
0000
,
0001
0000
0000
0001
0000
0000
0100
0000
0000
0100
0000
0000
0010
0000
0000
0000
,
0200
0320
2030
3002
,
0013
0100
0010
0100
0000
1000
0001
0000
,
0001
0010
0100
1000
0000
1000
0100
0000
,
0010
0000
0001
0100
0000
0010
1000
0000
,
0100
0010
0100
0010
,
0001
1000
2002
3003
,
1000
0010
0100
0001
0000
0001
0100
0000
,
0010
0000
1000
0100
0000
0010
0001
0000
,
0100
0010
0100
0110
,
0010
1000
0000
0001
0010
0100
0000
0010
,
0002
0100
1000
0100
,
0013
0100
0000
0100
0010
0001
0000
0001
,
2000
0100
0001
0100
,
3010
0100
0000
0100
0010
1000
0000
1000
,
0200
0010
1000
0010
,
1300
0010
0000
0010
0100
0001
0000
0001
,
0020
0100
0001
0100
,
0031
0000
0001
1000
2002
0000
3003
0000
,
0001
0000
0100
0000
0010
0100
0010
0000
1000
0000
0100
0000
0010
0100
0010
0000
,
0001
0000
0100
0000
0010
0100
0010
0000
0100
0010
0100
0000
0001
1000
0001
0000
,
1000
0000
0100
0000
0010
0100
0010
0000
0001
0000
0100
0000
0010
0100
0010
0000
,
1000
0000
0100
0000
0010
0100
0010
0000
0100
0010
0100
0000
1000
0001
1000
0000
,
0001
0001
0100
0100
,
0010
0000
0010
1000
0001
0000
1001
0000
,
1000
1000
0010
0010
,
0100
0000
0100
0001
0010
0000
1001
0000
,
0001
0101
1000
1100
,
0001
0011
1000
1010
,
0200
0320
0032
2003
,
3010
0000
0100
0010
1000
0000
1001
0000
,
0001
0000
0000
0100
0000
0000
0010
0000
0000
1000
0000
0000
0001
0000
0000
0000
,
1000
0000
0000
0010
0000
0000
0100
0000
0000
0001
0000
0000
0100
0000
0000
0000
,
0010
0000
0000
0100
0000
0000
0001
0000
0000
1000
0000
0000
0100
0000
0000
0000
,
0010
0000
0000
0010
0000
0000
0100
0000
0000
0100
0000
0000
1001
0000
0000
0000
,
1000
0000
0000
0100
0000
0000
0010
0000
0000
0001
0000
0000
1000
0000
0000
0000
,
0001
0000
0000
0010
0000
0000
0100
0000
0000
1000
0000
0000
0100
0000
0000
0000
,
0010
0000
0000
0100
0000
0000
1000
0000
0000
0001
0000
0000
0100
0000
0000
0000
,
0010
0000
0000
1000
0000
0000
0100
0000
0000
0010
0000
0000
1001
0000
0000
0000
,
0002
0000
0100
0000
1003
0100
1000
0000
,
2000
0000
0010
0000
3010
0100
0001
0000
,
2000
0000
0100
0000
3100
0010
0001
0000
,
1000
0001
1000
0000
0001
1000
0001
0000
,
0001
0101
1000
1100
,
0001
0011
1000
1010
,
0200
0320
0032
2003
,
3010
0010
0010
0000
0100
0010
1000
0000
,
2002
0000
0000
0000
,
0000
0000
0000
0000
,
3003
0000
0000
0000
;

//--------------- dance-single - ----------------
#NOTES:
     dance-single:
     :
     Hard:
     15:
     0.656005,0.926991,0.257497,0.137332,0.360496,535,505,30,16,0,0,0.656005,0.926991,0.257497,0.137332,0.360496,535,505,30,16,0,0:
0000
0000
0000
0000
,
0000
0000
0000
0000
,
0000
0000
0000
0000
,
0000
0000
0000
0000
,
0000
0000
0000
0000
,
0000
0000
0000
0000
,
0001
0000
1100
0000
0010
0001
0100
0000
,
0010
1000
0100
0000
0010
0001
1000
0000
,
0010
0000
1001
0000
0100
0010
1000
0000
,
0001
0010
0100
0000
0010
0001
0100
0010
,
2000
0010
0010
0010
,
3010
0000
0100
0001
0010
0000
2002
3003
,
0002
0010
0010
0010
,
0013
0000
0100
1000
0010
0000
2002
3003
,
0001
0100
0001
0100
0010
1000
0010
1000
,
0100
0010
0001
1000
0010
0100
0001
1000
,
0100
0000
0010
0000
0100
0000
0010
0000
0001
1000
0001
0000
1000
0001
1000
0001
,
1000
0000
0010
0001
2000
3000
2002
3003
,
1000
0010
1000
0100
1000
0010
1000
0100
,
0010
0001
1000
0001
0010
0100
1000
0100
,
0010
0001
0001
0001
0100
0010
1000
0000
,
0010
0000
1000
0000
1000
0000
1000
0000
0100
0000
0010
0001
0010
0000
0010
0000
,
0001
0010
0100
0010
0001
1000
0010
1000
,
0100
0010
0001
0010
0100
1000
0001
1000
,
0010
0000
0010
0000
1010
0100
0010
0000
,
0101
0000
0001
0100
0001
0000
0010
0000
0100
0000
0010
0000
0100
0000
0010
0000
,
0001
0000
0000
0001
0100
0000
0010
0000
1000
0001
0000
0000
0001
0000
1000
0001
,
1000
0000
0000
1000
0100
0000
0010
0000
0001
1000
0000
0000
0001
0000
0001
1000
,
0001
1000
0100
0010
0001
1000
0001
0000
,
1000
0000
0010
0000
0100
0000
0001
0000
0010
0000
0100
0010
0100
0000
0010
0000
,
0001
0000
0010
0000
0001
0000
0010
0000
0100
0000
1000
0000
0100
0000
1000
0001
,
1000
0000
0010
0000
1000
0000
0010
0000
0100
0000
0001
0000
0100
0000
0001
1000
,
0001
0000
0100
0000
0010
0000
0100
0000
0001
1000
0001
0000
1000
0001
1000
0001
,
1000
0000
0100
0000
0010
0000
0100
0000
0000
0100
1000
0000
0001
0000
0000
0000
,
1000
0100
0010
0001
0000
0001
0010
0100
,
1000
0000
0000
0000
0001
0000
0100
0000
0000
0000
0010
1000
0001
0000
0000
0000
,
1000
0100
0010
0000
0010
0100
1000
0000
,
0001
0100
0010
0000
0010
0100
1001
0000
,
0001
0100
0010
1000
0000
1000
0010
0100
,
0001
0000
0000
0000
1000
0000
0100
0000
0000
0000
0010
0001
1000
0000
0000
0000
,
0001
0100
0010
0000
0010
0100
0001
0000
,
1000
0000
0100
0000
0000
0000
0100
0000
1000
0000
0010
0000
0000
0000
0100
0001
,
0100
0010
0100
0000
0010
0100
0001
0000
,
0100
0000
0010
0000
0000
0000
1000
0000
0001
0000
0010
0000
0000
0000
0100
0010
,
0100
0010
0100
0000
1000
0010
1000
0000
,
0100
0000
0010
0000
0000
0000
0001
0000
1000
0000
0010
0000
0000
0000
0010
0100
,
0010
1000
0010
1000
0001
0100
0001
0100
,
0010
0100
0001
0100
0010
1000
0010
0100
,
0001
0000
0100
0000
0010
0000
0100
0000
0001
1000
0001
0000
1000
0001
1000
0001
,
1000
0000
0100
0010
0220
0000
0330
0000
,
0001
0000
0011
0000
0001
0010
0100
0000
1000
0000
1100
0000
1000
0010
0100
0000
,
0010
0000
0110
0000
0100
0001
1000
0000
0100
1000
0001
0000
0100
0010
0100
0010
,
1000
0000
1010
0000
1000
0010
0100
0000
0001
0000
0101
0000
0001
0010
0100
0000
,
0010
0000
0110
0000
0100
1000
0001
0000
0100
0001
1000
0000
0100
0010
0100
0010
,
0002
0010
0010
0010
,
0013
0000
0100
1000
0010
0000
1001
0000
,
2000
0010
0010
0010
,
3010
0000
0100
0001
0010
0000
1001
0000
,
1000
0000
0100
0000
1000
0000
0100
0000
0010
0000
0001
0010
0000
0010
0001
0000
,
0100
0000
0010
0000
1000
0000
0001
0000
0010
0100
0000
0100
1000
0000
0001
0000
,
0100
0001
0100
0000
0001
1000
0001
0000
1000
0010
1000
0010
0100
0001
0100
0001
,
0100
0000
0010
1000
0001
0000
1001
0001
,
1000
0000
0000
1000
0100
0000
0010
0000
0001
1000
0000
0000
0100
0000
1000
0000
,
0001
0000
0000
0001
0010
0000
0100
0000
1000
0100
0000
0000
0100
0010
0001
1000
,
0010
0000
0000
0010
0100
0000
0001
0000
1000
0100
0000
0000
0100
1000
0001
0100
,
0010
0000
0000
0010
0100
0000
0010
0000
1000
0001
0000
0000
1001
0000
0000
0000
,
0001
0000
0000
0001
0100
0000
0010
0000
1000
0010
0000
0000
0100
0000
0010
0000
,
1000
0000
0000
1000
0010
0000
0010
0000
0100
0001
0000
0000
0100
0010
1000
0001
,
0010
0000
0000
0010
0100
0000
1000
0000
0001
0100
0000
0000
0100
0001
1000
0100
,
0010
0000
0000
0011
0000
0000
0110
0000
0000
1100
0000
0000
2002
0000
3003
0000
,
1000
0000
0000
1000
0100
0000
0010
0000
0001
0100
0000
0000
0001
1000
0001
1000
,
0001
0000
0000
0001
0010
0000
0100
0000
1000
0100
0000
0000
1000
0001
1000
0001
,
0100
0000
0000
0100
0001
0000
0010
0000
0100
1000
0000
0000
0010
0000
0100
0000
,
0010
0000
1000
0010
1000
0000
0001
0000
0010
0100
0010
0000
1001
0000
0000
0000
,
0001
0000
0100
0000
0001
0000
0100
0000
0010
0000
1000
0000
0010
1000
0010
1000
,
0100
0000
0010
0000
0001
0000
1000
0000
0010
0000
0100
0000
0001
1000
0001
0000
,
1000
0000
0010
0000
0100
0000
0010
0000
1000
0001
1000
0000
0001
1000
0001
1000
,
0010
0010
0010
0000
0100
0010
1000
0001
,
2002
0000
0000
0000
,
0000
0000
0000
0000
,
3003
0000
0000
0000
;

//--------------- dance-single - ----------------
#NOTES:
     dance-single:
     :
     Challenge:
     15:
     0.762683,1.167322,0.429162,0.197415,0.270372,622,572,50,23,0,0,0.762683,1.167322,0.429162,0.197415,0.270372,622,572,50,23,0,0:
0000
0000
0000
0000
,
0000
0000
0000
0000
,
1001
1001
1000
1000
,
0001
0000
0001
0000
1010
0001
0100
0000
,
1001
1001
0001
0001
,
1000
0000
1000
0000
0011
1000
0100
0000
,
0001
0101
1000
1100
,
0010
0011
0010
1010
,
0100
0010
1000
0001
0100
0010
1000
0001
,
0010
0100
1000
0001
0010
0100
1000
0001
,
1000
0100
0010
0001
0100
0010
1000
0001
,
0010
0100
1000
0001
0100
0010
0010
0000
,
1000
0100
0010
0001
1000
0010
0100
0001
,
1000
0100
0010
0001
1000
0010
0010
0010
,
0010
0001
1000
0010
0100
0001
1001
0000
,
0100
0010
0001
1000
0100
0010
1001
0000
,
0100
0010
1000
0100
0010
0001
1000
0010
,
0100
0001
1000
0100
0010
0001
0101
0000
,
0001
0010
1000
0010
0001
0100
0001
0010
,
0001
0100
1000
0100
0001
0010
0100
1000
,
1000
0010
0001
0010
1000
0100
1000
0010
,
1000
0100
0001
0100
1000
0010
0100
0001
,
1000
0000
0000
0000
0010
0000
0000
0000
0100
0000
0010
0000
1000
0010
1000
0000
,
0001
0000
0000
0000
0100
0000
0000
0000
0010
0000
0100
0000
0010
1000
0010
0000
,
1000
0100
1000
0000
0001
0000
0001
0000
0001
0100
0001
0000
1000
0000
1000
0000
,
0001
0100
0001
0000
1000
0010
1000
0000
0001
0100
0001
0000
1000
0010
1000
0000
,
0010
0000
0000
1000
0001
0000
0000
0000
0110
0000
0000
0100
0001
0000
0000
0010
,
0100
0000
1000
0000
0001
0000
0000
0000
0110
0000
0000
0001
0010
0000
0000
1000
,
0100
0000
0010
0000
0000
0000
1000
0000
0000
0000
0001
0000
0000
0000
1000
0100
,
1000
0000
0000
0000
0001
0000
0000
0000
0100
0000
0000
0001
1000
0000
0000
0100
,
1000
0010
0000
0100
0000
0100
0010
0000
0010
1000
0000
0100
0000
0010
0000
0000
,
0001
0100
1000
0100
0001
0010
0100
1000
,
0001
0010
0000
0100
0000
0100
0000
0000
0010
0001
0000
0000
0000
0100
0000
0000
,
1000
0100
0001
0010
0100
1000
0001
0100
,
0100
0010
0100
0001
0100
0010
1000
0000
,
0100
0010
0100
1000
0100
0010
0001
0000
,
0010
0100
0010
1000
0010
0100
0010
0001
,
0100
0010
1000
0000
0001
0010
0100
0000
,
0010
0001
1000
0100
1000
0010
0100
0010
,
0001
1000
0100
0001
0010
0100
1000
0010
,
0100
1000
0001
0010
1000
0100
0010
0001
,
0100
0000
0010
0000
0100
0000
0001
0000
1000
0100
0000
0000
0100
1000
0000
0000
,
1000
0100
1000
0000
0001
0010
0001
0000
,
1000
0100
0010
0001
0100
0000
0110
0000
,
0001
0100
0001
0000
1000
0010
1000
0000
,
0001
0100
0010
1000
0100
0010
0110
0000
,
0001
1000
0010
0100
0001
1000
0010
0100
,
0010
0000
1010
0000
0001
0010
0000
0010
,
0100
0000
1000
0000
0001
1000
0010
0000
0100
0000
0100
0000
0010
0000
0010
0000
,
0220
0330
2002
3003
,
2020
3030
0000
0000
0100
0000
0110
0000
0000
0000
0100
0000
0001
0000
0100
0000
0202
0303
0000
0000
0010
0000
0110
0000
0000
0000
0100
0000
1000
0000
0100
0000
,
2200
3300
0000
0000
0011
0000
0000
0000
0202
0303
0000
0000
1010
0000
0000
0000
2002
3003
0100
0000
0010
0000
0000
0000
0220
0330
0001
0000
1000
0000
0000
0000
,
1010
0000
0001
0100
0010
1000
0011
0000
0101
0000
1000
0010
0100
0001
1100
0000
,
0011
0000
1000
0100
0010
0001
1010
0000
1100
0000
0001
0010
0100
1000
0101
0000
,
0001
0010
0100
1000
0001
0010
0100
1000
,
0010
0000
0000
0010
0000
0000
0010
0000
1000
0000
0100
0000
0010
0000
0000
0000
,
0001
0000
0010
0000
0100
0000
1000
0000
0001
0000
0010
0000
0100
0000
1000
0100
,
1000
0010
0100
0000
0100
0010
1010
0000
,
0001
0010
0100
1000
0001
0010
0100
1000
,
0010
0000
0100
0010
0000
0100
0010
0000
1000
0000
0100
0000
0010
0000
0000
0000
,
0001
0010
0100
1000
0001
0010
0100
1000
,
0010
0010
0100
0100
0001
0001
1000
0000
,
0001
0010
1000
0010
0001
0010
1000
0010
,
0001
0100
0010
1000
0100
0010
0001
0000
,
2100
0000
3010
0000
0102
0000
0013
0000
1100
0000
0010
0001
0000
0100
0001
0000
,
0012
0000
0103
0000
2010
0000
3100
0000
0011
0000
0100
1000
0000
0001
0100
0000
,
0110
0000
1010
0000
0001
0100
1000
0100
,
0010
1000
0010
0100
0001
0000
0000
0000
1000
0000
0001
0000
1000
0000
0001
0000
,
1000
0100
0010
0001
1000
0100
0010
0001
,
1000
0001
1000
0000
0101
0000
1100
0000
,
2000
0000
0000
0000
0010
0000
0000
0000
3010
0000
0100
0000
0100
0010
0100
0000
,
0001
1000
0001
0000
1000
0001
1000
0000
0001
0000
0100
0000
0010
0000
0001
0000
,
1000
0000
0100
1000
0010
0100
0001
0100
,
0010
0100
0001
0010
1000
0010
0001
1000
,
0010
0000
1000
0100
1000
0010
1000
0010
,
0001
0010
0001
0100
0001
0100
1000
0100
,
1000
0010
1000
0010
0001
0010
0001
0100
,
0001
0000
0100
0000
1000
0010
0100
0010
1000
0000
0001
0010
0100
0010
0001
0000
,
0202
0000
0000
0000
,
0000
0000
0000
0000
,
0303
0000
0000
0000
;
