#TITLE:ピアノ協奏曲第1番"蠍火" (BlackY Remix);
#SUBTITLE:;
#ARTIST:Remixed by BlackY;
#TITLETRANSLIT:Piano kyousoukyoku dai 1-ban "Sasoribi" (BlackY Remix);
#SUBTITLETRANSLIT:;
#ARTISTTRANSLIT:;
#GENRE:;
#CREDIT:;
#MUSIC:Piano kyousoukyoku dai 1-ban Sasoribi (BlackY Remix).ogg;
#BANNER:Piano kyousoukyoku dai 1-ban Sasoribi (BlackY Remix).png;
#BACKGROUND:Piano kyousoukyoku dai 1-ban Sasoribi (BlackY Remix)-bg.png;
#CDTITLE:;
#SAMPLESTART:73.055;
#SAMPLELENGTH:15.000;
#SELECTABLE:YES;
#OFFSET:-0.117;
#BPMS:0.000=160.000;
#STOPS:;
#BGCHANGES:;
#FGCHANGES:;

//--------------- dance-single - ----------------
#NOTES:
     dance-single:
     :
     Beginner:
     6:
     0,0,0,0,0:
0000
0000
0000
0000
,
0000
0000
0000
0000
,
0000
0000
0000
0000
,
0000
0000
0000
0000
,
0000
0000
0000
0000
,
1000
1000
1000
0100
,
0001
0001
0100
0010
,
1000
0000
0001
0000
,
0100
0000
0000
0010
0000
0000
1000
0000
,
0001
0000
0000
2002
0000
0000
0000
0000
,
0000
0000
0000
0000
,
0000
0000
0000
0000
,
0000
0000
3003
0000
,
1001
0000
0100
0000
,
0010
0000
0001
1000
,
0001
0000
0100
0000
,
0010
0000
1000
0001
,
1000
0000
0100
0000
,
0010
0000
0001
1000
,
0001
0000
0010
0100
,
0000
0010
0010
1001
,
1000
0100
1000
0010
,
0100
0010
1000
0000
,
0001
0010
0001
0100
,
0010
1000
0001
0000
,
1000
0001
0010
0001
,
0100
0010
1000
0001
,
0020
0000
0130
0000
,
1000
0001
2002
3003
,
2000
0000
0000
3100
,
0002
0000
0000
0103
,
2000
0000
0001
3001
,
0002
0000
1000
1003
,
0020
0000
0130
0100
,
0002
0000
1003
1000
,
0200
0300
0020
0030
,
0001
1000
0001
1000
,
1001
1000
0001
0000
,
1001
0001
1000
0000
,
0110
0100
0010
0000
,
0110
0010
0100
0000
,
1001
1000
0100
0000
,
1001
0001
0100
0000
,
0110
0000
1001
0000
,
0100
0000
0000
0010
0000
0000
0100
0000
,
0002
0003
2000
3000
,
0220
0000
0000
0000
,
0000
0000
0000
0000
,
0330
0000
0000
0000
,
1001
0000
1000
0100
,
0010
0000
0001
0100
,
0010
0000
1000
0100
,
0010
0000
0001
1000
,
0100
0000
1000
0001
,
0010
0000
0100
1000
,
0100
0000
0010
0000
,
0001
1000
0001
0000
,
1001
0001
0100
0000
,
0010
0100
0001
0000
,
1000
0001
0100
0000
,
0010
0000
1000
0001
,
0100
0000
0010
1000
,
0001
0000
0100
0001
,
0200
0300
0020
0030
,
2002
0000
3003
0000
,
1001
0000
0100
0000
,
1001
0000
0010
0000
,
0110
0000
1000
0000
,
0110
0000
0001
0000
,
1001
0000
0110
0000
,
1001
0000
0110
0000
,
1000
0100
0010
0001
,
0200
0000
0301
0000
,
0001
0010
0100
1000
,
0200
0000
1300
0000
,
0002
0000
0000
1003
,
2000
0000
0000
3001
,
1001
0000
0100
0000
,
0100
0000
0100
0000
,
1001
0000
0010
0000
,
0010
0000
0010
0000
,
1001
0000
0110
0000
,
1001
0000
0110
0000
,
0010
0010
1000
1000
,
0001
0001
0100
0100
,
0010
2002
0000
0000
,
0000
0000
0000
0000
,
0000
0000
0000
0000
,
0000
0000
3003
0000
;

//--------------- dance-single - ----------------
#NOTES:
     dance-single:
     :
     Easy:
     9:
     0,0,0,0,0:
0000
0000
0000
0000
,
0000
0000
0000
0000
,
0000
0000
0000
0000
,
0000
0000
0000
0000
,
0000
0000
0000
0000
,
2000
0100
0001
3010
,
0002
0100
1000
0010
,
0103
0110
0010
1000
,
0001
0000
0000
0010
0000
0000
0100
0000
,
1000
0000
0000
2002
0000
0000
0000
0000
,
0000
0000
0000
0000
,
0000
0000
0000
0000
,
0000
0000
0000
0000
3003
0000
1000
0001
,
1000
1000
0100
0100
,
0010
0001
1000
0010
,
0100
0001
0010
0001
,
0100
0000
0010
0000
1000
0000
0001
1000
,
0001
0001
0100
0100
,
0010
1000
0001
0100
,
0010
0000
1000
0000
0200
0000
0000
0310
,
0000
0001
0010
0000
0100
0000
1000
0000
,
1001
0001
0010
0010
,
0100
1000
0010
0100
,
0001
0010
0001
0100
,
0010
0000
1000
0000
0001
0000
1000
0001
,
1000
1000
0010
0010
,
0100
0001
1000
0010
,
0220
0000
0330
0000
0001
0010
0001
0000
,
0010
0100
1001
0110
,
2000
0100
0001
3100
,
0002
0100
1000
0103
,
2000
0010
0001
3010
,
0002
0010
1003
1001
,
0010
0000
2010
0000
0100
0000
3001
0010
,
0001
0012
1000
0103
,
0020
1030
0200
0301
,
0020
2030
3002
0103
,
0101
0001
0100
0010
,
0110
0010
1000
0100
,
1100
0100
0010
0001
,
0100
0000
0010
0000
1000
0000
0001
1000
,
0001
0000
0010
0000
0100
0000
1000
0001
,
1000
0100
1100
0011
,
0101
0000
1100
0000
,
1000
0000
0000
0001
0000
0000
1000
0000
,
0020
0000
0200
0330
,
2002
0000
0000
0000
,
0000
0000
0000
3003
,
0002
0023
0130
1000
,
1100
0000
0100
0000
0010
0100
0010
0000
,
0001
1000
0001
0000
0100
0000
0010
1000
,
0010
0000
0100
0000
0001
0010
0001
0000
,
2200
3300
0101
0100
,
0001
0000
0010
0000
0100
1000
0100
0000
,
1000
0000
0010
1000
0010
0000
0100
0000
,
0001
0010
0001
0000
1000
0010
1000
0000
,
0001
1000
0001
0000
1001
0000
1000
0001
,
1000
0000
0010
0000
0100
0001
0100
0000
,
0001
0100
0001
0000
0010
0000
0100
0010
,
0100
0000
1000
0000
0001
1000
0001
0000
,
0022
0033
1010
0010
,
1000
0000
0100
0000
0010
0001
0010
0000
,
0001
0100
0001
0000
0100
0000
0010
0000
,
2000
0000
0002
3003
,
0010
0100
2002
3003
,
1100
0001
0101
1000
,
1010
0001
0011
1000
,
1100
0010
0101
1000
,
0110
0001
1010
0100
,
0001
0001
0000
0000
1000
1000
0000
0000
,
0001
0001
0000
0000
1000
1000
0000
0000
,
0002
0010
1000
0100
,
0013
0000
0100
0000
1000
0001
1000
0000
,
2000
0010
0001
0100
,
3010
0000
0100
0000
0001
1000
0001
0000
,
2000
0001
0001
3001
,
0002
1000
1000
1003
,
1001
0000
1000
0100
1000
0000
0001
0100
,
0001
0000
1000
0010
1000
0000
0001
0010
,
0001
0000
0100
0010
0100
0000
0001
1000
,
0001
0000
0010
0100
0010
0000
0001
1000
,
0001
0000
1000
0100
0010
0000
0100
0010
,
0001
0000
0010
0100
1000
0000
1001
0000
,
0101
0100
0110
0010
,
1010
1000
1001
0001
,
1000
2002
0000
0000
,
0000
0000
0000
0000
,
0000
0000
0000
0000
,
0000
0000
3003
0000
;

//--------------- dance-single - ----------------
#NOTES:
     dance-single:
     :
     Medium:
     13:
     0,0,0,0,0:
0000
0000
0000
0000
,
0000
0000
0000
0000
,
0000
0000
0000
0000
,
0000
0000
0000
0000
,
0000
0000
0000
0000
,
0001
1000
0100
0010
0001
0010
0100
0000
,
1000
0001
0100
0000
0010
0100
0010
1000
,
0001
0000
0000
0001
1000
0000
0000
0000
0100
0000
0010
0000
0100
0000
0010
0000
,
0001
0000
0000
0100
0000
0000
0010
0000
0000
1000
0000
0000
0100
0000
0010
0000
,
0001
0000
0000
1000
0000
0000
2002
0000
0000
0000
0000
0000
0000
0000
0000
0000
,
0000
0000
0000
0000
,
0000
0000
0000
0000
,
0000
0000
0000
0000
3003
0000
1000
0010
,
1010
0100
0001
1000
,
0110
0001
1000
0010
,
0101
1000
0110
0001
,
0011
0000
1100
0000
1010
0000
0001
0100
,
0101
0000
0010
0000
1000
0000
0100
0010
,
0010
0000
0000
0000
1001
0000
0000
0000
0001
0000
0000
0100
0000
0000
0001
0000
,
0010
0000
0000
0000
0000
0000
0000
0000
0000
0000
0000
0000
0100
0000
0000
0000
1000
0000
0000
0000
0100
0000
0000
0000
1000
0000
0000
0000
0000
0000
0000
0000
0000
0010
0000
0000
0000
0000
0000
0000
0000
0000
1010
0000
0000
0000
0000
0000
,
0000
0000
0100
0000
0010
0000
0000
0010
0100
0000
0000
0100
0001
0000
0000
0000
,
1000
0000
0000
0100
1000
0000
0000
0000
0001
0000
0000
0100
0001
0000
0000
0000
,
1000
0000
0000
0010
1000
0000
0000
0000
1010
0000
0000
0000
0101
0000
0000
0000
,
0001
0000
0000
0100
0001
0000
0000
0000
1000
0000
0000
0100
1000
0000
0000
0000
,
0001
0000
0000
0010
0001
0000
0000
0000
1000
0000
0000
0100
1000
0000
0010
0000
,
0100
0000
0000
0001
1000
0000
0000
0000
0010
0000
0000
0100
0001
0000
0000
0000
,
1000
0000
0000
0100
0010
0000
0000
0000
0001
0000
0000
0100
0010
0000
0000
0000
,
2000
0000
3100
0010
0001
0010
0100
1000
,
0001
0000
0100
0000
0010
0000
0000
0000
1001
0000
0000
0110
0000
0000
1001
0000
,
2000
0000
0100
0000
3100
0000
0000
0000
1000
0000
0000
0010
0000
0000
0100
0000
,
0002
0000
0100
0000
0103
0000
0000
0000
0001
0000
0000
0010
0000
0000
0100
0000
,
2000
0000
0010
0000
3010
0000
0000
0000
1000
0000
0000
0100
0000
0000
0010
0000
,
0002
0000
0010
0000
0013
0000
0000
0000
0010
0000
0000
0100
0000
0000
1000
0000
,
0002
0000
0100
0000
0103
0000
0000
0000
0001
0000
0000
0010
0000
0000
0100
0000
,
2000
0000
0100
0000
3100
0000
0000
0000
1000
0000
0000
0010
0000
0000
0100
0000
,
0002
0000
1003
0100
0010
0001
0010
0100
,
2000
3002
0203
0320
,
1030
0000
1000
0100
0000
0100
0010
0000
0010
0001
0000
0000
,
0100
0000
0100
0010
0000
0010
1000
0000
1000
0001
0000
0000
,
0010
0000
0010
0100
0000
0100
1000
0000
1000
0001
0000
0000
,
0100
0000
0100
0010
0000
1000
0100
0000
0010
0001
0000
0000
,
0101
0000
0100
0010
0000
0100
0001
0000
1000
0100
0000
0000
,
1100
0000
0000
0000
0000
0000
0000
0000
0100
0000
0000
0000
1000
0000
0000
0000
0000
0000
0000
0000
0010
0000
0000
0000
0200
0000
0000
0000
0000
0000
0000
0000
0000
0001
0000
0000
0000
0000
0000
0000
0000
0000
0001
0000
0000
0000
0000
0000
,
0301
0000
0000
0011
0000
0000
1000
0000
0010
0000
0100
0000
,
0001
0000
0000
0101
0000
0000
1000
0000
0000
1100
0000
0000
0100
0000
0010
0000
,
0002
0000
2000
3003
,
0001
0000
0000
0010
0000
0010
0100
0000
1000
0000
0010
0100
0000
0100
0000
0220
,
0000
0000
0000
0330
,
0100
0000
0010
0000
1000
0000
0001
1000
0001
0000
0001
0000
0010
0000
0100
0000
,
1000
0000
0000
0000
1100
0000
0000
0000
1000
0000
0100
0000
0010
0000
0001
1000
,
0001
0000
0100
0000
0001
0000
0000
0000
0100
0000
0010
0000
1000
0001
1000
0001
,
1000
0000
0000
0000
1010
0000
0000
0000
1000
0010
1000
0000
0001
0100
0001
0000
,
0010
0000
0000
0000
0001
0000
1000
0010
1000
0000
0000
0000
0100
0000
0010
0001
,
0010
0000
0001
0100
0010
1000
0010
0100
,
0001
0000
0000
0000
1000
0001
1000
0001
1000
0000
0100
0000
0010
0000
0001
0000
,
1000
0000
0000
1000
0010
0000
0000
0000
0100
0001
0100
0000
0010
1000
0010
0000
,
0100
0010
0100
0000
0001
1000
0001
0000
0010
0000
0010
0000
0100
0000
1000
0000
,
0002
0000
0103
0010
1000
0001
0020
0000
,
0230
0000
1000
0000
1300
0000
0000
0000
0010
0000
0100
0000
0001
1000
0001
1000
,
0002
0000
0103
0000
0020
0230
0302
2003
,
3200
0000
0000
0000
1300
0001
1000
0001
1000
0000
0000
0000
1001
0000
0000
0000
,
0200
0000
0000
0000
0310
0000
1000
0000
0001
0000
0000
0000
0100
0010
0100
0010
,
0200
0000
0000
0000
0310
0000
1000
0000
0001
0000
0000
0001
0100
0000
0001
0000
,
1000
0000
0000
1000
0100
0000
0010
0000
0001
0000
0000
0001
0100
0000
0010
0000
,
2000
0000
0000
3001
0000
1000
0000
1001
0000
0000
0010
0100
0010
0000
0000
0000
,
1000
0000
0000
1000
0100
0000
0000
0000
0001
0000
0000
0001
0100
0000
0000
0000
,
1000
0000
0000
1000
0010
0000
0000
0000
0001
0000
0000
0001
0010
0000
0000
0000
,
1000
0000
0000
0100
0010
0000
0000
0000
0001
0000
0000
0100
0010
0000
0000
0000
,
1000
0000
0000
1000
0100
0000
0000
0100
0010
0000
0000
0000
0001
1000
0001
1000
,
0001
0100
0001
0000
1000
0100
1000
0000
,
0001
0010
0001
0000
1000
0010
1000
0000
,
0011
0001
1010
1000
,
0010
0000
0000
0000
0100
0010
0100
0000
0001
1000
0001
0000
1000
0000
0000
0000
,
1100
1000
0101
0001
,
0100
0000
0000
0000
0010
0000
0100
0000
0001
1000
0001
0000
1000
0000
0000
0000
,
0010
1000
0100
0010
0001
0100
0010
1000
,
0002
0203
0320
1030
,
1001
0000
1000
0100
0001
0000
0001
0100
,
1000
0000
0001
0010
1000
0000
1000
0010
,
0001
0000
0000
0000
1000
0000
0001
0100
0001
0000
0000
0000
0001
0000
1000
0100
,
1000
0000
0000
0000
1000
0000
0001
0010
0001
0000
0000
0000
0001
0000
1000
0010
,
1000
0000
0000
0000
0001
1000
0001
1000
0001
0000
0000
0000
0100
0010
0100
0010
,
0100
0000
0000
0000
0001
1000
0001
1000
0001
0000
0000
0000
1001
0000
0000
0000
,
1000
0000
1000
0100
0000
0100
0010
0000
0010
0001
0000
0001
,
0100
0000
0100
0010
0000
0010
1000
0001
1000
0001
1000
0001
,
1000
2002
0000
0000
,
0000
0000
0000
0000
,
0000
0000
0000
0000
,
0000
0000
3003
0000
;

//--------------- dance-single - ----------------
#NOTES:
     dance-single:
     :
     Hard:
     16:
     0,0,0,0,0:
0000
0000
0000
0000
,
0000
0000
0000
0000
,
0000
0000
0000
0000
,
0000
0000
0000
0000
,
0000
0000
0000
0000
,
0001
0000
0100
0000
0010
1000
0010
0000
1000
0001
0100
0000
0001
0000
0001
0000
,
1000
0000
0100
0000
0010
0001
0010
0001
0010
0000
0001
0000
1000
0000
0010
0000
,
0110
0000
0000
0100
0001
0000
0000
0000
1000
0100
1000
0100
0010
0001
0010
0001
,
0100
0000
0000
0101
0000
0000
1001
0000
0000
1010
0000
0000
0100
0010
0100
0010
,
1000
0000
0000
0001
0000
0000
2002
0000
0000
0000
0000
0000
0000
0000
0000
0000
,
0000
0000
0000
0000
,
0000
0000
0000
0000
,
0000
0000
0000
0000
3003
0000
0100
0010
,
1010
0100
0011
1000
,
0110
0001
1100
0010
,
0101
1000
0110
0001
,
0011
0000
1100
0000
1001
0000
1000
0010
,
0110
0000
0100
0000
0001
0010
0100
0100
,
1000
0000
0010
0000
0100
0000
0000
0000
0001
0000
0000
0001
1000
0000
0010
0000
,
0100
0000
0000
0000
0000
0000
0000
0000
0000
0000
0000
0000
0001
0000
0000
0000
0100
0000
0000
0000
0001
0000
0000
0000
0100
0000
0000
0000
0000
0000
0000
0000
0000
0010
0000
0000
0000
0000
0000
0000
0000
0000
1002
0000
0000
0000
0000
0000
,
0000
0000
1000
0000
1003
0000
0010
0100
0010
0000
1000
0001
1000
0000
0001
1000
,
0001
0000
0000
0001
0100
0000
0010
0000
0100
0000
0000
0100
0010
0000
1000
0000
,
0010
0000
0000
0010
1000
0000
0100
0000
1000
0000
0001
0100
0001
0000
0000
0000
,
1000
0000
0000
1000
0100
0000
0010
0000
0100
0000
0000
0100
0010
0000
0001
0000
,
0010
0000
0000
0010
0001
0000
0100
0000
0001
0000
0000
0000
1000
0000
0100
0000
,
0010
0000
0000
0010
0001
0000
1000
0000
0010
0000
0000
0010
1000
0000
0001
0000
,
0100
0000
0000
0100
0001
0000
1000
0000
0100
0000
0000
0100
1000
0000
0001
0000
,
2000
0000
0000
0000
0000
0000
3001
0100
0010
0100
0001
0000
1000
0010
0100
0000
,
0001
0000
0010
0000
0011
0000
0000
0000
1010
0000
0000
1001
0000
0000
0101
0000
,
0002
0000
0100
0000
0103
0000
0000
0000
0001
0000
0010
0100
0000
0010
0001
0000
,
2000
0000
0100
0000
3100
0000
0000
0000
1000
0000
0010
0100
0000
0010
1000
0000
,
0020
0000
0100
0000
0130
0001
0000
0000
0100
0000
0010
1000
0000
0010
0100
0000
,
0001
0000
0010
0000
0100
0000
1000
0000
0001
0000
0000
0011
0000
0000
1100
0000
,
2000
0000
0100
0000
3100
0000
1000
0000
0100
0000
1000
0010
0000
0010
1000
0000
,
0002
0000
0100
0000
0103
0000
0000
0000
0001
0000
0010
0100
0000
0010
0001
0000
,
2000
0000
0000
0000
3001
0000
0000
0100
0010
0100
0010
0000
1000
0001
1000
0000
,
0001
0010
0001
1000
0010
1000
0001
0100
0001
2000
0000
0000
,
3001
0010
0001
1000
0100
0010
0001
0100
0001
1000
0002
0000
,
1003
0100
1000
0001
0100
0001
1000
0010
0100
0001
2000
0000
,
3100
0010
0100
1000
0001
0100
0010
0100
0001
0010
0200
0000
,
0310
0000
0001
0000
1000
0000
0010
0000
0100
0000
0001
0000
1000
0000
0100
0000
0010
0000
0001
0000
0000
0001
0000
0000
,
1000
0000
0100
0000
0010
0000
0001
0000
0100
0000
0010
0000
0100
0000
0001
0000
1000
0000
0010
0000
0000
0010
0000
0000
,
0100
0000
0000
0000
0001
0000
0000
0000
0010
0000
0000
0000
0100
0000
0000
0000
1000
0000
0000
0000
0010
0000
0000
0000
0100
0000
0000
0000
0000
0000
0010
0000
0000
1000
0000
0000
0000
0000
0000
1000
0000
0000
0001
0000
0000
0000
0000
0000
,
0100
0001
1000
0010
0200
0000
0310
0100
0001
1000
0020
0000
,
1030
0000
0000
1010
0000
0000
0101
0000
0000
0011
0000
0000
1100
0000
0100
0000
,
0010
0000
0000
0000
0001
0100
0001
0100
0010
0000
0000
0000
1000
0100
1000
0100
,
0010
0001
0000
0001
0000
1000
0010
0000
0010
0000
0100
0010
0000
0010
0000
0220
,
0000
0000
0000
0330
,
0001
0010
0100
1000
0001
0010
0100
1000
0010
0000
0010
0000
0100
0000
0100
0000
,
1001
0000
0000
0000
1000
0100
1000
0000
0001
0100
0010
0000
1000
0010
0100
0001
,
1000
0000
1000
0000
0001
0100
0001
0000
1000
0010
1000
0010
0100
0001
0100
0001
,
0010
0000
0000
0000
0100
0010
0100
0000
0010
0001
0010
0001
1000
0010
1000
0010
,
0100
0000
0000
0000
0001
0100
0010
1000
0010
0000
0000
0010
0200
0000
0000
0000
,
0302
0000
0000
0000
0013
0100
0010
0000
0100
0000
1000
0000
0001
0000
0100
0000
,
0001
0000
0000
0000
1000
0010
1000
0010
1000
0000
0001
0000
0010
0000
0100
0000
,
1000
0100
1000
0100
0000
0010
0001
0000
1000
0010
1000
0000
0001
0010
0001
0000
,
1000
0001
0010
0100
1000
0001
0010
0100
1000
0000
1000
0000
0100
0000
0010
0000
,
0002
0000
0000
0000
1003
0100
1000
0000
0100
0010
0001
0100
0020
0000
0000
0000
,
2030
0000
0001
0000
3001
0100
0001
0000
0100
0010
0100
0010
1000
0001
1000
0001
,
0020
0000
0100
0000
0130
1000
0100
0000
1000
0000
0010
0000
0100
0000
0001
0000
,
2000
0000
0000
0000
3001
0010
0001
0000
2100
0000
0000
0000
3200
0000
0000
0000
,
0320
0000
0000
0000
0031
0100
0001
0000
1000
0000
0100
1000
0000
0001
0100
0000
,
0002
0000
0000
0000
1003
0010
1000
0000
0001
0000
1000
0100
0000
0100
1000
0000
,
0001
0100
0001
0100
0010
1000
0010
0000
1000
0100
1000
0100
0010
0001
0010
0000
,
0001
0100
0000
0110
0000
0010
0000
1000
0200
0000
0000
0000
0310
0001
0010
0001
,
1000
0000
0000
0100
1000
0000
0000
0000
0001
0000
0100
0010
0000
0100
0010
0000
,
0100
0000
0000
0001
1000
0000
0000
0000
0001
0000
0010
0100
0000
0010
0100
0000
,
1000
0000
0000
0001
0100
0000
0000
0000
0010
0000
1000
0010
0000
1000
0010
0000
,
0100
0000
0000
0001
0100
0000
0000
0010
0100
0000
0100
0000
0010
1000
0010
1000
,
0001
0000
1000
0000
0001
0010
0001
0000
1000
0000
0001
0000
1000
0100
1000
0000
,
0001
0000
1000
0000
0001
0100
0001
0000
1000
0000
0001
0000
1000
0100
1000
0100
,
1000
0100
1000
0100
0010
0001
0100
0010
,
1000
0000
0000
0000
0001
0100
0001
0000
1000
0100
1000
0000
0001
0100
0010
1000
,
0001
0100
0001
0100
0010
1000
0001
0010
,
0100
0000
0000
0000
1000
0100
1000
0000
0001
0000
0100
0001
0000
0100
0001
0000
,
1000
1000
0100
0100
0010
0010
0001
0001
,
0100
0010
1000
0001
0010
0100
1000
0010
0200
0000
0000
0000
0301
0000
0000
0000
,
1001
0000
0000
0000
1000
0100
1000
0100
0010
0000
0000
0000
0001
0100
0001
0100
,
0010
0000
0000
0000
1000
0010
1000
0010
0100
0000
0000
0000
0001
0010
0001
0010
,
0100
0000
0000
0000
1000
0001
0100
0001
1000
0000
0000
0000
0001
1000
0100
1000
,
0001
0000
0000
0000
1000
0001
0010
0001
1000
0000
0000
0000
0001
1000
0010
1000
,
0001
0000
0000
0000
1000
0100
0010
0001
1000
0000
0000
0000
0001
0100
0010
1000
,
0001
0000
0000
0000
0000
0000
0000
0000
0000
0000
0000
0000
1000
0000
0000
0100
0000
0000
0010
0000
0000
0001
0000
0000
0100
0000
0000
0000
0010
0000
0000
0000
1000
0000
0000
0000
0001
0000
0000
0000
0010
0000
0000
0000
0100
0000
0000
0000
,
1000
0100
1000
0001
0100
0001
1000
0010
1000
0001
0010
0001
,
1000
0100
0010
0001
0100
0010
1000
0001
0010
0100
1000
0010
,
0200
0300
2002
0000
0000
0000
0000
0000
,
0000
0000
0000
0000
,
0000
0000
0000
0000
,
0000
0000
3003
0000
;

//--------------- dance-single - ----------------
#NOTES:
     dance-single:
     :
     Challenge:
     18:
     0.624063,1.121556,0.260914,0.186367,0.894561,586,551,35,25,0,0,0.624063,1.121556,0.260914,0.186367,0.894561,586,551,35,25,0,0:
0000
0000
0000
0000
,
0000
0000
0000
0000
,
0000
0000
0000
0000
,
0000
0000
0000
0000
,
0000
0000
0000
0000
,
1000
0100
1000
0100
0010
0001
0010
0001
1000
0100
0010
0001
0010
0100
1000
0000
,
0001
0010
0001
0010
0100
1000
0100
1000
0100
0000
1100
0000
0110
0000
0011
0000
,
0101
0000
0000
1000
1100
0000
0100
0000
0010
0001
0010
0001
1000
0010
1000
0010
,
0100
0000
0100
0001
0000
0001
0010
0000
0010
1000
0000
1000
0100
0010
0001
0100
,
0010
0000
0000
0110
0000
0000
2002
0000
0000
0000
0000
0000
0000
0000
0000
0000
,
0000
0000
0000
0000
,
0000
0000
0000
0000
,
0000
0000
0000
0000
3003
0000
0100
0010
,
0011
0100
1010
0001
,
0110
1000
0101
0010
,
1100
0011
0110
1001
,
1010
0000
0101
0000
1001
0000
0001
0010
,
1100
0000
0010
0000
0001
0100
1000
0010
,
0100
0000
0001
0000
0101
0000
0000
0000
1000
0010
0000
0001
0010
0000
0100
0000
,
1010
0000
0000
0000
0000
0000
0000
0000
0000
0000
0000
0000
0001
0000
0000
0000
0100
0000
0000
0000
1000
0000
0000
0000
0100
0000
0000
0000
0000
0000
0000
0000
0000
0110
0000
0000
0000
0000
0000
0000
0000
0000
1002
0000
0000
0000
0000
0000
,
0000
0000
0013
0000
0110
0000
0100
1000
0001
0000
0100
0001
1000
0010
0100
0001
,
1000
0000
0001
0100
0001
0000
0100
0000
0100
0000
0010
1000
0010
0000
0100
0000
,
0001
0000
1000
0010
0100
0001
1000
0000
0001
0000
1000
0001
0100
0010
1000
0000
,
0001
0000
1000
0100
1000
0000
0100
0000
0100
0000
0010
0001
0010
0000
0100
0000
,
1000
0000
0001
0010
0001
0000
1000
0000
0001
0000
1000
0010
1000
0000
0100
0000
,
0010
0000
0001
0100
0001
0000
0010
0000
0100
0000
1000
0100
0010
0001
0100
0000
,
0010
0000
1000
0100
1000
0000
0010
0000
0100
0000
0001
0010
0100
1000
0010
0000
,
0100
0000
0000
0000
0000
0000
0010
0000
0000
1000
0000
0000
0001
0000
0000
0000
0010
0000
0000
0000
0100
0000
0000
0000
1000
0000
0000
0100
0000
0000
0010
0000
0000
0001
0000
0000
1000
0000
0000
0001
0000
0000
0010
0000
0000
0100
0000
0000
,
1000
0010
1000
0010
0100
0001
0000
0001
0010
0000
0010
0001
0100
0001
0100
0010
,
2000
0000
0100
0000
3100
0000
0000
1000
0100
0000
0010
0001
0200
0010
1300
0000
,
0002
0000
0100
0000
0103
0000
0000
0001
0200
0000
0310
1000
0200
0010
0301
0000
,
2000
0000
0010
0000
3020
0100
0000
0000
0230
0000
0301
0010
0200
1000
0310
0000
,
0200
0000
0301
0010
0100
1000
0100
0001
0200
0000
0310
0002
0000
0103
0020
0000
,
2030
0000
0001
0000
3001
0000
0002
0010
0103
0000
1000
0010
0100
0001
0010
1000
,
0020
0000
0001
0000
0032
0000
0000
0103
0020
0000
1030
0200
0000
0310
0002
0000
,
2003
0000
3100
0010
0001
0100
0001
0100
0010
1000
0100
0010
0001
0010
0100
1000
,
0001
0100
1000
0001
0010
1000
0100
0001
1000
0010
0001
0100
,
0110
0010
1000
0100
0010
0100
1000
0010
0100
1000
0100
0010
,
1001
0001
0010
0100
0010
0001
0100
0010
0001
0010
0100
0001
,
0101
0100
0010
1000
0100
0001
0100
1000
0001
0010
1000
0010
,
0001
0000
1000
0000
0100
0000
0010
0000
0001
0000
0100
0000
0010
0000
1000
0000
0100
0000
0010
0000
0001
1000
0001
0000
,
1001
0000
1000
0000
0100
0000
0010
0000
0001
0000
0100
0000
0010
0000
1000
0000
0001
0000
0100
0000
0010
0100
0010
0000
,
0110
0000
0000
0000
0100
0000
0000
0000
0001
0000
0000
0000
0010
0000
0000
0000
0100
0000
0000
0000
1000
0000
0000
0000
0001
0000
0000
0100
0000
0000
0001
0000
0000
0100
0000
0000
0010
0000
0000
1000
0000
0000
0100
0000
0000
0010
0000
0000
,
0001
0100
0001
1000
0100
0010
0001
0100
1000
0001
0010
1000
,
0001
0100
0010
1000
0100
0010
0001
0100
0010
1000
0100
0010
0001
0100
0010
1000
,
2002
3003
0220
0330
,
0001
0100
0000
0101
0000
0100
1000
0000
1010
0000
0010
0001
0000
0011
0000
2002
,
0000
0000
0000
0000
,
0000
0000
0000
0000
3003
1010
0110
0101
,
1001
0000
1000
0000
0001
0100
0001
0100
0010
1000
0100
0010
0001
0100
1000
0100
,
0001
0000
0101
0000
0100
0010
0100
0010
1000
0100
0001
0100
1000
0010
0100
0001
,
0010
0000
0110
0000
0100
1000
0100
0001
0100
1000
0010
0100
0001
0010
1000
0010
,
0001
0000
1000
0100
1000
0100
0010
0001
1000
0001
0010
0100
1000
0010
0001
0010
,
0100
0000
0101
0000
0001
0010
0001
0010
0100
1000
0100
0010
0001
0100
1000
0100
,
0001
0000
1001
0000
1000
0010
1000
0010
0100
0001
0010
0100
1000
0100
0010
0001
,
1000
0010
1000
0010
0100
0001
0100
0001
0010
0100
1000
0100
0001
0100
0010
0100
,
1000
0001
0010
0100
0010
0100
1000
0001
0100
0000
0110
0000
1010
0000
1001
0000
,
0002
0000
1000
0000
1003
0100
1000
0100
0010
0001
0100
0010
2000
0100
3010
0001
,
0200
0000
0001
0000
0301
0010
0100
0010
0001
0100
1000
0100
0001
0010
0100
1000
,
0020
0000
0100
0000
0130
0001
0100
1000
0100
0001
0010
0100
1000
0010
0001
0010
,
2000
0000
3001
0100
0001
0100
0010
1000
0002
1000
0013
0100
0002
0010
0103
1000
,
0020
0000
1000
0000
1030
0100
1000
0010
0100
0001
0100
0010
1000
0100
0001
0100
,
2000
0000
0001
0000
3001
0010
0001
0010
0100
1000
0010
0100
0001
0100
0010
1000
,
0001
0010
0001
0010
0100
1000
0100
1000
0010
0100
0001
0100
1000
0100
0010
0100
,
0001
0000
0000
1000
0000
0000
0000
0000
0000
1010
0000
0000
0000
0000
0000
0011
0000
0000
0000
0000
0000
0001
0000
0000
1000
0000
0100
0000
1000
0000
0100
0000
1000
0000
0100
0000
0010
0000
0000
0001
0000
0000
0010
0000
0000
0001
0000
0000
,
1000
0100
0010
0001
0101
0000
0100
0000
0010
1000
0001
0010
0100
1000
0001
0000
,
0100
0010
1000
0001
0011
0000
0010
0100
1000
0010
0100
0001
1000
0100
0010
0000
,
0100
1000
0001
0100
0110
0000
0010
1000
0001
0010
0100
0010
0001
0100
0010
0000
,
1000
0010
0100
0010
1010
0000
0010
1000
0001
0010
0100
1000
0001
0100
0010
1000
,
0001
0000
0101
0000
0100
0001
0010
0100
1000
0000
1100
0000
1000
0010
0100
0001
,
0010
0000
0011
0000
0001
0100
0010
1000
0010
0000
1010
0000
1000
0100
0010
0001
,
2000
0100
3002
0100
2003
0010
3200
0010
,
2300
0000
0001
0000
3001
0010
0100
1000
0001
0100
1000
0100
0010
1000
0100
0010
,
0002
0010
2003
0010
3002
0100
0023
0100
,
0031
0000
0100
0000
0010
1000
0010
0001
0010
1000
0100
0010
0001
0100
0010
1000
,
2020
0000
3030
0101
,
2002
0000
3003
0110
,
1001
0000
0000
0000
1000
0100
0010
0001
1000
0000
0000
0000
0001
0010
0100
1000
,
0001
0000
0000
0000
1000
0010
0100
0001
0010
0000
0000
0000
0001
0100
0010
1000
,
0100
0000
0000
0000
0010
0001
0100
1000
0100
0000
0000
0000
0010
1000
0100
0001
,
0100
0000
0000
0000
1000
0010
0001
0010
1000
0000
0000
0000
0001
0010
1000
0010
,
0001
0000
0000
0001
0000
0000
1000
0100
1000
0100
0010
0001
1000
0000
0000
1000
0000
0000
0001
0100
0001
0100
0010
1000
,
0001
0000
0000
0001
0000
0000
0100
0001
0100
0001
1000
0010
1000
0000
0100
0000
1000
0000
0001
0000
0100
0000
0001
0000
,
1000
0010
1000
0010
0100
0001
0100
0001
0010
0100
0010
0100
1000
0001
1000
0001
,
0100
0010
1000
0100
0010
0001
0100
1000
0100
0001
0010
0100
1000
0010
0001
0010
,
1000
0001
1000
0001
0000
0000
2002
0000
0000
0000
0000
0000
0000
0000
0000
0000
0000
0000
0000
0000
0000
0000
0000
0000
,
0000
0000
0000
0000
,
0000
0000
0000
0000
,
0000
0000
3003
0000
;
