#TITLE:Our Moment;
#SUBTITLE:;
#ARTIST:Yumi Kawamura & Lotus Juice;
#TITLETRANSLIT:;
#SUBTITLETRANSLIT:;
#ARTISTTRANSLIT:;
#GENRE:;
#CREDIT:;
#MUSIC:Our Moment.ogg;
#BANNER:Our Moment-bn.png;
#BACKGROUND:Our Moment-bg.png;
#CDTITLE:;
#SAMPLESTART:41.667;
#SAMPLELENGTH:15.000;
#SELECTABLE:YES;
#OFFSET:0.000;
#BPMS:0.000=126.000;
#STOPS:;
#BGCHANGES:;
#FGCHANGES:;

//--------------- dance-single - ----------------
#NOTES:
     dance-single:
     :
     Beginner:
     2:
     0,0,0,0,0:
0000
0000
0000
0000
,
0000
0000
0000
0000
,
0000
0000
0000
0000
,
0000
0000
0000
0000
,
0000
0000
0000
0000
,
0000
0000
0000
0000
,
0000
0010
0000
0010
,
0000
1000
0000
1000
,
0000
0001
0000
0001
,
0000
0100
0000
0100
,
0001
0000
0001
0000
,
0010
0000
0100
0000
,
1000
0000
0000
0000
,
0001
0000
0001
0000
,
1000
0000
1000
0000
,
0010
0000
0010
0000
,
0100
0000
0000
0000
,
0001
0000
0001
0000
,
0100
0000
0000
0000
,
0010
0000
1000
0000
,
0001
0000
0000
0000
,
1000
0000
0000
0000
,
0001
0000
0001
0000
,
0100
0000
0000
0000
,
1000
0000
1000
0000
,
0100
0000
0000
0000
,
0001
0000
0001
0000
,
1000
0000
0010
0000
,
0100
0000
1001
0000
,
0001
0000
1000
0000
,
0001
0000
0001
0000
,
0010
0000
0000
0000
,
1000
0000
1000
0000
,
0010
0000
0000
0000
,
0001
0000
0001
0000
,
1000
0000
0100
0000
,
0010
0000
1001
0000
,
1000
0000
0001
0000
,
1000
0000
1000
0000
,
0100
0000
0100
0000
,
0010
0000
0010
0000
,
0001
0000
0001
0000
,
0100
0000
0000
0000
,
0010
0000
0000
0000
,
1000
0000
1000
0000
,
0001
0000
0001
0000
,
2000
0000
3000
0000
,
0002
0000
0003
0000
,
2000
0000
3000
0000
,
1001
0000
0000
0000
;

//--------------- dance-single - ----------------
#NOTES:
     dance-single:
     :
     Easy:
     5:
     0,0,0,0,0:
0000
0000
0000
0000
,
0000
0000
0000
0000
,
0000
0000
0000
0000
,
0000
0000
0000
0000
,
0000
0000
0000
0000
,
0000
0000
0000
0000
,
0010
0010
1000
1000
,
0001
0001
0100
0100
,
0001
0001
1000
1000
,
0010
0010
2002
3003
,
1000
1001
1000
0100
,
0010
0110
0100
1000
,
0001
1001
0001
0010
,
0100
1000
2002
3003
,
0001
1001
0001
0100
,
0010
0110
0100
0001
,
1000
1001
1000
0010
,
0100
0001
2002
3003
,
1000
0100
0000
1000
,
0010
0100
0001
0010
,
0200
0000
0010
0310
,
0001
1000
2002
3003
,
0001
0001
0010
0000
,
0001
0100
0010
0010
,
1000
1000
0010
0000
,
1000
0100
0010
0001
,
0100
0100
0010
0000
,
0100
0010
1000
0001
,
0010
0100
1001
0000
,
0002
0003
2000
3000
,
1000
1000
0010
0000
,
1000
0100
0010
0010
,
0001
0001
0010
0000
,
0001
0100
0010
1000
,
0100
0100
0010
0000
,
0100
0010
0001
1000
,
0010
0100
1001
0000
,
2000
3000
0002
0003
,
0001
0001
0100
0100
,
0010
0010
1000
0001
,
1000
1000
0100
0100
,
0010
0010
0001
1001
,
1000
1000
0010
0010
,
0100
0100
0001
1000
,
0001
0001
0010
0010
,
0100
0100
1000
0001
,
2000
0000
3010
0110
,
0002
0000
0013
0110
,
2000
0000
3100
0010
,
0110
0000
0000
2002
0000
0000
0000
0000
,
0000
0000
0000
0000
,
3003
0000
0000
0000
;

//--------------- dance-single - ----------------
#NOTES:
     dance-single:
     :
     Medium:
     9:
     0,0,0,0,0:
0000
0000
0000
0000
,
0000
0000
0000
0000
,
0000
0000
0000
0000
,
0000
0000
0000
0000
,
0000
0000
0000
0000
,
0000
0000
0000
0000
0000
0000
0000
0010
,
0000
0011
0000
0001
0000
0101
0000
0100
,
0000
0110
0000
0010
0000
1010
0000
1000
,
0000
1100
0000
0100
0000
0110
0000
0010
,
0000
0000
0011
0000
0000
0000
0001
0000
0000
1000
0000
0000
0100
0000
1000
0000
,
0001
0000
0000
0001
0100
0000
0000
0100
0000
0000
0010
0000
1000
0000
0001
0000
,
0000
0011
0000
0010
0000
0001
1000
0001
,
0000
0010
0000
1000
0000
0010
0000
0100
,
0010
0010
1000
0001
0000
2002
0000
3003
,
0010
0010
0000
0100
0000
1000
0100
0010
,
0000
0001
0000
0101
0000
0100
0010
1000
,
0000
0100
0000
0001
0000
0100
0000
1000
,
0010
0000
0010
0000
1000
0000
0001
0000
0000
0000
0001
0000
0100
0000
0000
0100
,
0010
0010
1000
0000
1100
0000
0010
0001
,
1000
0001
0000
0100
0000
0110
0000
1000
,
0002
0000
1000
0000
1003
0010
1000
0010
,
0000
0100
0001
0100
0001
0001
2000
0000
,
3001
0000
0000
0100
0000
0000
0001
0000
0000
0000
0100
0000
0010
0000
1000
0000
,
0100
0000
0000
0010
0000
0000
0100
0000
0000
0000
0100
0000
1000
0000
0001
0000
,
1000
0000
0000
0100
0000
0000
1000
0000
0000
0000
0100
0000
0010
0000
0001
0000
,
0100
0000
0000
0010
0000
0000
0100
0000
0000
0000
0100
0000
0001
0000
0000
0000
,
0010
0000
0000
0100
0000
0000
0010
0000
0000
0000
0001
0000
0100
0000
0001
0000
,
0100
0000
0000
0010
0000
0000
0100
0000
0000
0000
0010
0000
1000
0000
0000
0000
,
0001
0000
1000
0000
0001
0000
0010
0000
0100
0000
0000
1001
0000
0000
0000
0000
,
0002
0103
2000
3001
,
1000
0000
0000
0010
0000
0010
0000
1000
0000
0000
0010
0000
0100
0000
0001
0000
,
0010
0000
0000
0100
0000
0000
0010
0000
0000
0000
0010
0000
0001
0000
2000
0000
,
0000
0000
3001
0000
0010
0000
0000
0001
0000
0000
0010
0000
0100
0000
1000
0000
,
0010
0000
0000
0100
0000
0000
0010
0000
0000
0000
1000
0000
0000
0001
0000
0000
,
0100
0000
0010
0000
1000
0000
0000
0001
0000
0000
1000
0000
0010
0000
0100
0000
,
0010
0000
0000
1000
0000
0000
0001
0000
0000
0000
0100
0000
0010
0000
0000
0000
,
1000
0000
0001
0000
1000
0000
0100
0000
0010
0000
0000
1001
0000
0000
0000
0000
,
2000
3100
0002
1003
,
0001
0100
0010
0000
0100
0010
1000
0000
,
0001
0000
0001
0000
1000
0000
0000
0010
0000
0000
0100
0000
0010
0000
1000
0000
,
0001
0000
0000
0010
0001
0000
0000
0000
1000
0000
0000
0100
0000
0000
1000
0000
,
0001
0000
0000
0100
0000
0000
0001
0000
0010
0000
0100
0000
1000
0000
0000
0000
,
0002
0000
0000
0000
1003
0000
0000
0010
0000
0000
0100
0000
0001
0000
0001
0000
,
0100
0000
0000
0100
0010
0000
1000
0000
0010
0000
1000
0000
0010
0000
0000
0000
,
0100
0000
0000
0001
0000
0000
1000
0000
0010
0000
0010
0000
0100
0000
0100
0000
,
0000
0000
0001
0000
0010
0000
0001
0000
0100
0000
0010
0000
1000
0001
0000
0000
,
0002
0010
0103
1001
,
2000
0000
0000
0000
3010
0000
0000
0000
0100
0000
0000
0100
0000
0000
0100
0000
,
0002
0000
0013
0100
0000
0010
0000
0010
,
0001
0000
1000
2002
0000
0000
0000
0000
,
0000
0000
0000
0000
,
3003
0000
0000
0000
;

//--------------- dance-single - ----------------
#NOTES:
     dance-single:
     :
     Hard:
     12:
     0,0,0,0,0:
0000
0000
0000
0000
,
0000
0000
0000
0000
,
0000
0000
0000
0000
,
0000
0000
0000
0000
,
0000
0000
0000
0000
,
0000
0000
0000
0000
0000
0000
0000
0020
,
0000
1030
0100
2000
0000
3100
0010
0200
,
0000
0310
0001
0020
0000
0031
1000
0002
,
0000
0000
0103
0000
0010
0000
0200
0000
0000
0000
0310
0000
1000
0001
0000
0001
,
1000
0000
1000
0000
0001
0000
0010
0000
0100
2000
0000
0000
3002
0000
1000
0000
,
1003
0000
0000
1000
0100
0000
0000
0100
0010
0000
0010
0000
0001
0000
1000
0000
,
0000
1001
0000
0110
0000
0010
1000
0001
,
0000
0011
0000
1000
0000
1010
0000
0100
,
0010
0010
0001
1000
0000
2002
0000
3003
,
0010
0010
0000
0100
0000
0001
0100
0020
,
0000
1030
0000
1100
0000
0100
0010
0001
,
0000
0101
0000
1000
0000
1100
0000
0100
,
0010
0000
0010
0000
0001
0000
1000
0000
0000
0000
1000
0000
0010
0100
0000
0010
,
0100
0000
0001
1000
0001
0000
0000
0001
0100
0000
0000
0100
0010
0000
1000
0000
,
0001
0000
1000
0001
1000
0000
0100
0000
0000
0000
0110
0000
0000
0000
0001
0000
,
2000
0000
0100
0000
3001
0010
0100
1000
,
0000
0000
1000
0000
0100
0000
0010
0000
0001
0000
0001
0000
1000
0001
1000
0000
,
0001
0000
0000
0001
0100
0000
0010
0000
0100
0000
0100
0000
0010
0000
1000
0000
,
0001
0000
0000
0001
1000
0000
0100
0000
0000
0000
0100
0000
0010
0000
0001
0000
,
1000
0000
0000
1000
0100
0000
0010
0000
0100
0000
0100
0000
0010
0000
0001
0000
,
1000
0000
0000
1000
0001
0000
0100
0000
0000
0000
0010
0000
1010
0000
0000
0000
,
0010
0000
0000
0010
0100
0000
0001
0000
1000
0000
0100
0000
0010
0000
0001
0000
,
0100
0000
0000
0100
0010
0000
1000
0000
0000
0000
0001
0000
1001
0000
0000
0000
,
1000
0000
1000
0000
0001
0000
0010
0000
0100
0000
0000
1001
0000
0000
0001
1000
,
0002
0000
0000
0000
0100
0000
0000
0000
2003
0000
0000
0000
3001
0000
1000
0001
,
1000
0000
0000
1000
0100
0010
0000
0100
0010
0000
0001
0000
0100
0000
0010
0000
,
1000
0000
0000
1000
0001
0000
0100
0000
0000
0000
0100
0000
0010
0000
1000
0000
,
0001
0000
0100
0000
0001
0100
0000
0010
0100
0000
0100
0000
0010
0000
1000
0000
,
0001
0000
0000
0001
1000
0000
0200
0000
0000
0000
0310
0000
0000
0011
0000
0000
,
0010
0000
0010
0000
0100
1000
0000
1000
0001
0000
0100
0000
0010
1000
0010
0000
,
1000
0000
0000
1000
0100
0000
0010
0000
0000
0000
0001
0000
1001
0000
0000
0000
,
0001
0000
0001
0000
1000
0000
0010
0000
0100
0000
0000
1001
0000
0000
1000
0001
,
2000
0000
0000
0000
0100
0000
0000
0000
3002
0000
0000
0000
1003
0000
0001
1000
,
0001
0000
0100
0010
0100
0010
0100
0000
0010
0000
1000
0001
1000
0001
1000
0000
,
0100
0000
0100
0000
0010
0001
0010
0001
0000
1000
0010
0000
0100
0000
0001
0000
,
0010
0100
0000
0010
0100
0010
0100
0000
1000
0001
1000
0001
0000
0100
0010
0100
,
0010
0000
1000
0010
0000
1000
0010
0000
0100
0001
0100
0001
0100
0000
0010
0000
,
0210
0000
0000
0000
0310
0000
1000
0010
0000
0100
0001
0100
0001
0000
0010
0000
,
0200
0000
0000
1300
0010
1000
0010
1000
0010
0000
0100
0000
0001
0000
1000
0001
,
1000
0000
0001
0100
0000
0001
0100
0001
0100
0000
0010
1000
0010
1000
0010
0000
,
0100
0000
0100
0000
0001
0010
0001
0000
0010
0100
0010
0000
0100
1000
0000
0100
,
2000
0000
3010
0010
0110
0000
1001
0000
,
0002
0000
0000
0000
0013
0000
0010
0000
0100
0010
0000
0100
0010
0000
0001
1000
,
0002
0000
0103
0100
0010
0120
0000
1000
,
1030
0000
0001
2002
0000
0000
0000
0000
,
0000
0000
0000
0000
,
3003
0000
0000
0000
;
