#TITLE:ゴールデンハート ft. Kimberley Nutbey;
#SUBTITLE:;
#ARTIST:Xceon;
#TITLETRANSLIT:Golden Heart ft. Kimberley Nutbey;
#SUBTITLETRANSLIT:;
#ARTISTTRANSLIT:;
#GENRE:;
#CREDIT:;
#MUSIC:Golden Heart ft Kimberley Nutbey.ogg;
#BANNER:Golden Heart ft Kimberley Nutbey.png;
#BACKGROUND:Golden Heart ft Kimberley Nutbey-bg.png;
#CDTITLE:;
#SAMPLESTART:51.534;
#SAMPLELENGTH:15.000;
#SELECTABLE:YES;
#OFFSET:0.000;
#BPMS:0.000=163.000;
#STOPS:;
#BGCHANGES:;
#FGCHANGES:;

//--------------- dance-single - ----------------
#NOTES:
     dance-single:
     :
     Beginner:
     2:
     0.170948,0.223853,0.057769,0.132043,0,145,138,7,16,0,0,0.170948,0.223853,0.057769,0.132043,0,145,138,7,16,0,0:
0000
0000
0000
0000
,
0000
0000
0000
0000
,
0000
0000
0000
0000
,
0100
0000
0100
0000
,
0010
0000
0010
0000
,
1000
0000
0000
0000
,
1000
0000
1000
0000
,
0001
0000
0000
0000
,
0001
0000
0001
0000
,
0100
0000
0000
0000
,
0100
0000
0100
0000
,
0010
0000
0000
0000
,
0010
0000
0010
0000
,
1000
0000
0000
0000
,
0001
0000
0000
0000
,
0100
0000
0000
0000
,
0010
0000
0000
0000
,
1000
0000
0000
0000
,
0001
0000
0000
0000
,
0100
0000
0000
0000
,
0100
0000
0000
0000
,
0001
0000
0000
0000
,
1000
0000
0000
0000
,
0100
0000
0000
0000
,
0010
0000
0000
0000
,
0001
0000
0001
0000
,
1001
0000
0000
0000
,
1000
0000
1000
0000
,
1001
0000
0000
0000
,
0001
0000
0000
0000
,
1000
0000
0000
0000
,
0020
0000
0030
0000
,
0200
0000
0300
0000
,
2002
0000
0000
0000
,
3003
0000
0000
0000
,
0001
0000
0000
0000
,
0001
0000
0001
0000
,
1000
0000
0000
0000
,
1000
0000
1000
0000
,
0100
0000
0000
0000
,
0100
0000
0100
0000
,
0010
0000
0000
0000
,
0010
0000
0010
0000
,
0001
0000
0000
0000
,
1000
0000
0000
0000
,
0100
0000
0000
0000
,
0010
0000
0000
0000
,
0001
0000
0001
0000
,
1001
0000
0000
0000
,
1000
0000
1000
0000
,
1001
0000
0000
0000
,
0001
0000
0000
0000
,
1000
0000
0000
0000
,
0200
0000
0300
0000
,
0020
0000
0030
0000
,
2002
0000
0000
0000
,
3003
0000
0000
0000
,
0002
0000
0003
0000
,
2000
0000
3000
0000
,
0020
0000
0030
0000
,
0200
0000
0300
0000
,
0000
0001
0000
0001
,
0000
1000
0000
0000
,
0010
0000
0000
0000
,
0200
0000
0300
0000
,
0020
0000
0030
0000
,
2002
0000
0000
0000
,
3003
0000
0000
0000
,
1000
0000
0001
0000
,
1000
0000
1000
0000
,
0001
0000
1000
0000
,
0001
0000
0001
0000
,
0100
0000
0010
0000
,
0100
0000
0100
0000
,
0010
0000
0100
0000
,
0010
0000
0010
0000
,
2000
0000
3000
0000
,
0002
0000
0003
0000
;

//--------------- dance-single - ----------------
#NOTES:
     dance-single:
     :
     Easy:
     6:
     0.286485,0.320822,0.140295,0.288843,0,243,226,17,35,0,0,0.286485,0.320822,0.140295,0.288843,0,243,226,17,35,0,0:
0000
0000
0000
0000
,
0000
0000
0000
0000
,
0000
0000
0000
0000
,
0200
0300
0020
0030
,
2000
3000
0002
0003
,
1000
1000
0001
0010
,
0001
0100
0010
1000
,
0001
0001
1000
0100
,
1000
0010
0110
0000
,
0001
0001
1000
0010
,
1000
0100
0010
0001
,
1000
1000
0001
0100
,
0001
0010
1001
0000
,
2000
3000
0100
1000
,
0002
0003
0100
0001
,
2000
3000
0010
1000
,
0002
0003
2000
3000
,
0001
0000
0010
0100
,
1000
0000
0100
0010
,
0001
0100
0020
0030
,
2000
3000
0100
1000
,
1000
0000
0010
0100
,
0001
0000
0100
0010
,
1000
0100
0010
0001
,
2002
0000
0000
3003
,
0001
0000
0010
0000
,
0100
1000
1001
0000
,
1000
0000
0010
0000
,
0100
0001
1001
0000
,
0001
0000
0010
0000
,
0100
0010
0001
0100
,
0020
0000
0030
1000
,
0200
0300
0010
0001
,
2002
0000
3003
0000
,
0220
0000
0330
0000
,
0001
0001
1000
0010
,
1000
0100
0010
0001
,
1000
1000
0001
0100
,
0001
0010
0110
0000
,
1000
1000
0001
0010
,
0001
0100
0010
1000
,
0001
0001
1000
0100
,
1000
0010
1001
0000
,
0002
0003
0100
0001
,
2000
3000
0100
1000
,
0002
0003
0010
0001
,
2000
3000
0002
0003
,
1000
0000
0010
0000
,
0100
0001
1001
0000
,
0001
0000
0010
0000
,
0100
1000
1001
0000
,
1000
0000
0010
0000
,
0100
0010
1000
0100
,
0020
0000
0030
0001
,
0200
0300
0010
1000
,
2002
0000
3003
0000
,
0220
0000
0330
0000
,
1000
0000
1000
0000
,
0001
0010
0100
0010
,
0001
0000
0001
0000
,
1000
0010
0100
0010
,
1000
1000
0001
0001
,
0010
0010
0100
0100
,
0010
0010
0001
0001
,
1000
0100
0020
0030
,
0001
0100
0010
1000
,
2002
0000
3003
0000
,
0220
0000
0330
0000
,
1000
1000
0001
0100
,
0001
0010
0100
1000
,
0001
0001
1000
0010
,
1000
0100
0110
0000
,
0001
0001
1000
0100
,
1000
0010
0100
0001
,
1000
1000
0001
0010
,
0001
0100
1001
0000
,
0001
0001
1000
0010
,
1000
0100
0010
0001
;

//--------------- dance-single - ----------------
#NOTES:
     dance-single:
     :
     Medium:
     11:
     0.51756,0.514141,0.214569,0.305349,0.066021,439,413,26,37,0,0,0.51756,0.514141,0.214569,0.305349,0.066021,439,413,26,37,0,0:
0000
0000
0000
0000
,
0000
0000
0000
0000
,
0000
0000
0000
0000
,
0202
0303
2020
3030
,
0022
0033
2200
3300
,
0001
0000
1000
0000
0010
0100
0010
0000
,
1000
0010
0100
0000
0010
0100
0001
0000
,
1000
0000
1000
0000
0001
0100
0010
0000
,
0100
0001
0100
0001
0010
0000
0011
0000
,
1000
0000
0001
0000
0010
0100
0010
0000
,
0001
0010
0100
0000
0010
0100
1000
0000
,
0001
0000
0001
0000
1000
0100
0010
0000
,
0002
2003
3100
1001
,
0001
0000
0010
0000
0100
0000
0000
0000
0010
0000
0000
0001
0000
0000
0001
0000
,
1000
0000
0010
0000
0100
0000
0000
0000
0010
0000
0000
1000
0000
0000
1000
0000
,
0100
0000
0010
0000
0001
0000
0000
0000
1000
0000
0000
0010
0000
0000
0010
0000
,
1000
0100
0010
0001
1000
0000
1001
0000
,
1000
0000
0001
0000
0100
0000
0010
1000
,
0010
0000
0100
0000
0001
0000
1000
0001
,
0100
0000
0010
1000
0000
0010
1000
0000
,
0001
0000
0010
0000
0100
0000
0000
0000
0010
0000
0000
0001
0000
0000
0001
0000
,
1000
0000
0001
0000
1000
0000
0100
0010
,
0001
0000
0010
0000
0100
0000
1000
0001
,
0100
0000
0010
1000
0000
1001
0000
0001
,
1000
0000
0100
0000
0010
0000
0000
0000
0100
0000
0000
1000
0000
0000
1000
0000
,
0001
0000
0100
0010
1000
0000
0100
0010
,
0001
0000
0000
1000
0000
0000
2002
0000
0000
0000
0000
0000
3003
0000
0000
0000
,
1000
0000
0100
0010
0001
0000
0100
0010
,
1000
0000
0000
0001
0000
0000
2002
0000
0000
0000
0000
0000
3003
0000
0000
0000
,
0100
0000
0010
0001
0100
0000
0010
1000
,
0100
0000
0000
0010
0000
0000
0100
0000
1000
0000
0000
0000
0001
0000
0000
0000
,
0102
0000
0000
0000
0103
0010
1000
0000
,
2000
0000
3100
0000
0100
1000
0000
1000
,
0001
0100
0001
0000
1000
0010
1000
0000
,
0100
0010
0001
1000
0100
0000
0110
0000
,
1000
0000
0001
0000
0010
0100
0010
0000
,
0001
0010
0100
0000
0010
0100
1000
0000
,
0001
0000
0001
0000
1000
0100
0010
0000
,
0100
1000
0100
1000
0010
0000
1010
0000
,
0001
0000
1000
0000
0010
0100
0010
0000
,
1000
0010
0100
0000
0010
0100
0001
0000
,
1000
0000
1000
0000
0001
0100
0010
0000
,
2000
3002
0103
1001
,
1000
0000
0010
0000
0100
0000
0000
0000
0010
0000
0000
1000
0000
0000
1000
0000
,
0001
0000
0010
0000
0100
0000
0000
0000
0010
0000
0000
0001
0000
0000
0001
0000
,
0100
0000
0010
0000
1000
0000
0000
0000
0001
0000
0000
0010
0000
0000
0010
0000
,
0001
0100
0010
1000
0001
0000
1001
0000
,
1000
0000
0100
0010
0001
0000
0100
0010
,
1000
0000
0000
0001
0000
0000
2002
0000
0000
0000
0000
0000
3003
0000
0000
0000
,
0001
0000
0100
0010
1000
0000
0100
0010
,
0001
0000
0000
1000
0000
0000
2002
0000
0000
0000
0000
0000
3003
0000
0000
0000
,
0100
0000
0010
1000
0100
0000
0010
0001
,
0100
0000
0000
0010
0000
0000
0100
0000
0001
0000
0000
0000
1000
0000
0000
0000
,
2100
0000
0000
0000
3100
0010
0001
0000
,
0002
0000
0103
0000
0100
0001
0000
0001
,
1000
0100
1000
0000
0001
0010
0001
0000
,
0100
0010
1000
0001
0100
0000
0110
0000
,
0002
0103
2000
3100
,
0002
0010
0100
1003
,
2000
3010
0002
0013
,
2000
0100
0010
3001
,
0100
0110
0010
0110
,
1000
1001
0001
1001
,
1000
0000
0001
0000
0010
0100
0010
0000
,
0001
0000
0000
0010
0000
0000
0200
0000
2000
0000
0000
0000
3300
0000
0000
0000
,
1000
0000
0010
0000
0200
0000
0001
0000
0000
0301
0000
0000
,
1000
0010
1000
0000
0001
0100
0001
0000
,
0010
0001
1000
0010
0100
0000
0110
0000
,
0001
0001
1000
0100
0010
0100
1000
0000
,
0001
0010
0100
0000
0010
0001
0100
0010
,
1000
1000
0001
0010
0100
0010
0001
0000
,
0100
0010
1000
0001
0100
0000
0101
0000
,
0001
0001
1000
0010
0100
0010
1000
0000
,
0001
0100
0010
0000
0100
0001
0010
0100
,
1000
1000
0001
0100
0010
0100
0001
0010
,
0200
2300
3001
1001
,
0001
0001
1000
0100
0010
0100
1000
0010
,
0200
0000
0302
0000
1003
0010
0100
0001
;

//--------------- dance-single - ----------------
#NOTES:
     dance-single:
     :
     Hard:
     14:
     0.675539,0.739078,0.231075,0.189811,0.251706,573,545,28,23,0,0,0.675539,0.739078,0.231075,0.189811,0.251706,573,545,28,23,0,0:
0000
0000
0000
0000
,
0000
0000
0000
0000
,
0000
0000
0000
0000
,
2100
0000
3100
0010
0012
0000
0103
0010
,
2010
0000
3010
0100
0102
0000
0103
0010
,
1000
1000
0001
0010
0100
0010
0001
0000
,
1000
0100
0010
0000
0100
1000
0010
0100
,
0001
0001
1000
0100
0010
0100
1000
0000
,
0010
0100
0001
1000
0010
0000
1010
0000
,
0001
0001
1000
0010
0100
0010
1000
0000
,
0001
0100
0010
0000
0100
0001
0010
0100
,
1000
1000
0001
0100
0010
0100
0001
1000
,
1200
0320
0031
1001
,
1000
0000
0001
0100
0001
0000
1000
0000
0100
0000
1000
0010
0000
0010
1000
0000
,
0001
0000
1000
0100
1000
0000
0001
0000
0100
0000
0001
0010
0000
0010
0001
0000
,
0100
0000
0010
1000
0010
0000
0100
0000
0001
0000
0010
0001
0000
0001
0100
0000
,
0010
0000
0000
0000
0000
0000
0100
0000
0000
0001
0000
0000
0100
0000
0000
0000
0000
0000
0010
0000
0000
0000
0000
0000
1000
0000
0000
0000
0100
0000
0000
0000
1000
0000
0000
0000
0100
0000
0000
0000
1000
0000
0000
0000
0100
0000
0000
0000
,
1000
0001
1000
0100
0010
0000
0001
1000
,
0001
0010
0100
1000
0001
0000
1000
0001
,
0100
0010
1000
0001
1000
0001
1000
0010
,
0100
0000
0001
0100
0001
0000
1000
0000
0100
0000
1000
0010
0000
0010
1000
0000
,
0001
1000
0001
0100
0010
0000
1000
0001
,
1000
0010
0100
0001
1000
0000
0001
1000
,
0100
0010
0001
1000
0001
1000
0001
0010
,
0100
0000
1000
0100
1000
0000
0001
0000
0100
0000
0001
0010
0000
0010
0001
0000
,
1000
0000
0100
0010
0001
0000
0100
0010
,
1000
0000
0000
0001
0000
0000
2001
0000
0000
0000
0001
0000
3001
0000
1000
0000
,
0001
0000
0100
0010
1000
0000
0100
0010
,
0001
0000
0000
1000
0000
0000
1002
0000
0000
0000
1000
0000
1003
0000
0001
0000
,
0100
0000
0010
1000
0100
0000
0010
0001
,
0100
0000
0000
0100
0010
0000
0100
0000
0001
0000
0000
0000
1001
0000
0000
0000
,
2000
0000
0100
0000
3100
0010
0100
0010
,
0002
0000
0103
0010
0100
0001
0100
0010
,
1000
0100
1000
0100
0010
0001
0010
0001
,
0100
0010
0100
0010
1000
0001
1000
0001
0100
0000
0000
0000
0110
0000
0000
0000
,
0001
0001
1000
0100
0010
0100
1000
0000
,
0001
0010
0100
0000
0010
0001
0100
0010
,
1000
1000
0001
0010
0100
0010
0001
0000
,
0100
0010
1000
0001
0100
0000
0101
0000
,
1000
1000
0001
0100
0010
0100
0001
0000
,
1000
0010
0100
0000
0010
1000
0100
0010
,
0001
0001
1000
0010
0100
0010
1000
0001
,
0021
0230
1300
1001
,
0001
0000
1000
0100
1000
0000
0001
0000
0100
0000
0001
0010
0000
0010
0001
0000
,
1000
0000
0001
0100
0001
0000
1000
0000
0100
0000
1000
0010
0000
0010
1000
0000
,
0100
0000
0010
0001
0010
0000
0100
0000
1000
0000
0010
1000
0000
1000
0100
0000
,
0010
0000
0000
0000
0000
0000
0100
0000
0000
1000
0000
0000
0100
0000
0000
0000
0000
0000
0010
0000
0000
0000
0000
0000
0001
0000
0000
0000
0100
0000
0000
0000
0001
0000
0000
0000
0100
0000
0000
0000
0001
0000
0000
0000
0100
0000
0000
0000
,
0001
0000
0100
0010
1000
0000
0100
0010
,
0001
0000
0000
1000
0000
0000
1002
0000
0000
0000
1000
0000
1003
0000
0001
0000
,
1000
0000
0100
0010
0001
0000
0100
0010
,
1000
0000
0000
0001
0000
0000
2001
0000
0000
0000
0001
0000
3001
0000
1000
0000
,
0100
0000
0010
0001
0100
0000
0010
1000
,
0100
0000
0000
0100
0010
0000
0100
0000
1000
0000
0000
0000
1001
0000
0000
0000
,
0002
0000
0100
0000
0103
0010
0100
0010
,
2000
0000
3100
0010
0100
1000
0100
0010
,
0001
0100
0001
0100
0010
1000
0010
1000
,
0100
0010
0100
0010
0001
1000
0001
1000
0100
0000
0000
0000
0110
0000
0000
0000
,
2000
0000
0100
0000
3001
0010
0100
0000
,
1000
0010
0100
0000
0010
0100
0001
1000
,
0002
0000
0010
0000
1003
0100
0010
0000
,
0001
0010
0100
1000
0020
0000
1000
0000
,
0130
1001
0010
1001
,
1000
0110
0001
0110
,
1000
1000
0001
0100
0010
0100
0001
1000
,
0001
0000
0000
0010
0000
0000
0100
0000
1000
0000
0000
0000
1100
0000
0000
0000
,
1000
0000
0010
0000
0100
0000
0001
0000
0000
0101
0000
0000
,
1000
0010
1000
0010
0100
0001
0100
0001
,
0010
0001
0010
0001
1000
0010
1000
0010
0100
0001
0100
0001
1000
0000
0000
0000
,
1000
0000
1000
0000
0001
0000
0100
0000
0010
0000
0100
0000
0001
1000
0001
0000
,
1000
0000
0010
0000
0100
0001
0100
0000
0010
0000
1000
0000
0100
0000
0010
0000
,
0001
0000
0001
0000
1000
0000
0010
0000
0100
0000
0010
0000
1000
0001
1000
0000
,
0100
0010
0001
1000
0100
0000
1100
0000
,
0001
0000
0001
0000
1000
0000
0100
0000
0010
0000
0100
0000
1000
0001
1000
0000
,
0001
0000
0010
0000
0100
1000
0100
0000
0010
0000
0001
0000
0100
0000
0010
0000
,
1000
1000
0001
0010
0100
0010
0001
1000
,
1020
0230
0301
1001
,
0001
0001
1000
0010
0100
0010
1000
0001
,
0021
0000
0230
0000
1300
0010
0100
0001
;

//--------------- dance-single - ----------------
#NOTES:
     dance-single:
     :
     Challenge:
     18:
     1.004467,1.158674,0.52817,0.478655,0.953183,852,788,64,58,0,0,1.004467,1.158674,0.52817,0.478655,0.953183,852,788,64,58,0,0:
0000
0000
0000
0000
,
0000
0000
0000
0000
,
0000
0000
0000
0000
,
0001
0000
0000
0000
0000
0000
0100
0000
0001
0000
0100
0000
0001
0000
0000
1000
0000
0000
0010
0000
0000
0100
0000
0000
0001
0000
0000
0010
0000
0000
0001
0000
0000
0010
0000
0000
0100
0000
0000
1000
0000
0000
0100
0000
0000
1000
0000
0000
,
0001
0000
0000
0000
0000
0000
1000
0000
0100
0000
1000
0000
0100
0000
0000
0010
0000
0000
0100
0000
0000
1000
0000
0000
0001
0000
0000
0100
0000
0000
0001
0000
0000
0100
0000
0000
0010
0000
0000
1000
0000
0000
0010
0000
0000
1000
0000
0000
,
0001
0010
0001
0010
0100
1000
0200
0010
,
0310
0000
0001
0000
0200
0000
0010
0000
0310
1000
0100
0000
0020
0000
0001
0000
,
0031
0100
0001
0100
0010
1000
0020
0100
,
0130
0000
0001
0000
1000
0000
0100
0000
0010
0001
0010
0000
0001
0000
1001
0000
,
1000
0010
1000
0010
0100
0001
0200
0010
,
0310
0000
1000
0000
0200
0000
0010
0000
0310
0001
0100
0000
0020
0000
1000
0000
,
1030
0100
1000
0100
0010
0001
0010
0100
,
1100
0000
1000
0000
1001
0000
0001
0000
0101
0000
0100
0010
0100
0010
0100
0010
,
1000
0000
0000
0000
0000
0000
0100
0000
0010
0000
0100
0000
0010
0000
0000
0001
0000
0000
0010
0000
0000
0100
0000
0000
1000
0000
0000
0000
0000
0000
0010
0000
0000
0100
0000
0000
0001
0000
0000
1000
0000
0000
0010
0000
0000
0000
0000
0000
,
0100
0000
0000
0000
0000
0000
0001
0000
0010
0000
0001
0000
0010
0000
0000
0100
0000
0000
1000
0000
0000
0001
0000
0000
0010
0000
0000
0000
0000
0000
0100
0000
0000
0010
0000
0000
0001
0000
0000
0100
0000
0000
0010
0000
0000
1000
0000
0000
,
0001
0000
0000
0000
0000
0000
0100
0000
0010
0000
0100
0000
0010
0000
0000
1000
0000
0000
0010
0000
0000
0100
0000
0000
0001
0000
0000
0000
0000
0000
0010
0000
0000
0100
0000
0000
1000
0000
0000
0001
0000
0000
0010
0000
0000
0000
0000
0000
,
0100
0000
0000
0000
0000
0000
1000
0000
0010
0000
1000
0000
0010
0000
0000
0100
0000
0000
0001
0000
0000
1000
0000
0000
0010
0000
0000
0000
0100
0000
0000
0000
0010
0000
0000
0000
1000
0000
0000
0000
0100
0000
0000
0000
0010
0000
0000
0000
,
0001
1000
0100
0020
0000
0002
0000
0033
,
0100
0010
1000
0002
0000
1003
0001
1000
,
0100
0010
0001
0200
0000
0310
0100
0010
,
1000
0000
0000
0000
0000
0000
0100
0000
0010
0000
0100
0000
0010
0000
0000
0001
0000
0000
0010
0000
0000
0100
0000
0000
1000
0000
0000
0000
0000
0000
0010
0000
0000
1000
0000
0000
0010
0000
0000
0100
0000
0000
0001
0000
0000
1000
0000
0000
,
0010
1000
0001
1000
0010
0100
0001
0010
0100
1000
0100
0010
0001
0100
0001
1000
,
0010
0100
0010
1000
0001
0100
0010
0100
0001
0010
0001
1000
0001
0010
0100
1000
,
0100
0010
0001
0100
0010
1000
0100
0010
0001
0010
0100
1000
0001
0010
0100
1000
,
0001
0000
0000
1000
0000
0000
0010
0000
0100
0000
0010
0000
0100
0000
0000
0001
0000
0000
1000
0000
0000
0100
0000
0000
0010
0000
0000
0100
0000
0000
1000
0000
0000
0000
0000
0000
0001
0000
0000
0100
0000
0000
0001
0000
0000
0100
0000
0000
,
0001
0100
0010
1010
1100
0100
0010
0011
,
1001
0000
1000
0010
1000
0000
2010
0000
0000
0000
0010
0000
3010
0000
0010
0000
,
0110
0100
0001
0101
1001
1000
0100
1100
,
0110
0000
0010
0001
1000
0000
0002
0000
1000
0000
1003
0000
1000
0000
0001
0000
,
0101
0100
0010
0020
2030
3100
0010
0020
,
0031
0000
1000
0010
2000
0000
0001
0000
3001
0010
0100
0000
1000
0000
0100
0000
,
0110
0010
0001
1000
0010
0020
0230
0302
,
0013
0000
0010
0000
0100
0000
1000
0000
0100
0010
0001
0000
1000
0000
1001
0000
,
0001
0100
0001
0100
0010
1000
0010
1000
0010
0100
0010
0100
0001
1000
0001
1000
,
0001
0100
0010
1000
0010
0100
0001
1000
0001
0000
0000
0000
0110
0000
0000
0000
,
1000
0000
0100
0000
1000
0000
0010
0100
0001
0100
0010
0000
0200
0000
0001
0000
,
0301
0000
1000
0000
0010
0000
0100
0001
0010
0001
0100
0000
0020
0000
1000
0000
,
1030
0000
0010
0000
1000
0000
0010
0100
0001
0100
0010
0000
0200
0000
0310
0000
,
0110
0010
1010
1000
1001
0001
0101
0100
,
0001
0000
0100
0000
0001
0000
0100
0010
1000
0001
1000
0000
0020
0000
0100
0000
,
0130
0000
0001
0000
0010
0000
0100
1000
0010
1000
0100
0000
0020
0000
0001
0000
,
0031
0000
0010
0000
0001
0000
0010
0100
1000
0100
0010
0000
0200
0000
0310
0000
,
0110
0010
0011
0001
2002
0000
3003
0000
,
0001
0000
0000
0000
0000
0000
0100
0000
0010
0000
0100
0000
0010
0000
0000
1000
0000
0000
0010
0000
0000
0100
0000
0000
0001
0000
0000
0000
0000
0000
0010
0000
0000
0100
0000
0000
0000
0000
0000
0001
0000
0000
1000
0000
0000
0000
0000
0000
,
0100
0000
0000
0000
0000
0000
1000
0000
0010
0000
1000
0000
0010
0000
0000
0100
0000
0000
0001
0000
0000
1000
0000
0000
0010
0000
0000
0000
0000
0000
0100
0000
0000
0010
0000
0000
0000
0000
0000
0100
0000
0000
0010
0000
0000
0001
0000
0000
,
1000
0000
0000
0000
0000
0000
0100
0000
0010
0000
0100
0000
0010
0000
0000
0001
0000
0000
0010
0000
0000
0100
0000
0000
1000
0000
0000
0000
0000
0000
0010
0000
0000
0100
0000
0000
0000
0000
0000
1000
0000
0000
0001
0000
0000
0000
0000
0000
,
0100
0000
0000
0000
0000
0000
0001
0000
0010
0000
0001
0000
0010
0000
0000
0100
0000
0000
1000
0000
0000
0001
0000
0000
0010
0000
0000
0000
0100
0000
0000
0000
0010
0000
0000
0000
0001
0000
0000
0000
0100
0000
0000
0000
0010
0000
0000
0000
,
1000
0100
0010
0110
0011
0001
0100
0110
,
1010
0000
1000
0000
0100
0000
1100
0000
1000
0100
1000
0000
0001
0000
0100
0000
,
0101
0001
0100
0110
1010
1000
0100
0110
,
0011
0010
0100
1100
1000
1010
0110
0101
,
1001
0001
0100
0101
0110
0010
1000
1100
,
0110
0000
0010
0000
0001
0000
1001
0000
1000
0001
0100
0000
0110
0000
0010
0000
,
0110
0100
0001
1000
0002
0023
0230
1000
,
1300
0000
0010
0000
0100
0000
0001
0000
0100
0010
1000
0000
0001
0000
1001
0000
,
1000
0100
1000
0100
0010
0001
0010
0001
1000
0001
1000
0001
0010
0100
0010
0100
,
1000
0100
0010
0001
1000
0001
0010
0100
1000
0000
0000
0000
0110
0000
0000
0000
,
0001
0010
0200
0000
0301
0100
2000
0000
,
3100
0010
0002
0000
1003
0010
0002
0000
,
0013
1000
0200
0000
0310
0001
0200
0000
,
0310
1000
0002
0000
0103
0010
1001
0000
,
0001
0101
1000
1100
,
0001
0000
0011
0000
1000
0000
1010
0010
,
0110
0100
0001
1000
0100
0010
0100
1000
,
0002
0000
0100
0000
0103
0000
0010
0000
1000
0100
2000
0000
0100
0000
3100
0000
,
1100
0000
0110
0000
0011
0000
0101
0000
0000
1010
0000
0000
,
1000
0010
1000
0010
0100
0001
0100
0001
0100
0010
0100
0010
1000
0010
0100
0001
,
1000
0010
1000
0010
1000
0010
0100
0001
0100
0001
0100
0001
0010
0100
0010
0100
0010
0100
0000
0000
0000
0000
0000
0000
,
1000
0100
0010
0001
0010
0100
1000
0001
0100
0010
1000
0010
0100
0001
1000
0100
,
0010
0001
0100
0001
0010
0100
1000
0100
0010
0001
0100
0010
1000
0100
0010
0001
,
1000
0010
0100
0001
0100
0010
1000
0001
0100
1000
0100
0001
1000
0010
0001
0010
,
1000
1100
0110
0101
2002
0000
3003
0000
,
0001
0100
0010
1000
0010
0100
0001
1000
0100
0001
0100
0010
0100
1000
0001
0100
,
0010
1000
0010
0100
0010
0001
0010
1000
0100
0010
0001
0100
0010
1000
0100
0010
,
0001
0100
0001
0100
1000
0100
0010
0100
0001
0010
0100
1000
0001
0100
1000
0000
,
1001
0000
0000
0000
0110
0000
0000
0000
1001
0000
0001
0010
0100
0010
0100
1000
,
0002
0203
0320
2030
3200
0302
0203
2300
,
3002
0023
2030
3020
0032
2003
3200
0002
,
0303
0000
0000
0000
;
