#TITLE:yellow head joe;
#SUBTITLE:;
#ARTIST:S-C-U;
#TITLETRANSLIT:;
#SUBTITLETRANSLIT:;
#ARTISTTRANSLIT:;
#GENRE:TEK-TRANCE;
#CREDIT:;
#BANNER:yellow_head_joe_banner.png;
#BACKGROUND:yellow_head_joe.png;
#LYRICSPATH:;
#CDTITLE:;
#MUSIC:yellow head joe.ogg;
#OFFSET:0.020000;
#SAMPLESTART:52.110001;
#SAMPLELENGTH:15.000000;
#LASTBEATHINT:289.004883;
#SELECTABLE:YES;
#BPMS:0.000000=187.000000
;
#STOPS:34.500000=0.321000,
155.500000=0.160000,
156.000000=0.160000,
156.500000=0.160000,
157.000000=0.160000
;
#BGCHANGES:;
#KEYSOUNDS:;
#ATTACKS:;

//---------------dance-single - ----------------
#NOTES:
     dance-single:
     :
     Easy:
     7:
     0.370760,0.375878,0.156344,0.156344,0.026057,249.000000,234.000000,15.000000,15.000000,0.000000,0.000000,0.370760,0.375878,0.156344,0.156344,0.026057,249.000000,234.000000,15.000000,15.000000,0.000000,0.000000:
0000
0000
0000
0000
0000
0000
0000
1000
,
0000
0001
0010
0001
,
1000
0000
0010
0000
1000
0000
0000
0001
,
0000
0100
0001
0100
,
0010
0000
1000
0000
0010
0000
0000
1000
,
0000
0100
1000
0010
,
1000
0000
0100
0000
0010
0000
0000
0001
,
0000
0100
0010
0100
,
0001
0000
0010
0000
0002
0003
1000
0000
,
0010
1000
0010
0100
,
0001
0100
0001
0010
,
0001
0010
0001
1000
,
0001
1000
0000
0010
,
0100
0010
0100
0001
,
0010
0001
0010
0100
,
1000
0100
1000
0001
,
1000
2002
3003
0100
,
0010
0100
0001
0100
,
0010
0100
0000
0010
,
1000
0100
1000
0010
,
1000
0100
0000
0010
,
0001
0100
0010
1000
,
0001
0100
0000
0011
,
0000
1001
0000
2200
,
0000
0000
0000
3300
0000
0000
0100
0000
,
0010
0001
0010
0100
,
1000
1001
0000
0010
,
0100
1000
0100
0010
,
0100
0101
0000
0001
,
0100
1000
0100
0001
,
0010
0010
0000
1000
,
0010
0001
0010
1000
,
0100
0200
0300
0010
,
0100
1000
0100
0010
,
0100
1100
0000
0010
,
0100
0001
0100
0010
,
0100
0101
0000
0010
,
1000
0010
0001
0010
,
0100
1000
0000
0001
,
0100
0000
0100
0000
0020
0000
0000
0030
,
0000
1000
0010
0100
,
0010
1000
0100
0010
,
0000
0001
0100
0010
,
0100
0000
0202
0000
0000
0000
0000
0303
,
0000
0010
1000
0001
,
0010
0001
1000
0010
,
0000
0100
0001
1000
,
0100
1000
0001
2002
,
3003
0010
0001
0100
,
0001
0010
0001
0100
,
0000
0010
0100
0001
,
1000
0000
2200
0000
0000
0000
0000
3300
,
0000
0001
0010
1000
,
0000
1000
0010
0001
,
0000
0110
0000
0001
,
0000
0000
2002
0000
0000
0000
0000
3003
,
0000
0100
0000
0010
,
0000
0010
0000
0100
,
0001
1000
0000
0010
,
0000
0010
0000
0100
,
0001
0100
0010
0100
,
0001
0100
1000
0100
,
0000
0010
1000
0010
,
0001
0010
1000
0001
,
0000
1000
0001
0010
,
0100
1000
0001
1001
,
0000
0100
0010
1000
,
0001
0010
0100
0110
,
0000
1000
0010
0100
,
0001
0010
0100
1000
,
0000
0000
0000
0000
0000
0001
0000
0000
0000
0000
0000
1000
0000
0000
0000
0000
,
0000
0001
0000
0000
0000
0000
0000
1000
0000
0000
0000
0000
0000
0010
0000
0000
,
0010
0100
0000
0000
0000
0000
0000
0000
;

//---------------dance-single - ----------------
#NOTES:
     dance-single:
     :
     Medium:
     12:
     0.582197,0.563817,0.218882,0.135499,0.302266,391.000000,370.000000,21.000000,13.000000,0.000000,0.000000,0.582197,0.563817,0.218882,0.135499,0.302266,391.000000,370.000000,21.000000,13.000000,0.000000,0.000000:
0000
0000
0000
0000
0000
0000
0000
1001
,
0000
0100
0010
0100
0001
0000
0010
0001
,
1000
0001
0010
0000
0100
1000
0000
1010
,
0000
0100
0010
1000
0010
0100
0000
0001
,
0010
0100
0010
0001
0000
0100
0000
0110
,
0000
0010
1000
0001
0010
0000
0100
0010
,
0100
1000
0010
0000
0100
0010
0000
0101
,
0000
1000
0001
0010
0100
1000
0000
1000
,
0010
0100
0001
0100
0000
0011
1000
0000
,
0010
0000
1000
0001
0100
0000
0001
0000
,
0010
0000
0100
1000
0001
0000
1000
0000
,
0010
0000
1000
0001
0100
0000
0001
0000
,
0100
0000
0001
0010
0100
0000
0010
0000
,
0001
0000
1000
0001
0100
0000
0010
0000
,
1000
0000
0001
1000
0100
0000
1000
0000
,
0010
0000
0100
0010
1000
0000
0001
0000
,
0010
0000
0000
0000
0100
0000
0010
0000
0001
0000
0000
0000
1000
0000
0000
0100
,
0000
0000
1000
0000
0000
0010
0000
0000
0100
0000
0000
0000
0001
0000
0000
0100
,
0000
0000
0010
0000
0000
0100
0000
0000
0001
0000
0000
0000
0010
0000
0000
0100
,
0000
0000
1000
0000
0000
0010
0000
0000
0100
0000
0000
0000
0001
0000
0000
0010
,
0000
0000
0100
0000
0000
0010
0000
0000
0001
0000
0000
0000
0100
0000
0000
0001
,
0000
0000
1000
0000
0000
0010
0000
0000
1000
0000
0000
0000
0100
0000
0000
1000
,
0000
0000
0010
0000
0000
0100
0000
0000
0001
0000
0000
0000
0011
0000
0000
0000
,
0000
1100
0000
1001
,
0000
0000
0220
0000
0330
0000
0001
0100
,
0010
0000
0100
0010
1000
0000
0100
1000
,
0010
0000
0220
0000
0330
0000
1000
0010
,
0100
0001
0000
1000
0001
0010
0100
1000
,
0000
1000
0001
0000
1001
0000
0100
0010
,
1000
0000
0010
0100
0001
0000
0010
0001
,
1000
0000
0000
0000
2002
0000
0000
0000
3003
0000
0000
0000
0001
0000
0000
0100
,
0000
0000
0010
0000
0100
0000
0000
0010
0000
0000
1000
0000
0100
0000
0000
0010
,
0000
0001
0100
0000
0110
0000
0010
1000
,
0100
0000
1000
0100
0010
0000
0001
0100
,
0010
0000
0220
0000
0330
0000
1000
0100
,
0010
0100
0000
1000
0001
0100
0010
0100
,
0000
0001
1000
0000
1001
0000
0100
0010
,
0100
0000
0001
0010
0001
0000
1000
0100
,
1000
0000
0100
0010
0100
0010
0100
1000
,
0001
1000
0010
0100
0020
0000
0030
0000
,
0000
0000
0000
0000
0100
0000
0000
0001
0000
0000
0100
0000
0000
0000
0010
0000
,
1000
0000
0100
0000
1000
0000
0000
0100
0000
0000
0010
0000
0000
0000
0100
0000
,
1000
0000
0000
0000
0010
0000
0000
0100
0000
0000
0001
0000
0000
0000
0100
0000
,
0001
0010
0200
0000
0000
0000
0000
0000
,
0300
0000
0000
0000
1000
0000
0000
0010
0000
0000
1000
0000
0000
0000
0001
0000
,
0100
0000
0000
0000
0001
0000
0000
0010
0000
0000
0100
0000
0000
0000
0010
0000
,
0001
0000
0000
0000
1000
0000
0000
0100
0000
0000
0010
0000
0000
0001
0000
0000
,
0100
0000
0000
0010
0000
0000
1000
0000
0000
0001
0000
0000
0000
0000
0001
0000
,
0010
0000
0000
0000
0101
0000
0000
0010
0000
0000
1000
0000
0000
0000
0100
0000
,
1000
0000
0001
0000
0100
0000
0000
0010
0000
0000
1010
0000
0000
0000
0100
0000
,
0001
0000
0000
0000
1000
0000
0000
0001
0000
0000
0010
0000
0000
0000
0010
0000
,
0001
1000
0020
0000
0000
0000
0000
0000
,
0030
0000
0000
0000
0100
0000
0000
0001
0000
0000
1000
0000
0000
0000
0100
0000
,
1000
0000
0010
0000
1000
0000
0000
0001
0000
0000
0100
0000
0000
0000
0010
0000
,
0100
0101
0000
1100
,
0000
0000
2002
0000
0000
0000
0000
3003
,
0000
0000
0000
0000
0010
0000
0000
0100
0000
0000
0010
0000
0000
1000
0000
0000
,
0100
0000
0000
0000
1000
0000
0000
0001
0000
0000
0100
0000
0000
0001
0000
0000
,
0010
0000
0000
0000
0001
0000
0000
0100
0000
0000
0010
0000
0000
0100
0000
0000
,
0001
0000
0000
0000
1000
0000
0000
0100
0000
0000
0010
0000
0000
0100
0000
0000
,
1000
0000
0000
0000
0001
0000
0000
0100
0000
0000
0010
0000
0000
1000
0000
0000
,
0100
0000
1000
0000
0010
0000
0000
0100
0000
0000
0001
0000
0000
0010
0000
0000
,
0001
0000
1000
0000
0100
0000
0000
0010
0000
0000
0100
0000
0000
1000
0000
0000
,
0010
0000
0000
0100
0000
0000
0010
0000
0000
0001
0000
0000
0010
0000
1000
0000
,
0001
0000
0100
0000
0001
0000
0000
0010
0000
0000
0100
0000
0000
1000
0000
0000
,
0100
0000
1000
0000
0010
0000
0000
1000
0000
0000
0001
0000
0000
0100
0000
0000
,
0001
0000
0010
0000
0100
0000
0000
1000
0000
0000
0010
0000
0000
1000
0000
0000
,
0100
0000
0010
0000
0001
0000
0000
0100
0000
0000
0010
0000
0000
0100
0000
0000
,
0001
1000
0010
0100
0010
0000
1000
0100
,
0010
0000
0001
0100
0010
1000
0001
0010
,
0100
0000
1000
0000
0000
1100
0000
0000
0010
0000
0000
0100
0000
0000
0010
0000
,
0000
0100
0000
0000
0001
0000
0000
1000
0000
0000
0100
0000
0000
0010
0000
0000
,
0001
1000
0000
0000
0000
0000
0000
0000
;

//---------------dance-single - ----------------
#NOTES:
     dance-single:
     :
     Hard:
     16:
     0.874040,0.864520,0.323112,0.375227,0.823414,587.000000,556.000000,31.000000,36.000000,0.000000,0.000000,0.874040,0.864520,0.323112,0.375227,0.823414,587.000000,556.000000,31.000000,36.000000,0.000000,0.000000:
// measure 0
0000
0000
0000
0000
0000
0000
0000
1001
,  // measure 1
0000
1000
0010
0001
0020
0000
0130
1000
,  // measure 2
0100
0001
0020
0000
0130
1000
0000
1001
,  // measure 3
0000
0000
0100
1000
0100
0000
1000
0000
0010
0000
0100
0000
0000
0000
0001
0010
,  // measure 4
0001
0010
0100
1000
0001
0100
0000
0110
,  // measure 5
0000
0001
0100
1000
0200
0000
0301
0010
,  // measure 6
1000
0010
0002
0000
1003
0010
0000
0110
,  // measure 7
0000
0000
0001
0010
0001
0000
0100
0000
0010
0000
1000
0000
0000
0000
0100
1000
,  // measure 8
0100
0000
1000
0000
0010
0000
0100
0000
0001
0000
1001
0000
1000
0000
0000
0100
,  // measure 9
0000
0000
0010
0000
0000
0001
0000
0000
0100
0000
0010
0000
0100
0000
0000
0001
,  // measure 10
0000
0000
0010
0000
0000
0100
0000
0000
1000
0000
0001
0000
0100
0000
0000
0001
,  // measure 11
0000
0000
0010
0000
0000
0100
0000
0000
1000
0000
0010
0000
0100
0000
0000
0010
,  // measure 12
0000
0000
1000
0000
0000
0100
0000
0000
1000
0000
0001
0000
0100
0000
0000
0010
,  // measure 13
0000
0000
0110
0000
0000
1000
0000
0000
0001
0000
0010
0000
0001
0000
0000
1000
,  // measure 14
0000
0000
1100
0000
0000
0010
0000
0000
0100
0000
0001
0000
1000
0000
0000
0010
,  // measure 15
0000
0000
0100
0000
0000
0001
0000
0000
0000
0010
0000
0000
0100
0000
0000
1000
,  // measure 16
0000
0000
0010
0000
0000
1000
0000
0000
0100
0000
0010
0000
0001
0000
0100
0000
,  // measure 17
0001
0010
0000
0001
0100
0000
0001
0010
0000
0001
0100
0000
0010
0000
1000
0100
,  // measure 18
0000
1000
0010
0000
1000
0100
0000
1000
0010
0000
0100
0000
0010
0000
1000
0000
,  // measure 19
0001
0010
0000
0100
1000
0000
0010
1000
0000
0100
1000
0000
0010
0000
0100
0010
,  // measure 20
0000
0100
0001
0000
0010
0001
0000
1000
0010
0000
0100
0000
0001
0000
0010
0000
,  // measure 21
0100
1000
0000
0100
1000
0000
0100
1000
0000
0010
0100
0000
0010
0000
0100
0001
,  // measure 22
0000
0100
0001
0000
0100
0010
0000
0010
0100
0000
0001
0000
0010
0200
0000
0000
,  // measure 23
2300
0000
0000
3002
0000
0000
0023
0000
0000
0032
0000
0000
2003
0000
0000
3020
,  // measure 24
0000
0000
0032
0000
0000
2003
0000
0000
3200
0000
0301
0000
0010
0000
0001
0000
,  // measure 25
1000
0000
0010
0100
0010
0000
1000
0000
0100
0000
0001
0000
0100
0000
1000
0000
,  // measure 26
0010
0000
0220
0000
0330
0000
0001
0100
,  // measure 27
1000
0100
0000
0010
1000
0100
0001
0100
,  // measure 28
0000
0010
0100
1000
0020
0000
0130
0001
,  // measure 29
1000
0000
0001
0010
0001
0000
1000
0000
0100
0000
0010
0000
0100
0000
1000
0000
,  // measure 30
0010
0000
0000
0000
2002
0000
0000
0000
3003
0000
0000
0000
0100
0000
0001
0010
,  // measure 31
0000
0001
0100
0000
0010
0000
1000
0100
0000
1000
0010
0000
0100
0000
0001
0010
,  // measure 32
0000
0100
1000
0000
0001
0000
0100
0000
0200
0000
0000
0000
0310
0000
1000
0000
,  // measure 33
0001
0000
0010
0100
0010
0000
0001
0000
1000
0000
0010
0100
0000
0000
0100
0010
,  // measure 34
0100
0001
0010
0000
1100
0000
0001
0010
,  // measure 35
1000
0020
0000
0031
1000
0010
0001
0020
,  // measure 36
0000
0000
1030
0000
0001
0000
0100
0000
0010
0000
1000
0100
1000
0000
0010
0000
,  // measure 37
0100
0000
0001
0010
0100
0000
1000
0000
0010
0000
1000
0001
0100
0000
0010
0000
,  // measure 38
1000
0000
1010
0010
0110
0000
1001
0010
,  // measure 39
0110
1100
0110
0100
0220
0000
0330
0000
,  // measure 40
0000
0000
0000
0000
1000
0000
0001
0010
0000
0001
0100
0000
0001
0000
0010
0000
,  // measure 41
0100
0000
1000
0000
0010
0000
1000
0100
0000
1000
0010
0000
0100
0000
0001
0000
,  // measure 42
1000
0000
0010
0000
0100
0000
0010
1000
0000
0000
1100
0000
0000
0000
1000
0000
,  // measure 43
0001
0010
0200
0000
0000
0000
0000
0010
,  // measure 44
0310
0000
0000
0000
0001
0000
1000
0010
0000
1000
0100
0000
0010
0000
0001
0000
,  // measure 45
1000
0000
0001
0000
0100
0000
0010
1000
0000
0010
0100
0000
0001
0000
1000
0000
,  // measure 46
0100
0000
0010
0000
0001
0000
0010
0100
0000
0100
1000
0000
1000
0010
0000
0010
,  // measure 47
0100
0000
0100
0001
0000
0001
0010
0000
0010
0100
0000
0000
2002
0000
0000
0000
,  // measure 48
3003
0000
0000
0000
0100
0000
0001
0100
0000
1000
0100
0000
0010
0000
1000
0000
,  // measure 49
0100
0000
0001
0000
0100
0000
1000
0100
0000
0001
0100
0000
1000
0000
0010
0000
,  // measure 50
0001
0000
0010
0000
1000
0000
0001
0010
0000
0000
0110
0000
0000
0000
0100
0000
,  // measure 51
1000
0001
0020
0000
0000
0000
0000
0100
,  // measure 52
0130
0000
0000
0000
1000
0000
0010
0001
0000
0010
1000
0000
0001
0000
0010
0000
,  // measure 53
0100
0000
1000
0000
0010
0000
1000
0010
0000
0001
0010
0000
0100
0000
0001
0000
,  // measure 54
0010
0000
0100
0000
2000
0000
0000
3020
0000
0000
0230
0000
0000
0302
0000
0000
,  // measure 55
0013
0000
0000
0220
0000
0000
0000
0000
0330
0000
0000
0000
2002
0000
0000
0000
,  // measure 56
3003
0000
0000
0000
0100
0001
0000
0100
0001
0000
0100
0010
0000
0100
0010
0000
,  // measure 57
1000
0010
0000
1000
0001
0000
0010
0001
0000
0100
0010
0000
1000
0100
0000
1000
,  // measure 58
0010
0000
0100
0000
0001
0010
0000
0001
0010
0000
0001
0100
0000
0001
0100
0000
,  // measure 59
0010
1000
0000
0100
1000
0000
0010
1000
0000
0100
1000
0000
0001
0010
0000
0100
,  // measure 60
1000
0000
0010
0000
1000
0000
0001
0000
0010
0100
0000
1000
0010
0000
0100
0001
,  // measure 61
0000
0010
0001
0000
1000
0000
0010
0100
0000
0001
0010
0000
0001
0100
0000
0010
,  // measure 62
1000
0000
0001
0000
0100
0010
0000
0100
0001
0000
0100
1000
0000
0100
0001
0000
,  // measure 63
0100
0010
0000
0100
0001
0000
0100
1000
0000
0100
0001
0000
0100
0010
0000
0100
,  // measure 64
0001
0000
0010
0000
0001
0010
0000
0010
0100
0000
1000
0010
0000
0010
0100
0000
,  // measure 65
0001
0010
0001
0000
0010
0000
0001
0100
0000
0010
1000
0000
0100
1000
0000
0001
,  // measure 66
0010
0000
0100
0000
0010
0100
0000
0100
1000
0000
0001
0100
0000
0100
0010
0000
,  // measure 67
1000
0100
1000
0000
0010
0000
1000
0100
0000
1000
0010
0000
0100
0001
0000
0010
,  // measure 68
0001
0000
0100
0000
0001
0000
0010
0000
0100
0000
1000
0000
0010
0100
0010
0000
,  // measure 69
1000
0100
1000
0000
0010
0000
1000
0000
0100
0000
0010
0000
0001
0100
0010
0000
,  // measure 70
1000
0001
0100
0000
0000
0011
0000
0000
1100
0000
0000
1010
0000
0000
0101
0000
,  // measure 71
0000
1001
0000
0000
0011
0000
0000
1010
0000
0000
0101
0000
0000
0011
0000
0000
,  // measure 72
1000
0010
0100
0000
0000
0000
0000
0000
0000
0000
0000
0000
0000
0000
0000
0000
;
