#TITLE:wound;
#SUBTITLE:;
#ARTIST:KEENO;
#TITLETRANSLIT:;
#SUBTITLETRANSLIT:;
#ARTISTTRANSLIT:;
#GENRE:;
#CREDIT:;
#BANNER:wound_banner.png;
#BACKGROUND:wound.png;
#LYRICSPATH:;
#CDTITLE:;
#MUSIC:wound.ogg;
#OFFSET:-0.670000;
#SAMPLESTART:61.959999;
#SAMPLELENGTH:15.000000;
#LASTBEATHINT:327.500000;
#SELECTABLE:YES;
#BPMS:0.000000=185.000000
;
#STOPS:
;
#BGCHANGES:;
#KEYSOUNDS:;
#ATTACKS:;

//---------------dance-single - ----------------
#NOTES:
     dance-single:
     :
     Easy:
     6:
     0.278587,0.339999,0.157118,0.175602,0.000000,211.000000,194.000000,17.000000,19.000000,0.000000,0.000000,0.278587,0.339999,0.157118,0.175602,0.000000,211.000000,194.000000,17.000000,19.000000,0.000000,0.000000:
0000
0000
0000
0000
,
0000
0000
0000
0000
,
0000
0000
0000
0000
,
0000
0000
0000
0000
,
0010
0000
0100
0000
,
0001
0000
0010
0000
,
0001
0000
1000
0000
,
0110
0000
1001
0000
,
0100
0010
1000
0000
,
0001
0010
0100
0000
,
1000
0001
0100
0000
,
0010
1000
0100
0000
,
0010
0100
1000
0000
,
0001
0010
0100
0000
,
1000
0010
0100
0000
,
0010
1000
0001
0000
,
0002
0000
1003
0000
,
1000
0010
0100
0000
,
0020
0000
0130
0000
,
0001
1000
0100
0000
,
0010
0001
0010
0000
,
0100
1000
0100
0000
,
1000
0010
1000
0000
,
0001
0000
0101
0000
,
0010
0100
0010
0000
,
1000
0000
1001
0000
,
0010
1000
0100
0000
,
0010
0000
0101
0000
,
0010
0100
0001
0000
,
2000
0000
3010
0000
,
0200
0000
0310
0010
,
1000
0000
0001
0000
,
0010
0001
1000
0000
,
0010
0100
0001
0000
,
0002
0000
1003
0100
,
2000
0000
3010
0000
,
0100
0001
1000
0000
,
0100
1000
0010
0000
,
0200
0000
0301
0010
,
0001
0000
1010
0000
,
0220
0000
0330
0000
,
0001
0000
0010
0000
,
0022
0000
0033
0000
,
1000
0000
0100
0000
,
1000
0001
0010
0000
,
0001
1000
0010
0000
,
0100
0010
0100
0010
,
2002
0000
3003
0000
,
1000
0010
0100
0000
,
0002
0000
0013
0000
,
0001
0010
0100
0000
,
2000
0000
3010
0000
,
0100
0001
0100
0000
,
0100
1000
0100
0000
,
0010
0000
0010
0100
,
0020
0000
1030
0000
,
0001
0010
0100
0000
,
0010
0000
1100
0000
,
0010
0100
0001
0000
,
1000
0000
0011
0000
,
0100
1000
0001
0000
,
1000
0010
0100
0000
,
0001
1000
0001
1000
,
0200
0000
0310
0000
,
0001
0010
0001
0000
,
1000
0010
1000
0000
,
0001
0100
0001
0000
,
1000
0000
0110
0000
,
0001
0100
0010
0000
,
1000
0100
0010
0000
,
0110
0000
1000
0000
,
0001
0100
0010
0000
,
1100
0000
0001
0000
,
0010
0001
1000
0000
,
0101
0000
0010
0000
,
1000
0001
0010
0000
,
1001
0000
0010
0000
,
0100
0010
1000
0001
,
2002
0000
0000
0000
,
0000
0000
0000
0000
,
0000
0000
0000
0000
,
0000
0000
0000
3003
;

//---------------dance-single - ----------------
#NOTES:
     dance-single:
     :
     Medium:
     10:
     0.421182,0.453331,0.073938,0.120149,0.314236,319.000000,311.000000,8.000000,13.000000,0.000000,0.000000,0.421182,0.453331,0.073938,0.120149,0.314236,319.000000,311.000000,8.000000,13.000000,0.000000,0.000000:
0000
0000
0000
0000
,
0000
0000
0000
0000
,
0000
0000
0000
0000
,
0000
0000
0000
0000
,
0001
0000
0000
0010
0000
0001
0000
0000
0000
1000
0000
0010
,
0000
0100
0010
1000
,
0100
1000
0001
0010
,
0001
0000
0001
0000
0000
0000
1000
0000
1000
0000
0000
0000
,
0100
0000
0000
0010
0000
0000
0100
0000
0000
1000
0000
0001
,
0000
0010
0001
0100
,
0010
0000
0000
1000
0000
0000
0100
0000
0000
1000
0000
0010
,
0000
0100
0001
0010
,
0001
0000
0000
1000
0000
0000
0100
0000
0000
1000
0000
0010
,
0000
0100
0001
1000
,
0010
0000
0100
0000
0001
0000
0010
0100
,
0000
1000
0000
0001
0000
1001
0000
0000
,
0100
0000
0000
0010
0000
0000
1000
0000
0000
0001
0000
0010
,
0000
0001
1000
0010
,
0100
0000
0000
0010
0000
0000
1000
0000
0000
0100
0000
1000
,
0000
0010
0100
0001
,
0010
0000
0000
0001
0000
0000
1000
0000
0000
0010
0000
0100
,
0000
0001
0010
0001
,
1000
0000
0100
0000
0010
0000
0100
1000
,
0000
1001
0000
0022
0000
0000
0033
0000
,
0100
0000
0000
0010
0000
0000
1000
0000
0000
0100
0000
1000
,
0000
0000
0010
0100
0000
0000
0010
0000
0000
1000
0000
0000
,
0001
0000
0000
0010
0000
0000
0001
0000
0000
0100
0000
0010
,
0000
0000
0100
0010
0000
0000
1000
0000
0000
0001
0000
0000
,
0010
0000
0000
0100
0000
0000
1000
0000
0000
0010
0000
1000
,
0000
0000
0010
0100
0000
0000
0001
0000
0000
0010
0000
0000
,
0002
0000
0000
0000
0000
0000
0103
0000
0000
0010
0000
1000
,
0000
0100
1000
0010
,
0100
0000
0000
0001
0000
0000
0010
0000
0000
0001
0000
0100
,
0000
0000
0001
0100
0000
0000
0010
0000
0000
1000
0000
0000
,
0100
0000
0000
1000
0000
0000
0010
0000
0000
0100
0000
0010
,
0000
0000
1000
0001
0000
0000
0010
0000
0000
0001
0000
0000
,
1000
0000
0000
0010
0000
0000
0100
0000
0000
0010
0000
1000
,
0000
0000
0100
1000
0000
0000
0010
0000
0000
0100
0000
0000
,
0002
0000
0000
0000
0000
0000
1003
0000
0000
0100
0000
1000
,
0000
0010
0100
0001
,
0010
0020
0000
0000
0032
0000
0000
0000
,
1003
0010
0110
0000
,
1000
0000
0000
0001
0000
0000
0010
0000
0000
0001
0000
0100
,
0000
0000
0010
1000
0000
0000
0100
0000
0000
1000
0000
0000
,
0010
0000
0000
0100
0000
0000
0001
0000
0000
0010
0000
0001
,
0000
1000
0010
1000
,
0020
0000
0000
0000
0000
0000
0130
0000
0000
0001
0000
0010
,
0000
0000
0000
0100
0000
0000
1000
0000
0000
0010
0000
0100
,
0000
0000
0000
0001
0000
0000
0010
0000
0000
0001
0000
1000
,
0000
0000
0100
1000
0000
0000
0010
0000
0000
0100
0000
0001
,
0000
0000
0000
0010
0000
0000
0001
0000
0000
1000
0000
0010
,
0000
0000
0100
0010
0000
0000
1000
0000
0000
0100
0000
0000
,
2000
0000
0000
0010
0000
0000
3010
0000
0000
0100
0000
0001
,
0000
0000
0010
0001
0000
0000
1000
0000
0000
0010
0000
0000
,
1000
0000
0000
0001
0000
0010
0000
0000
0001
1000
0000
0010
,
0000
0100
0010
1000
,
1002
0000
0000
0000
0000
0000
0013
0000
0000
0100
0000
0010
,
0000
0000
0001
0010
0000
0000
0001
0000
0000
1000
0000
0000
,
0010
0000
0000
1000
0000
0000
0100
0000
1000
0000
0000
0010
,
0000
0000
0100
0001
0000
0000
0010
0000
0000
0001
0000
0000
,
1000
0000
0001
0010
0000
0000
0001
0000
1000
0010
0000
0100
,
0000
0010
1000
0100
,
0010
0100
1000
0001
,
0100
0010
1000
1001
,
0200
0000
0000
0300
,
0020
0000
0000
0030
,
1000
0000
0000
0001
0000
0000
0010
0000
0001
1000
0000
0100
,
1000
0000
0010
0100
0000
0000
0001
0000
0000
0010
0000
0000
,
0001
0000
0000
1000
0000
0000
0010
0000
0000
1000
0000
0100
,
0000
0000
1000
0010
0000
0000
0100
0000
0000
0110
0000
0000
,
0001
0000
0010
0000
0000
0001
0010
0000
0000
0100
0000
0000
,
1000
0000
0010
0000
0000
1000
0010
0000
0000
0100
0000
0000
,
0001
0000
1000
0000
0000
0001
1000
0000
0000
0100
0000
0000
,
1000
0000
0001
0000
0000
1000
0001
0000
0000
0010
0000
0000
,
0001
0000
0100
0000
0000
0001
0100
0000
0000
0010
0000
0000
,
1000
0000
0100
0000
0000
1000
0100
0000
0000
0010
0000
0000
,
0001
0000
0010
0000
0000
0100
1000
0000
0000
0010
0000
0000
,
1000
0000
0010
0000
0000
0100
0001
0000
0000
0010
0000
0000
,
2200
0000
0000
0000
,
0000
0000
0000
0000
,
0000
0000
0000
0000
,
0000
0000
0000
3300
;

//---------------dance-single - ----------------
#NOTES:
     dance-single:
     :
     Hard:
     14:
     0.641675,0.642219,0.286509,0.147876,1.021266,486.000000,455.000000,31.000000,16.000000,0.000000,0.000000,0.641675,0.642219,0.286509,0.147876,1.021266,486.000000,455.000000,31.000000,16.000000,0.000000,0.000000:
// measure 0
0000
0000
0000
0000
,  // measure 1
0000
0000
0000
0000
,  // measure 2
0000
0000
0000
0000
,  // measure 3
0000
0000
0000
0000
,  // measure 4
0001
0000
0100
0010
0000
1000
0000
0000
0100
1000
0000
0010
,  // measure 5
0000
0000
0100
0001
0000
0100
0010
0000
0100
0001
0000
0000
,  // measure 6
1000
0000
0100
0010
0000
0001
0000
0000
1000
0010
0000
0000
,  // measure 7
0100
0000
0101
0000
0000
0000
0010
0000
1010
0000
0000
0000
,  // measure 8
1000
0000
0001
0010
0000
0000
0001
0000
0100
0010
0000
0100
,  // measure 9
0000
0000
0001
0010
0000
0001
0010
0000
0000
1100
0000
0000
,  // measure 10
0010
0000
1000
0100
0000
0000
1000
0000
0010
0100
0000
0001
,  // measure 11
0000
0000
0010
0100
0000
0000
0022
0000
0000
0033
0000
0000
,  // measure 12
0100
0000
0010
1000
0000
0000
0001
0000
0010
0100
0000
1000
,  // measure 13
0000
0000
0010
0100
0000
0001
1000
0000
0100
1000
0000
0000
,  // measure 14
0010
0000
0100
0010
0000
1000
0010
0000
0100
0001
0000
0010
,  // measure 15
0000
0000
0110
0000
0000
1000
0000
0000
0110
0000
0000
0001
,  // measure 16
0100
0000
0010
1000
0000
0100
1000
0000
0010
0100
0000
0001
,  // measure 17
0000
0000
0010
0001
0000
1000
0000
0000
0010
1000
0000
0100
,  // measure 18
1000
0000
0010
1000
0000
0001
0100
0000
0001
0010
0000
0001
,  // measure 19
0000
0000
1001
0000
0000
0010
0000
0000
0110
0000
0000
1000
,  // measure 20
0100
0000
1000
0010
0000
0100
0001
0000
0010
0001
0000
1000
,  // measure 21
0000
0000
0001
0010
0000
0001
0100
0000
0010
1000
0000
0000
,  // measure 22
0100
0000
1000
0100
0000
0001
0100
0000
1000
0010
0000
0100
,  // measure 23
0000
0000
0110
0000
0000
2002
0000
0000
0000
3003
0000
0000
,  // measure 24
0001
0000
0010
0001
0000
0000
0100
0000
0010
0000
0000
2020
,  // measure 25
0000
0000
0000
0000
0000
0000
3030
0000
0100
0010
0000
0000
,  // measure 26
2000
0000
0000
0001
0000
0000
3010
0000
0100
0001
0000
0010
,  // measure 27
0000
0000
0001
0100
0000
0010
1000
0000
0000
1001
0000
0000
,  // measure 28
0010
0000
0100
0001
0000
0000
0001
0000
0010
0100
0000
1000
,  // measure 29
0000
0000
0010
1000
0000
0001
0000
0000
0010
0001
0000
0100
,  // measure 30
0020
0000
0000
1000
0000
0000
0130
0000
0001
0010
0000
0100
,  // measure 31
0000
0000
1000
0001
0000
1000
0100
0000
0000
0110
0000
0000
,  // measure 32
1000
0000
0010
0100
0000
0000
0001
0000
0100
0010
0000
1000
,  // measure 33
0000
0000
0100
1000
0000
0010
0100
0000
0000
0101
0000
0000
,  // measure 34
0010
0000
1000
0001
0000
0000
1000
0000
0100
0010
0000
0001
,  // measure 35
0000
0000
1000
0100
0000
1000
0010
0000
0000
0101
0000
0000
,  // measure 36
0010
0000
0001
0100
0000
0000
0010
0000
1000
0100
0000
1000
,  // measure 37
0000
0000
0010
0100
0000
0001
0010
0000
0000
0001
0000
0000
,  // measure 38
0010
0000
0100
1000
0000
0000
0001
0000
1000
0010
0000
0100
,  // measure 39
0000
0000
0001
0010
0000
0100
1000
0001
1000
0001
0000
0000
,  // measure 40
0110
0000
0110
0000
0000
0000
2000
0000
0000
0000
0000
0000
,  // measure 41
3001
0000
0011
0000
0000
0000
1000
0000
0000
0100
0000
1000
,  // measure 42
0010
0000
0100
0010
0000
1000
0000
0000
0100
0010
0000
0001
,  // measure 43
0000
0000
1000
0010
1000
0010
0100
0000
0000
0001
0000
0000
,  // measure 44
0010
0000
0001
0100
0000
0000
0010
0000
1000
0100
0000
1000
,  // measure 45
0000
0000
0010
0100
0000
0000
0001
0000
0000
0011
0000
0000
,  // measure 46
1000
0000
0000
1010
0000
0000
0001
0000
0010
0100
0000
1000
,  // measure 47
0000
0000
0001
0020
0000
0000
0130
0000
0000
1000
0000
0010
,  // measure 48
0100
0000
0001
1000
0000
0000
0100
0000
1000
0010
0000
0100
,  // measure 49
0000
0000
0001
0010
0000
0001
0100
0000
0010
1000
0000
0100
,  // measure 50
1000
0000
0001
0010
0000
0000
0100
0000
0010
0001
0000
1000
,  // measure 51
0000
0000
0010
0100
0000
0010
1000
0000
0000
1001
0000
0000
,  // measure 52
0100
0000
0010
1000
0000
0000
0001
0000
0010
0001
0000
1000
,  // measure 53
0000
0000
0100
0010
0000
0100
1000
0000
0001
0010
0000
0000
,  // measure 54
0001
0000
1000
0100
0000
1000
0010
0000
0100
0001
0000
0010
,  // measure 55
0000
0000
0001
0100
0000
0010
1000
0000
0000
1100
0000
0000
,  // measure 56
0001
0000
0010
0100
0000
0020
0000
0000
0031
1000
0000
0020
,  // measure 57
0000
0000
0130
0010
0000
1000
0100
0000
0010
0001
0000
0010
,  // measure 58
0001
0000
1000
0100
0000
1000
0010
0000
0100
0001
0000
1000
,  // measure 59
0000
0000
0100
1000
0000
0010
1000
0100
0010
0001
0000
0000
,  // measure 60
0100
0000
0010
0100
0000
0001
0000
0000
1000
0100
0000
1000
,  // measure 61
0010
0000
0100
0010
0000
1000
0001
0000
0010
0100
0000
1000
,  // measure 62
0000
0000
0010
0100
0000
0001
0010
0000
0000
1010
0000
0000
,  // measure 63
0100
0000
0001
0100
0000
0010
1000
0001
0010
0002
0000
0000
,  // measure 64
0013
0000
0100
1000
0000
0010
0100
0000
0001
0010
0000
0001
,  // measure 65
0000
0000
0100
0010
0000
0100
0001
0000
1000
0100
0000
0000
,  // measure 66
1000
0000
0010
1000
0000
0001
0100
0000
0010
1000
0000
0100
,  // measure 67
0000
0000
1000
0010
0000
0100
0010
0000
1000
0200
0000
0000
,  // measure 68
1300
0000
0001
0010
0000
0001
0100
0000
0010
0100
0000
0001
,  // measure 69
0000
0000
0010
0001
0000
1000
0010
0000
0000
0110
0000
0000
,  // measure 70
1000
0000
1010
0000
0000
0001
0010
0000
0000
0100
0000
0010
,  // measure 71
0000
0000
0001
0010
0000
0001
1000
0000
0000
1001
0000
0000
,  // measure 72
0010
0000
0110
0000
0000
1000
0001
0000
0000
0010
0000
0001
,  // measure 73
0000
0000
0100
0010
0000
1000
0010
0000
0000
0110
0000
0000
,  // measure 74
1000
0000
1001
0000
0000
0001
0010
0000
0000
0001
0000
0100
,  // measure 75
0000
0000
0001
0010
0000
0100
1000
0000
0000
1001
0000
0000
,  // measure 76
0010
0000
1010
0000
0000
0001
0010
0000
0000
0010
0000
0001
,  // measure 77
0000
0000
1000
0100
0000
1000
0010
0100
0001
0010
0100
2000
,  // measure 78
0020
0000
0000
0000
,  // measure 79
0000
0000
0000
0000
,  // measure 80
0000
0000
0000
0000
,  // measure 81
0000
0000
0000
3030
;
