#TITLE:will o' the wisp;
#SUBTITLE:;
#ARTIST:XIzE;
#TITLETRANSLIT:;
#SUBTITLETRANSLIT:;
#ARTISTTRANSLIT:;
#GENRE:;
#CREDIT:;
#BANNER:Will_o'_the_wisp_banner.png;
#BACKGROUND:Will_o'_the_wisp.png;
#LYRICSPATH:;
#CDTITLE:;
#MUSIC:will o' the wisp.ogg;
#OFFSET:-0.590000;
#SAMPLESTART:73.040001;
#SAMPLELENGTH:12.060000;
#LASTBEATHINT:288.000000;
#SELECTABLE:YES;
#BPMS:0.000000=159.000000
;
#STOPS:
;
#BGCHANGES:;
#KEYSOUNDS:;
#ATTACKS:;

//---------------dance-single - ----------------
#NOTES:
     dance-single:
     :
     Easy:
     6:
     0.258084,0.290127,0.081296,0.298087,0.000000,200.000000,191.000000,9.000000,33.000000,0.000000,0.000000,0.258084,0.290127,0.081296,0.298087,0.000000,200.000000,191.000000,9.000000,33.000000,0.000000,0.000000:
0000
0000
0000
0000
,
0000
0000
0000
0000
,
0000
0000
0000
0000
,
0000
0000
0000
0000
,
0100
0100
1000
1000
,
0010
0010
0001
0000
,
0010
0010
0001
0001
,
0100
0100
1000
0000
,
0100
0010
1000
0001
,
0000
0001
0010
0100
,
1000
0100
0010
0001
,
0000
0100
0010
1000
,
0100
1000
0001
0010
,
0000
0010
0100
1000
,
0010
0100
0010
1000
,
0000
1000
2002
3003
,
0001
0010
0001
0100
,
0020
0000
0230
0000
,
0310
1000
0100
1000
,
0002
0000
0023
0000
,
0130
1000
0010
0100
,
0020
0000
2030
0000
,
3100
0010
0100
1000
,
0002
0000
0203
0000
,
0310
0000
0010
0100
,
0010
0000
1001
0000
,
1000
0000
1000
0100
,
1000
0000
0101
0000
,
0010
0000
0100
0001
,
1000
0000
1100
0000
,
0001
0000
0100
0010
,
1000
0000
0011
0000
,
1000
0100
0001
0100
,
2000
0000
3001
0000
,
1000
0010
0001
0010
,
2000
0000
3001
0000
,
0001
0100
1000
0100
,
0002
0000
1003
0000
,
0001
0010
1000
0010
,
0002
0000
1003
0000
,
0020
0000
0030
0000
,
0200
0000
0300
0000
,
0002
0000
0013
0000
,
0200
0000
0300
0000
,
2000
0000
3010
0000
,
0002
0000
0013
0000
,
0200
0000
0310
0000
,
2002
0000
3003
0000
,
0010
0100
0001
0000
,
0100
0010
1000
0100
,
1000
0010
0100
0000
,
0001
0010
0100
0000
,
1000
0100
0010
0000
,
0001
0100
0010
1000
,
0100
0010
0100
0000
,
1000
0001
0010
0001
,
2000
0000
3001
0010
,
0002
0000
0103
0000
,
2000
0000
3020
0000
,
0032
0000
0000
0003
,
0010
0100
0010
0000
,
1000
0100
0010
0000
,
0200
0000
1300
0000
,
2002
0000
3003
0000
,
0010
0001
0100
0010
,
0000
0010
1000
0100
,
1000
0010
0100
0001
,
0000
0001
0220
0330
,
1000
0001
0010
0001
,
0000
0001
1000
0100
,
1000
0000
0010
0000
1000
0000
0000
0001
,
0000
1000
0000
1001
0000
0000
0000
0000
;

//---------------dance-single - ----------------
#NOTES:
     dance-single:
     :
     Medium:
     11:
     0.478745,0.486085,0.180659,0.560042,0.004516,371.000000,351.000000,20.000000,62.000000,0.000000,0.000000,0.478745,0.486085,0.180659,0.560042,0.004516,371.000000,351.000000,20.000000,62.000000,0.000000,0.000000:
0000
0000
0000
0000
,
0000
0000
0000
0000
,
0000
0000
0000
0000
,
0000
0000
0000
0000
,
0002
0000
1003
0010
0200
0000
0310
1000
,
0200
0000
1300
0001
0010
0000
1001
0000
,
0020
0000
0130
0001
2000
0000
3100
0010
,
0001
0000
1000
0001
0100
0010
1000
0000
,
0001
0100
0010
0000
0100
0001
1000
0100
,
0000
1000
0010
0000
0100
0000
0101
0000
,
0010
1000
0001
0000
1000
0001
0010
0100
,
0000
0010
0100
0000
1000
0001
0100
0000
,
0010
0100
0002
0000
0013
0100
1000
0010
,
0000
1000
0001
0000
0010
0000
1100
0000
,
0001
1000
0010
0000
0100
0010
0100
0001
,
0000
1000
0001
1000
0100
0000
0110
0000
,
0001
0100
0001
0000
1000
0100
0010
0001
,
2000
3020
0230
0301
,
0001
0010
0001
0000
1000
0001
0010
0100
,
0020
0032
0203
0320
,
1030
0100
1000
0000
0001
0010
0100
1000
,
0020
2030
3200
0320
,
0031
0100
0001
0000
0010
0001
1000
0100
,
2000
3002
0023
0230
,
1300
0000
0000
0010
1000
0000
0101
0000
,
0010
1000
0001
0010
0200
0000
0310
0000
,
0001
0000
0000
1000
0010
0000
0101
0000
,
1000
0001
0100
0010
1000
0000
0001
0000
,
0020
0000
0000
0130
1000
0000
1001
0000
,
0010
0100
0001
0100
0010
0000
1000
0000
,
0200
0000
0000
1300
0001
0000
0011
0000
,
1000
0000
0000
0001
0000
0000
1000
0000
0020
0000
0000
0000
0030
0000
0000
0000
,
1000
0001
0010
0000
0001
0100
0010
1000
,
0200
2300
3020
0032
,
0013
0100
1000
0000
0100
0010
0100
0001
,
0200
2300
3020
0032
,
0013
1000
0100
0000
0010
0001
1000
0001
,
0020
0032
0203
2300
,
3100
0010
1000
0000
0001
0010
0100
1000
,
0020
2030
3200
0302
,
0013
0100
0010
1000
,
0001
0010
0220
0330
,
0001
1000
0100
1000
,
0010
0001
2002
3003
,
0010
0100
1000
0001
,
0100
0010
2020
3030
,
0001
0010
0100
1000
,
0001
1000
0202
0303
,
0010
1000
0100
0000
1000
0010
0100
0000
,
0001
0010
0100
0000
0010
0001
0100
0000
,
0001
0100
1000
0000
1000
0100
0001
0000
,
1000
0100
0001
0000
2002
0000
3003
0000
,
0010
0100
1000
0000
0001
0010
0100
0000
,
1000
0100
0010
0000
0100
0010
0001
0000
,
1000
0010
0001
0000
0001
0010
1000
0000
,
1000
0010
0001
0000
2002
0000
3003
0000
,
0010
0100
0001
0000
1000
0000
0001
0010
,
0000
0001
0100
0000
0010
0100
0010
1000
,
0200
0000
0000
1300
2000
0000
0000
3010
,
0020
0000
0000
0100
0230
0000
0300
0000
,
0001
0010
0100
0000
1000
0100
0010
0100
,
0000
1000
0010
0000
0100
0001
0010
0000
,
0002
0000
0000
0010
0023
0000
0000
0100
,
0230
0000
1300
1001
,
0010
0100
0001
0000
1000
0100
0010
0001
,
0000
0100
0001
0000
1000
0000
1010
0000
,
0100
0001
0010
0000
0001
0100
0010
1000
,
0000
0100
1000
0010
0100
0000
0101
0000
,
0010
1000
0200
0000
0310
0001
1000
0010
,
0000
0100
0010
1000
0001
0000
1001
0000
,
0100
0010
2000
0000
3001
0010
0100
1000
,
0000
1010
0000
1100
0000
0001
0001
0000
;

//---------------dance-single - ----------------
#NOTES:
     dance-single:
     :
     Hard:
     14:
     0.704569,0.680519,0.144527,0.171626,0.352284,546.000000,530.000000,16.000000,19.000000,0.000000,0.000000,0.704569,0.680519,0.144527,0.171626,0.352284,546.000000,530.000000,16.000000,19.000000,0.000000,0.000000:
// measure 0
0000
0000
0000
0000
,  // measure 1
0000
0000
0000
0000
,  // measure 2
0000
0000
0000
0000
,  // measure 3
0000
0000
0000
0000
,  // measure 4
0001
0000
0000
0001
0000
0000
0001
0000
0010
0000
0000
0010
0000
0000
0010
0000
,  // measure 5
1000
0000
0000
1000
0000
0000
1000
0000
0100
0000
0000
0100
0000
0000
0100
0000
,  // measure 6
0010
0000
0000
0010
0000
0000
0010
0000
0100
0000
0000
0100
0000
0000
0100
0000
,  // measure 7
1000
0000
0010
0000
0100
0010
0100
0000
0001
0010
0100
0000
1000
0000
0001
0000
,  // measure 8
0100
0010
0100
0001
1000
0100
0001
0200
,  // measure 9
0000
0000
1300
0000
0010
0000
0100
0000
0001
0010
0001
0000
1000
0000
0010
0000
,  // measure 10
0100
0010
0001
0010
1000
0001
0010
2000
,  // measure 11
0000
0000
3010
0000
0001
0000
1000
0000
0010
0100
0010
0000
1000
0000
0000
0000
,  // measure 12
0001
0100
0010
0100
0001
0100
1000
0200
,  // measure 13
0000
0000
0310
0000
1000
0000
0100
0000
1000
0010
1000
0000
0001
0000
0010
0000
,  // measure 14
0100
1000
0100
0010
0100
0001
0100
2000
,  // measure 15
0000
0000
3001
0000
0010
0000
0100
0000
1000
0100
1000
0000
0001
0010
0001
0000
,  // measure 16
1000
0000
0010
0100
0010
0000
1000
0000
0001
0000
0010
0000
0100
0000
1000
0000
,  // measure 17
0010
0100
0001
0010
1000
0000
0011
0000
,  // measure 18
1000
0000
0100
1000
0100
0000
0010
0000
0001
0000
0100
0000
0010
0000
1000
0000
,  // measure 19
0001
0100
0010
0100
0001
0000
1100
0000
,  // measure 20
1000
0000
0010
0100
0010
0000
1000
0000
0001
0000
0010
0000
0001
0000
0100
0000
,  // measure 21
0010
1000
0100
0010
0001
0000
1010
0000
,  // measure 22
0100
0000
0001
0010
0001
0000
1000
0000
0010
0000
0100
0000
0001
0000
0010
0000
,  // measure 23
0001
1000
0010
0001
0010
1000
1010
0000
,  // measure 24
0101
0000
0000
0001
0010
0000
0100
0000
1000
0000
0010
0100
0010
0000
1000
0000
,  // measure 25
0010
0000
0000
0010
0100
0000
0001
0000
0010
0100
1000
0000
0010
0000
0100
0000
,  // measure 26
0010
0000
0000
0010
1000
0000
0100
0000
1000
0000
0001
0010
0001
0000
0100
0000
,  // measure 27
0010
0000
0000
0100
0010
0000
1000
0000
0001
0000
0100
0001
0010
0000
0100
0000
,  // measure 28
1000
0000
0000
1000
0001
0000
0010
0000
0100
0000
0010
0001
0010
0000
0100
0000
,  // measure 29
1000
0000
0000
1000
0010
0000
0100
0000
0001
0000
1000
0100
0010
0000
0001
0000
,  // measure 30
0100
0000
0000
0100
0001
0000
0010
0000
0001
0000
1000
0100
1000
0000
0010
0000
,  // measure 31
0100
0000
0000
1010
0000
0000
0100
0001
2000
0000
0000
0000
3001
0000
0000
0000
,  // measure 32
0010
0000
0001
0100
0001
0000
0010
0000
0100
0000
1000
0010
1000
0000
0001
0000
,  // measure 33
0010
0001
0100
0010
1000
0100
0001
0100
,  // measure 34
1000
0000
0010
0100
0010
0000
1000
0000
0001
0000
1000
0100
1000
0000
0010
0000
,  // measure 35
1000
0010
0001
0010
0200
0010
0310
0000
,  // measure 36
0001
0000
1000
0100
1000
0000
0010
0000
0100
0000
0001
0010
0001
0000
1000
0000
,  // measure 37
0001
0010
1000
0010
0002
0100
0103
0000
,  // measure 38
0010
0000
1000
0100
1000
0000
0010
0000
0100
0000
0001
0010
0001
0000
0100
0000
,  // measure 39
0001
0010
0100
1000
0010
0100
0100
0100
,  // measure 40
0001
0000
0100
0000
1000
0000
0010
0100
,  // measure 41
0010
0000
0000
0001
0010
0000
1100
0000
,  // measure 42
0010
0000
1000
0001
1000
0000
0010
0001
,  // measure 43
1000
0000
0000
1000
0010
0000
0101
0000
,  // measure 44
0010
1000
0100
0000
0010
0001
0100
0000
,  // measure 45
0001
0010
0100
1000
0010
0100
0010
0000
,  // measure 46
1000
0100
0010
0001
0100
0010
1000
0000
,  // measure 47
0101
1100
0011
1010
,  // measure 48
0100
0000
0010
1000
0010
0000
0100
0001
0000
0010
0001
0000
1000
0000
0001
0000
,  // measure 49
0010
0000
0001
0100
0001
0000
0010
0100
0000
0010
0100
0000
1000
0000
0010
0000
,  // measure 50
1000
0000
0001
0010
0001
0000
1000
0010
0000
0100
0001
0000
0010
0000
0001
0000
,  // measure 51
1000
0000
0010
0100
0010
0000
1000
0001
0000
0010
0001
0000
0100
0000
0010
0000
,  // measure 52
1000
0000
0100
0010
0001
0000
1000
0001
0000
0010
0001
0000
0100
0000
0100
0000
,  // measure 53
0010
0000
1000
0001
0100
0000
0010
1000
0000
0010
0100
0000
0001
0000
0001
0000
,  // measure 54
0010
0000
0100
1000
0001
0000
1000
0010
0000
1000
0100
0000
0010
0000
0010
0000
,  // measure 55
0001
0000
1000
0010
0100
0000
0001
0010
0000
0001
1000
0000
0010
0000
0100
0000
,  // measure 56
0001
0000
0010
0001
0100
0000
0010
0000
1000
0000
0100
0000
0001
0000
0200
0000
,  // measure 57
0000
0000
1300
0000
0010
0100
0010
0000
1000
0000
0001
0000
0010
0000
0100
0000
,  // measure 58
0020
0000
0000
0000
0000
0000
0031
1000
0002
0000
0000
0000
0000
0000
0103
0010
,  // measure 59
0200
0000
0000
0000
0000
0000
0310
1000
0020
0000
0000
0000
0130
0000
0000
0000
,  // measure 60
0010
0000
1000
0100
0010
0000
0001
0000
0010
0000
0100
0000
0010
0000
0002
0000
,  // measure 61
0000
0000
1003
0000
0010
0100
0010
0000
1000
0000
0001
0000
0010
0000
0100
0000
,  // measure 62
2000
0000
0000
0000
0000
0000
3010
0100
0020
0000
0000
0000
0000
0000
1030
0001
,  // measure 63
2000
0000
0000
0000
0000
0000
0000
0000
3001
0010
0001
0000
1000
0100
1000
0000
,  // measure 64
0001
0100
1000
0100
0010
0100
0001
0200
,  // measure 65
0000
0310
1000
0100
0010
0001
1000
0010
,  // measure 66
1000
0001
0100
0010
1000
0010
0001
0020
,  // measure 67
0000
0130
0001
0010
0100
1000
1001
0000
,  // measure 68
0010
0100
0001
0100
1000
0100
0010
0200
,  // measure 69
0000
0000
0301
0000
0010
0001
0010
0000
0100
0000
1000
0000
1000
0000
0000
0000
,  // measure 70
0010
0100
0010
0001
0010
1000
0010
1010
,  // measure 71
0000
0000
0011
0000
0000
0000
1100
0000
0000
0000
0010
0100
0001
0000
0000
0000
;
