#TITLE:waxing and wanding;
#SUBTITLE:;
#ARTIST:青龍;
#TITLETRANSLIT:;
#SUBTITLETRANSLIT:;
#ARTISTTRANSLIT:Seiryu;
#GENRE:DANCE SPEED;
#CREDIT:;
#BANNER:Waxing_and_wanding_banner.png;
#BACKGROUND:Waxing_and_wanding.png;
#LYRICSPATH:;
#CDTITLE:;
#MUSIC:waxing and wanding.ogg;
#OFFSET:-0.470000;
#SAMPLESTART:13.000000;
#SAMPLELENGTH:15.000000;
#SELECTABLE:YES;
#BPMS:0.000000=191.000000
,165.000000=95.500000
,197.000000=191.000000
;
#STOPS:36.000000=0.942000
;
#BGCHANGES:;
#KEYSOUNDS:;
#ATTACKS:;

//---------------dance-single - ----------------
#NOTES:
     dance-single:
     :
     Easy:
     8:
     0.364613,0.408113,0.126351,0.067387,0.000000,303.000000,288.000000,15.000000,8.000000,0.000000,0.000000,0.364613,0.408113,0.126351,0.067387,0.000000,303.000000,288.000000,15.000000,8.000000,0.000000,0.000000:
0000
0000
0000
0000
,
0000
0000
0000
0000
,
0000
0000
0000
0000
,
0000
0000
0000
0000
,
0020
0100
0000
0130
,
2000
0100
0000
3100
,
0001
0000
0011
0000
,
1000
0000
0001
0000
1000
0001
1000
0000
,
0010
0000
0010
0000
0100
0010
0100
0010
,
0100
0001
0010
0001
,
1000
0100
0010
0100
,
1000
0010
0100
0001
,
1000
0001
0010
0100
,
1000
0010
0100
0001
,
0100
0010
1000
0100
,
0010
0001
0100
0010
,
1000
0100
1000
0202
,
0303
0000
0010
0000
1000
0000
0010
0100
,
0010
1000
0001
0010
,
0100
0000
1000
0000
0100
0000
1000
0001
,
1000
0010
0100
0010
,
0010
0000
1000
0000
0100
0000
1000
0001
,
1000
0001
0010
0110
,
0000
1000
0010
0100
,
0001
0010
0100
1000
,
1000
0001
0010
1000
,
0010
0001
0010
1000
,
0000
0100
0001
0100
,
1000
0100
0001
0100
,
0000
0001
1000
0100
,
1000
0001
0010
0100
,
0000
1000
0010
1000
,
0100
0010
0001
1000
,
0001
0000
0100
0000
0010
0000
1000
0001
,
1000
0000
0010
0000
1000
0000
0100
1000
,
0001
0000
0100
0000
0010
0000
1000
0100
,
0010
0001
1000
1001
,
0000
0000
0010
0000
0100
0000
0001
0010
,
0100
0000
1000
0000
0010
0000
0100
0001
,
1000
0010
1000
0100
,
0010
0001
1000
1001
,
0000
0010
0010
0200
,
0000
0301
0001
0020
,
0000
1030
1000
0020
,
0000
0031
0010
0200
,
0000
0000
1300
0000
0001
0000
0010
0100
,
0010
0000
0001
0000
1000
0000
0010
0100
,
0010
1000
0001
0100
,
0010
0000
1000
0000
0001
0000
0010
0010
,
0010
0001
1000
0010
,
0100
0010
1000
0100
,
0000
1000
0100
0010
,
0001
0010
0100
1000
,
0000
0001
0010
0100
,
0010
0001
1000
0100
,
0000
1000
0010
0100
,
0001
0010
0100
0110
,
0000
0001
0010
1000
,
0010
0001
0100
0010
,
0000
1000
0100
0001
,
0100
1000
0010
0100
,
0000
0001
0010
0100
,
1000
0010
0100
0001
,
0000
1000
0100
0010
,
0001
0100
0010
0001
,
0000
0010
0010
0100
,
0100
0001
0001
0001
,
0000
1000
1000
0100
,
0100
0000
0110
0000
,
0010
0001
1000
0100
,
1000
0010
0100
0001
,
0000
1001
0000
0110
,
0000
1000
0001
1001
,
0000
0010
0100
0001
,
0010
0100
1000
0100
,
0000
1000
0010
0100
,
0001
0010
0100
1000
,
0000
0010
0100
0001
,
0010
0100
1000
0001
,
0100
1001
0000
0110
,
0000
1010
0011
0110
;

//---------------dance-single - ----------------
#NOTES:
     dance-single:
     :
     Medium:
     12:
     0.588434,0.578161,0.261125,0.084234,0.000000,489.000000,458.000000,31.000000,10.000000,0.000000,0.000000,0.588434,0.578161,0.261125,0.084234,0.000000,489.000000,458.000000,31.000000,10.000000,0.000000,0.000000:
0000
0000
0000
0000
,
0000
0000
0000
0000
,
0000
0000
0000
0000
,
0000
0010
0010
0010
,
0201
0010
0000
0310
,
0120
1000
0000
0130
,
1001
0001
0011
1000
,
1010
0000
0011
0000
1000
0100
0001
0000
,
1100
0000
0101
0000
0001
1000
0100
0010
,
0002
0003
0000
0000
0000
0000
0000
0000
1000
0000
0000
0000
0010
0000
0000
0000
0100
0000
0000
0000
0000
0000
0000
0000
0010
0000
0000
0000
1000
0000
0000
0000
,
0100
0000
1000
0010
0001
0010
1000
0000
,
0001
0000
0010
0001
0100
0000
0001
0010
,
0100
0000
0010
0001
1000
0100
0010
0000
,
0110
0000
0001
0100
1000
0000
1000
0100
,
0001
0000
1000
0010
0100
0010
1000
0010
,
0100
0000
0001
0010
0100
0000
0010
0001
,
0100
0000
0001
0010
0100
0010
0001
0010
,
0100
0000
1000
0010
0100
0010
1000
0000
,
0001
0000
0010
0001
1000
0010
0100
0000
,
0110
0000
0001
0010
0000
0010
0001
1000
,
0100
0000
1000
0010
0001
0000
0001
0010
,
1000
0000
0010
1000
0001
0100
0010
1000
,
0001
0000
0010
0100
1000
0001
0100
0010
,
1000
0000
0010
0100
0000
0100
0001
1000
,
0100
0000
0010
0001
0100
0010
1000
0100
,
1100
0000
0010
0100
0010
0000
1000
0100
,
1000
0000
0001
0010
0001
0000
1000
0010
,
1000
0000
0010
0100
0010
0000
1000
0001
,
1000
0000
0001
0010
0100
0010
0001
0000
,
1001
0000
0100
0010
1000
0000
0001
0010
,
0100
0000
1000
0010
0100
0010
1000
0001
,
0010
0000
0001
0100
0010
0000
1000
0100
,
0010
0000
0001
0000
0011
0000
0100
0010
,
1000
0000
0010
0100
0001
0100
0010
1000
,
0100
0000
1000
0001
0010
0100
0010
0001
,
1000
0000
0010
0100
0001
1000
0100
0000
,
0011
0000
0001
0010
0100
1000
0001
0000
,
1010
0000
0100
0010
1000
0000
0001
0010
,
0100
0000
0010
0001
1000
0000
0010
1000
,
0100
0000
1000
0100
0001
0000
0001
0100
,
1000
0011
1100
0220
,
0330
0001
0100
0010
,
1000
0010
0100
2000
,
0000
3100
0001
0010
,
0100
1000
0010
0002
,
0000
0000
0013
1000
0100
0010
0001
1000
,
0001
0000
0100
0010
1000
0100
0010
0001
,
1000
0000
0010
0010
0100
0100
0001
0001
,
1000
1000
0001
0010
0100
1000
0001
1000
,
1001
0000
0010
0100
0010
0000
1000
0100
,
1000
0000
0001
0010
0001
0000
1000
0010
,
1000
0000
0001
0010
0100
0000
0010
0100
,
1000
0000
0010
0100
0001
0000
2020
0000
,
3030
0000
0100
0001
1000
0000
0010
1000
,
0001
0000
0010
0100
1000
0000
0001
0010
,
0100
0000
1000
0100
0010
0000
0100
0010
,
0001
0000
1000
0100
0001
0100
1000
0000
,
1001
0000
0010
0100
0001
0100
0010
1000
,
0001
0000
0010
0001
0100
0010
1000
0100
,
0010
0000
0001
0100
0010
1000
0100
0010
,
0001
1000
1010
1001
,
0000
0000
1000
0001
0010
0100
1000
0001
,
1000
0000
0010
1000
0001
1000
0100
0010
,
0001
0000
0100
0010
0100
0000
0001
0010
,
0001
0000
1000
0010
0001
0010
2000
0000
,
3001
0000
0001
0010
0000
0010
0001
1000
,
0100
0000
1000
0010
0001
0010
1000
0010
,
0001
0000
0010
0100
0000
0100
0010
1000
,
0100
1000
0011
0001
,
1001
0000
0100
0001
0000
0001
1000
0010
,
0100
0000
0001
0010
1000
0010
0001
0010
,
1000
0011
0000
1100
,
0000
0000
1000
0001
0010
0100
1000
0000
,
1001
0000
0010
0100
0010
0100
0001
1000
,
0001
1000
0001
0010
0001
0010
0100
1000
,
0100
0000
1000
0010
1000
0010
0100
0001
,
0100
0001
1000
0100
0010
0001
0010
0000
,
1100
0000
0001
0010
0001
0010
0100
1000
,
0100
1000
0010
0100
0010
0100
0001
0010
,
0001
0000
1000
0010
0001
0000
0001
0010
,
1000
0000
0001
1000
1100
0000
0011
0000
;

//---------------dance-single - ----------------
#NOTES:
     dance-single:
     :
     Hard:
     15:
     0.782172,1.122312,0.353783,0.160044,0.231643,650.000000,608.000000,42.000000,19.000000,0.000000,0.000000,0.782172,1.122312,0.353783,0.160044,0.231643,650.000000,608.000000,42.000000,19.000000,0.000000,0.000000:
// measure 0
0000
0000
0000
0000
,  // measure 1
0000
0000
0000
0000
,  // measure 2
0000
0000
0000
0000
,  // measure 3
0000
1100
0101
0110
,  // measure 4
0020
1000
0000
1030
0001
0010
0001
0000
,  // measure 5
1000
0100
0001
0100
1000
0010
0001
0010
,  // measure 6
1010
1000
0000
0001
0011
0010
0000
0100
,  // measure 7
1100
0000
0000
0000
0101
0000
0000
0000
0010
0000
0100
0000
0010
0100
0010
0000
,  // measure 8
1000
0000
0000
0000
1001
0000
0000
0000
0010
0000
0100
0000
0001
0010
0100
1000
,  // measure 9
0020
0030
0000
0000
1000
0000
0100
0000
0010
0000
0100
0000
1000
0001
0100
0000
,  // measure 10
0010
1000
0001
0010
1000
0010
0001
0010
,  // measure 11
1000
0000
0010
0000
0001
0000
0100
0000
0010
0000
0100
0000
0001
1000
0100
0000
,  // measure 12
0010
0000
0100
0000
1000
0000
0100
1000
0100
0000
0010
0000
0011
0000
0000
0000
,  // measure 13
1100
0000
0000
0000
0001
0000
1000
0000
0010
0000
1000
0000
0001
0010
0100
0000
,  // measure 14
0010
0001
1000
0100
0001
0100
1000
0010
,  // measure 15
0001
0000
0010
0000
1000
0000
0010
0000
0000
0000
0110
0000
1000
0001
1000
0000
,  // measure 16
0001
0000
0010
0000
0001
0000
1000
0100
0010
0000
0100
0000
1100
0000
0000
0000
,  // measure 17
0011
0000
0000
0000
0100
0000
0010
0000
1000
0000
0010
0000
1000
0100
0010
0000
,  // measure 18
0001
0000
0100
0000
0010
0000
1000
0000
0001
0000
0010
0000
0001
0010
0100
0000
,  // measure 19
1000
0000
0100
0000
0020
0000
0001
0000
0000
0000
0031
0000
1000
0100
1000
0000
,  // measure 20
0010
0000
0100
0000
0010
0000
1000
0001
1000
0000
0010
0000
0110
0000
0000
0000
,  // measure 21
0101
0000
0000
0000
0010
0000
1000
0000
0100
0000
1000
0000
0001
0010
0100
0000
,  // measure 22
1000
0000
0010
0000
0100
0000
0001
0000
0010
0000
0100
0000
1000
0010
0100
0000
,  // measure 23
0001
0000
1000
0000
0001
0000
0100
0000
0000
0000
0100
0000
0010
1000
0001
0000
,  // measure 24
0100
0000
0010
0000
1000
0000
0100
0010
0100
0000
1000
0000
1100
0000
0000
0000
,  // measure 25
0101
0000
0010
0100
0010
0100
0001
0010
,  // measure 26
0001
0010
0001
0100
1000
0100
0001
0010
,  // measure 27
1000
0010
0001
1000
0010
1000
0100
0010
,  // measure 28
0001
0010
0100
1000
0100
1000
0010
0001
,  // measure 29
0010
0001
0010
1000
0010
1000
0001
0100
,  // measure 30
0001
0100
0010
1000
0100
0010
0100
1000
,  // measure 31
0001
0010
0001
1000
0100
0001
0100
1000
,  // measure 32
0010
0100
0010
0001
0100
1000
0010
0100
,  // measure 33
1001
0000
0000
0000
0001
0000
1000
0000
0100
0000
0010
0000
0100
1000
0001
0000
,  // measure 34
0100
0000
0010
0000
1000
0000
0001
0000
0010
0000
0100
0000
1000
0001
0100
0000
,  // measure 35
0010
1000
0001
0010
0100
1000
0010
0100
,  // measure 36
0001
0010
0001
0100
1000
0100
0001
0000
,  // measure 37
1001
0000
0000
0000
1000
0000
0010
0000
0100
0000
0010
0000
1000
0100
0010
0000
,  // measure 38
0001
0000
1000
0000
0001
0000
0010
0000
0100
0000
1000
0000
0010
0100
0001
0000
,  // measure 39
0100
0010
1000
0010
0100
0001
0010
0100
,  // measure 40
1000
0001
1000
0010
0100
0001
2002
0000
,  // measure 41
3003
0020
0230
0302
,  // measure 42
0010
2003
3200
0320
,  // measure 43
0001
0230
2300
3020
,  // measure 44
1000
0000
0230
0000
0301
0000
0220
0330
,  // measure 45
0000
0000
1000
0100
1000
0010
0100
0010
1000
0001
0010
0100
1000
0010
0100
0001
,  // measure 46
1000
0100
0010
0000
0001
0100
0010
0100
0001
1000
0100
0010
1000
0010
0001
0010
,  // measure 47
1000
0000
1001
0000
0100
0010
1000
0010
0100
0001
0010
0100
1000
0010
0100
0001
,  // measure 48
0010
0001
0100
0010
1000
0100
0010
0100
1000
0001
0100
0010
1000
0001
0010
0100
,  // measure 49
1000
1100
0001
0010
0100
0010
0001
1000
,  // measure 50
0010
0100
0001
0010
1000
0010
0001
1000
,  // measure 51
0100
0001
0100
1000
0010
0001
1000
0100
,  // measure 52
0001
1000
0010
0100
0001
1000
0010
0000
,  // measure 53
1001
0000
0010
0001
1000
0100
1000
0010
,  // measure 54
0100
0001
1000
0010
0001
0010
1000
0100
,  // measure 55
0001
0100
0010
0100
1000
0001
1000
0010
,  // measure 56
0001
1000
0100
0010
1000
0001
0010
0000
,  // measure 57
0110
0000
1000
0100
0100
0100
1000
0001
,  // measure 58
0001
0001
0010
0100
0100
0100
1000
0010
,  // measure 59
0001
0010
0100
0001
0001
0001
1000
0010
,  // measure 60
0010
0010
1000
0100
0001
0100
1000
0000
,  // measure 61
1001
0000
0010
0100
0100
0100
0010
1000
,  // measure 62
1000
1000
0010
0001
0001
0001
0010
0100
,  // measure 63
1000
0001
1001
1000
0000
0010
0110
0100
,  // measure 64
0000
0001
1000
0100
0010
0001
2002
0000
,  // measure 65
3003
0000
0000
0000
0010
0000
0100
0000
0001
0000
0100
0000
1000
0100
0010
0000
,  // measure 66
0001
1000
0001
0010
1000
0010
0001
0010
,  // measure 67
1000
0000
0000
0000
1000
0000
0001
0000
0100
0000
0010
0000
0001
0010
0100
0000
,  // measure 68
1000
0100
0010
0010
0011
0000
1100
1000
,  // measure 69
1000
0000
0000
0000
0010
0000
0100
0000
0001
0000
1000
0000
0010
0100
0001
0000
,  // measure 70
1000
0100
0010
1000
0010
0001
0010
1000
,  // measure 71
0010
0000
0011
0001
0000
1000
1100
0100
,  // measure 72
0000
0000
0010
0000
0001
0000
1000
0001
1000
0000
0010
0000
0100
0000
0000
0000
,  // measure 73
0110
0000
1000
0010
0010
0010
1000
0001
,  // measure 74
0001
0000
0001
0000
1000
0000
0100
0000
0001
0000
0100
0000
1000
0100
0010
0000
,  // measure 75
0001
0010
0001
0100
0100
0100
0001
1000
,  // measure 76
1000
0000
1000
0000
0010
0000
0100
0010
0100
0000
0001
0000
1000
0000
0000
0000
,  // measure 77
1010
0000
0100
0001
0001
0001
1000
0010
,  // measure 78
0010
0010
0100
0100
0101
0100
0010
0010
,  // measure 79
1010
0010
1000
0011
0000
0001
0010
1100
,  // measure 80
0000
0001
1100
0010
0101
0010
1100
0000
;
