#TITLE:under control;
#SUBTITLE:;
#ARTIST:Kevin Vecchione;
#TITLETRANSLIT:;
#SUBTITLETRANSLIT:;
#ARTISTTRANSLIT:;
#GENRE:;
#CREDIT:;
#BANNER:Under_control_banner.png;
#BACKGROUND:Under_control.png;
#LYRICSPATH:;
#CDTITLE:;
#MUSIC:under control.ogg;
#OFFSET:-0.210000;
#SAMPLESTART:48.209999;
#SAMPLELENGTH:9.140000;
#LASTBEATHINT:433.247009;
#SELECTABLE:YES;
#DISPLAYBPM:210.000000:420.000000;
#BPMS:0.000000=210.000000
,168.000000=420.000000
,232.000000=210.000000
,248.000000=420.000000
,429.000000=105.000000
;
#STOPS:314.000000=0.286000,
318.000000=0.286000,
319.000000=0.143000,
321.000000=0.143000,
324.000000=0.286000,
325.000000=0.143000,
327.000000=0.286000,
328.000000=0.143000,
329.000000=0.286000,
360.000000=0.714000
;
#BGCHANGES:;
#KEYSOUNDS:;
#ATTACKS:;

//---------------dance-single - ----------------
#NOTES:
     dance-single:
     :
     Easy:
     7:
     0.359282,0.557880,0.226760,0.226760,0.000000,244.000000,222.000000,22.000000,22.000000,0.000000,0.000000,0.359282,0.557880,0.226760,0.226760,0.000000,244.000000,222.000000,22.000000,22.000000,0.000000,0.000000:
0000
0000
0000
0000
,
0000
0000
0000
0000
,
1001
0000
0000
0000
0000
0010
0000
0000
,
0010
0000
0000
0100
0000
0100
0000
0000
,
0110
0000
0000
0000
0000
1000
0000
0000
,
0001
0000
0000
1000
0000
0010
0000
0000
,
0101
0000
0000
0000
0000
0010
0000
0000
,
1000
0000
0000
0100
0000
1000
0000
0000
,
1100
0000
0001
0000
,
0110
0000
1000
0000
,
0001
0100
0001
0100
,
0001
0010
0001
0000
,
1000
0010
0100
0010
,
1000
0100
2000
3000
,
0010
0100
0010
0100
,
0001
1000
0100
0000
,
0100
1000
0010
0100
,
0001
0010
0100
1000
,
2002
0000
0000
0000
,
0000
0000
3003
0000
,
0010
0100
0000
0100
,
0010
1000
0001
1000
,
0001
0010
0000
0010
,
0001
1000
0010
1000
,
0001
0100
0000
0100
,
0010
1000
0200
0300
,
1000
0001
0010
0000
,
0001
1000
0100
0000
,
0000
0100
0000
0100
,
1000
0001
0010
0100
,
0010
0001
1000
0000
,
0010
0100
0001
0000
,
1000
0000
1001
0000
,
0010
0100
0010
0100
,
0001
0001
0001
0001
,
0001
0001
0001
0000
,
1000
1000
1000
1000
,
1000
1000
1000
0000
,
0110
0000
0001
0000
,
1000
0010
0100
0001
,
0022
0000
0000
0000
0000
0033
0000
0000
,
2002
0000
0000
0000
0000
3003
0000
0000
,
0100
0000
0010
0000
,
0100
0000
0000
0000
,
0001
0000
0010
0000
,
0001
0000
0000
0000
,
1000
0000
0010
0000
,
0100
0000
0010
0000
,
1000
0000
0001
0000
,
0020
0000
0030
0000
,
0001
0000
0100
0000
,
0001
0000
1000
0000
,
0010
0000
1000
0000
,
0001
0000
0000
0000
,
2000
0000
3010
0000
,
0002
0000
0013
0000
,
0200
0000
0310
0000
,
0010
0000
0100
0000
,
1001
0000
0000
0000
,
1001
0000
0000
0000
,
1001
0000
0000
0000
,
0220
0000
0330
0000
,
1000
0000
0010
0000
,
0000
0000
0010
0000
,
1000
0000
0100
0000
,
0010
0000
0001
0000
,
0100
0000
0010
0000
,
0000
0000
0010
0000
,
2200
0000
0000
3300
,
0000
0000
0000
0000
,
0001
0000
0010
0000
,
0000
0000
0001
0000
,
1000
0000
0010
0000
,
1000
0000
0001
0000
,
0100
0000
0010
0000
,
1000
0000
0100
0000
,
1000
0000
0001
0000
,
0010
0000
0100
0000
,
1000
0000
0100
0200
,
0300
0000
0100
0100
,
0000
0000
0100
0000
,
0000
0100
0000
0100
,
0000
0100
0020
0000
,
0030
0000
0001
0000
,
0000
0000
0001
0000
,
1000
0000
0010
0000
,
1000
0000
1001
0000
,
0000
0000
0100
0000
,
0000
0000
0001
0000
,
0010
0000
0100
0000
,
0010
0000
0000
0000
,
0000
0001
0000
0010
,
0000
0100
0000
1000
,
0000
0010
0000
0100
,
0000
0001
0000
1000
,
0000
0100
0000
1000
,
0000
0010
0000
0100
,
0000
0001
0000
1000
,
0000
2002
0000
3003
,
0000
0010
0000
0100
,
0000
0010
0000
0100
,
0000
0001
0000
1000
,
0000
0001
0000
1000
,
0000
1001
0000
0000
,
0000
0110
0000
0000
,
0000
1001
0000
0000
,
0000
0110
0000
0000
,
0000
2002
0000
0000
,
0000
3003
0000
0000
;

//---------------dance-single - ----------------
#NOTES:
     dance-single:
     :
     Medium:
     14:
     0.725926,1.004185,0.700894,0.247374,0.005154,493.000000,425.000000,68.000000,24.000000,0.000000,0.000000,0.725926,1.004185,0.700894,0.247374,0.005154,493.000000,425.000000,68.000000,24.000000,0.000000,0.000000:
0000
0000
0000
0000
,
0000
0000
0000
0000
,
0100
0010
0100
0010
0000
1010
0000
0001
,
0010
0000
0001
0100
0010
1000
0001
0000
,
0010
0001
0010
0001
0000
1100
0000
0001
,
1000
0000
0010
0100
0001
0010
0100
0000
,
0010
0100
1000
0001
0000
1001
0000
0100
,
0010
0000
1000
0100
0010
0001
0100
0000
,
2020
3030
0022
0033
,
2200
3300
0202
0303
,
1010
0000
0100
1000
0010
0100
0001
0000
,
0011
0000
1000
0001
0100
0100
0100
0000
,
0110
0000
1000
0001
0010
0100
1000
0000
,
0010
0100
0110
0000
1000
0001
1001
0000
,
0101
0000
0010
1000
0001
0010
0100
0000
,
1010
0000
0100
0001
0010
0010
0010
0000
,
1001
0000
0010
0100
0001
0010
0100
1000
,
0010
0100
0001
1000
0100
0010
0001
0000
,
1001
0000
0100
0000
0000
0010
0100
0000
,
0001
0010
0001
1000
0000
1000
0010
0000
,
0100
0000
0011
0000
0000
1000
0100
0000
,
1000
0001
0010
0000
0001
0100
1000
0100
,
0001
0000
1010
0000
0000
0100
0010
0000
,
1000
0001
0010
0100
0000
0100
0010
0001
,
1000
0010
0100
0010
0000
0010
1000
0001
,
0010
0100
1000
0010
1000
0100
0010
0001
,
0100
0010
1000
0200
0000
0000
1300
0000
,
0001
1000
0100
0020
0000
0000
0031
0000
,
1000
0000
0101
0000
1000
0010
0100
0001
,
0010
1000
0010
0001
1000
0010
0100
0000
,
1001
0000
0010
0100
0000
0010
1000
0001
,
0010
0100
1000
0010
0000
0100
0010
1000
,
0001
0010
0001
0100
0010
1000
0100
0010
,
0001
0100
0010
1000
0001
0010
0010
0000
,
1100
1100
1010
1010
,
1001
1001
1100
1100
,
0011
0011
1001
1001
,
0101
0101
0110
0110
,
2001
0010
0100
3010
,
0012
0000
1000
0000
0100
0000
1003
0010
,
1000
0001
0010
0100
1000
0010
0100
0010
,
1000
0001
0010
0100
0010
0001
1001
0000
,
0100
0010
1000
0000
,
0001
0010
0100
0000
,
0010
0001
1000
0010
,
0100
0001
1000
0000
,
0001
0010
0100
1000
,
0010
0100
0001
1000
,
0010
0100
0010
1000
,
0100
0010
0002
0000
,
1003
0010
0100
0000
,
0001
0010
0100
0000
,
1000
0001
0100
0010
,
0100
0001
1000
0000
,
0001
1000
1100
0000
,
1000
0001
0011
0000
,
1001
0000
0110
0000
,
0011
0000
1100
0000
,
2002
0000
0000
0000
0000
0000
0000
0000
3003
0000
0000
0000
0000
0000
0100
0010
,
0200
0000
0300
0000
,
0011
0000
0000
0000
,
1000
0001
0100
0010
1000
0001
0010
0000
,
0100
1000
0001
0100
,
0000
0010
0100
0001
,
0010
0001
1000
0010
,
0000
0100
0010
1000
,
0001
0010
0100
1000
,
0000
1000
0010
0000
,
0202
0000
0000
0000
,
0303
0000
0000
0000
,
0010
0100
0010
0000
,
1000
0100
1000
0000
,
0001
1000
0010
0100
,
0001
0010
0100
1000
,
0020
0000
1030
0100
,
1000
0001
0010
0000
,
0001
0100
0010
1000
,
0100
0010
0001
0000
,
1001
0000
0000
0110
,
0000
0100
0010
1100
,
0022
0033
1001
0000
,
0000
0110
0001
1000
,
0001
1001
0110
0000
,
1000
0000
0100
0010
,
0000
0010
0100
0000
,
1000
0001
0010
0100
,
0010
0000
1001
0000
,
0010
0000
1000
0100
,
0000
0100
1000
0000
,
0000
0010
0100
2000
,
3000
0100
0001
0010
,
0001
1000
0010
0100
,
0010
0000
0101
0000
,
0010
1000
0001
0010
,
0001
0000
1100
0000
,
0010
0100
0001
0010
,
0100
0000
0011
0000
,
1000
0001
0010
0100
,
1000
0001
1000
1010
,
0000
0100
0001
1000
,
0100
0000
1010
0000
,
0100
0001
1000
0010
,
0100
0000
0011
0000
,
1000
0001
0010
0011
,
0000
1000
0010
0110
,
0000
0001
1000
1100
,
0000
0010
1000
0110
,
0000
2002
0000
0000
,
0000
3003
0000
0000
;

//---------------dance-single - ----------------
#NOTES:
     dance-single:
     :
     Hard:
     17:
     0.990969,1.227337,0.597821,0.278296,0.170070,673.000000,615.000000,58.000000,27.000000,0.000000,0.000000,0.990969,1.227337,0.597821,0.278296,0.170070,673.000000,615.000000,58.000000,27.000000,0.000000,0.000000:
// measure 0
0000
0000
0000
0000
,  // measure 1
0000
0000
0000
0000
,  // measure 2
0001
0010
0100
1000
0000
0000
0000
0000
0000
0000
0110
0000
0000
0000
1000
0000
,  // measure 3
1010
0000
0000
0101
0000
0001
1000
0010
,  // measure 4
1000
0100
0010
0001
0000
0000
0000
0000
0000
0000
1100
0000
0000
0000
0001
0000
,  // measure 5
0011
0000
0000
1000
0010
0100
0001
0010
,  // measure 6
0001
0100
0010
1000
0000
0000
0000
0000
0000
0000
1100
0000
0000
0000
0001
0000
,  // measure 7
0011
0000
0001
1000
0001
0010
0001
0100
,  // measure 8
0220
0330
2200
3300
,  // measure 9
0022
0000
0000
0000
0033
0000
0000
0000
0001
0100
0010
0000
1000
0010
0100
0000
,  // measure 10
0001
0010
0001
0101
0000
0011
0000
1001
,  // measure 11
1000
0010
1000
0100
1100
1100
1100
0000
,  // measure 12
0101
0000
0100
0010
0100
0010
0100
1000
,  // measure 13
0100
0110
0110
0000
1000
1001
1001
0000
,  // measure 14
0001
0100
0010
0110
0010
0110
0000
1000
,  // measure 15
0100
1000
0100
1100
0101
0101
0101
0000
,  // measure 16
1100
0000
1000
0001
0100
0100
0100
0010
,  // measure 17
1000
0000
0001
0010
0100
0000
1000
0000
0010
0100
0010
0100
0001
0010
0001
0000
,  // measure 18
1000
0100
0001
0200
0000
1300
0010
0100
,  // measure 19
0001
0100
1000
0200
0000
0310
1000
0001
,  // measure 20
0010
1000
0010
0002
0000
0103
0010
1000
,  // measure 21
0001
0000
0100
0010
1000
0000
0100
0000
1000
0010
1000
0010
0100
0001
0010
0000
,  // measure 22
0001
0100
1000
0200
0000
0310
1000
0001
,  // measure 23
0010
1000
0010
0002
0000
1003
0010
0100
,  // measure 24
0010
1000
0100
2000
0000
3001
0100
0010
,  // measure 25
1000
0000
0001
0010
0100
0000
1000
0000
1010
0000
0001
0000
0110
0000
0000
0000
,  // measure 26
1000
0001
0100
0210
0000
0310
0001
0010
,  // measure 27
1000
0100
0001
0201
0000
1300
0010
0100
,  // measure 28
0001
0000
0010
0001
1000
0000
0010
0000
0100
0001
1000
0000
0010
0000
0100
0000
,  // measure 29
0001
0000
0010
0001
0100
0000
0010
0000
0100
0000
0100
0000
0200
0000
0000
0000
,  // measure 30
1300
0000
0100
0000
0001
0000
0010
0000
0001
0000
1000
0100
0010
0000
0001
0000
,  // measure 31
1000
0000
0001
0100
0010
0000
1000
0000
0100
0000
1000
0000
0001
0000
0100
0000
,  // measure 32
0010
1000
0100
0100
0001
0010
0100
0100
,  // measure 33
1000
0000
0001
0100
0010
0000
1000
0000
0001
1000
0100
0000
0110
0000
0000
0000
,  // measure 34
1000
0100
1000
0100
0001
0100
0001
0100
,  // measure 35
1000
0100
1000
0100
0010
0100
0010
0100
,  // measure 36
0001
0100
0001
0100
1000
0100
1000
0100
,  // measure 37
0100
0001
0100
1000
0100
0010
0110
0000
,  // measure 38
0101
0000
0010
0100
0010
0100
0001
0100
,  // measure 39
1000
0100
0001
0100
0010
0100
0010
0100
,  // measure 40
1000
0100
1000
0100
0001
0100
0001
0100
,  // measure 41
0010
0000
1000
0001
0010
0000
0001
0000
1000
0010
0100
0000
0001
0000
0010
0000
,  // measure 42
0001
0000
0100
0010
1000
0000
0100
0000
,  // measure 43
1000
0001
0010
0000
0100
0000
0010
0000
,  // measure 44
0001
1000
0100
0000
1000
0000
0010
0000
,  // measure 45
0100
0010
1000
0000
0100
0000
0010
0000
,  // measure 46
0001
0000
0100
0010
1000
0000
0100
0000
,  // measure 47
1000
0010
0100
0000
0001
0000
0010
0000
,  // measure 48
0001
0000
0100
0010
0100
0000
0001
0000
,  // measure 49
1000
0000
0001
0010
0100
1000
0010
0100
,  // measure 50
0001
0000
1000
0010
0100
0000
0001
0000
,  // measure 51
0010
0100
1000
0000
0010
0000
0100
0000
,  // measure 52
0001
1000
0100
0000
1000
0000
0010
0000
,  // measure 53
0100
0001
0011
0000
,  // measure 54
1000
0000
0001
0000
0010
0100
1000
0010
,  // measure 55
0100
0000
0001
0000
1000
0010
0100
0001
,  // measure 56
0010
0100
1100
0000
,  // measure 57
0001
0000
0100
0010
0100
1000
0100
0001
,  // measure 58
0100
0000
0000
0000
0000
0000
0000
0000
0000
0000
0000
0000
0000
0000
0001
0010
,  // measure 59
0100
0000
0000
0000
,  // measure 60
2002
0000
3003
0000
,  // measure 61
0010
0100
0010
0100
0001
0010
0001
0010
0100
1000
0100
1000
0020
0000
0000
0000
,  // measure 62
1030
0000
0100
1000
0010
0000
0200
0000
,  // measure 63
0000
0310
1000
0100
,  // measure 64
1000
0000
0001
0010
0100
0000
0020
0000
,  // measure 65
0000
0031
1000
0001
,  // measure 66
0100
0000
0010
0100
0001
0000
0010
0000
,  // measure 67
0001
1000
0010
0100
0001
0000
0010
0000
,  // measure 68
2200
0000
3000
0000
,  // measure 69
0002
0000
0303
0000
,  // measure 70
1000
0000
0010
0100
0001
0000
0010
0000
,  // measure 71
0001
0100
0010
0000
1000
0000
0100
0000
,  // measure 72
1000
0001
0010
0100
1000
0001
0010
0100
,  // measure 73
1000
0010
0100
0001
1000
0010
0100
0001
,  // measure 74
1000
0000
0001
0010
0001
0010
0100
1000
,  // measure 75
0100
1000
0010
0100
0010
0000
0000
0000
,  // measure 76
1000
0000
0001
1000
0100
1000
0010
0100
,  // measure 77
0001
0010
0100
1000
0010
0000
0000
0000
,  // measure 78
1010
0100
0100
0011
,  // measure 79
0000
0100
1100
0101
,  // measure 80
0110
0010
1200
1300
,  // measure 81
0010
0011
1000
1001
,  // measure 82
0110
0101
1000
0100
,  // measure 83
0001
0000
0100
0000
1000
0000
0010
0100
,  // measure 84
0010
0000
1000
0000
0001
0000
0100
0010
,  // measure 85
0100
0000
0001
0000
1000
0000
0001
0010
,  // measure 86
0100
1000
0010
0100
,  // measure 87
0100
0001
0100
0100
,  // measure 88
1000
0100
0010
0100
,  // measure 89
0001
1000
0010
0022
,  // measure 90
0033
0000
0100
0010
1000
0100
0010
0001
,  // measure 91
1000
0001
1000
0000
0010
0100
0001
0000
,  // measure 92
0010
0000
0100
1000
0001
0000
1000
0000
,  // measure 93
0010
0000
0100
0000
0001
0010
0100
0000
,  // measure 94
1000
0000
0010
0000
0100
0001
1000
0000
,  // measure 95
0010
0000
0100
0000
0001
0010
0100
0000
,  // measure 96
1000
0000
0010
0000
1000
0001
0100
0000
,  // measure 97
0010
0100
0110
0110
,  // measure 98
0000
0001
1001
1001
,  // measure 99
0000
0000
0100
0000
0010
1000
0100
0000
,  // measure 100
1000
0000
0001
0010
0100
0000
1000
0000
,  // measure 101
0010
0000
0100
0010
1000
0000
0001
0000
,  // measure 102
0010
0000
0001
1000
0100
0000
1000
0000
,  // measure 103
0010
0000
0100
0000
0110
0000
0001
0010
,  // measure 104
0001
0010
0100
0000
1100
0000
1000
0010
,  // measure 105
1000
0010
0100
0000
0101
0000
0001
0100
,  // measure 106
0010
1000
0100
0000
1100
0000
1000
0100
,  // measure 107
0010
0001
0200
0000
0000
0000
0000
0000
,  // measure 108
0000
0300
0000
0000
;
