#TITLE:taboo tears you up 2008;
#SUBTITLE:;
#ARTIST:REDALiCE;
#TITLETRANSLIT:;
#SUBTITLETRANSLIT:;
#ARTISTTRANSLIT:;
#GENRE:;
#CREDIT:;
#BANNER:Taboo_tears_you_up_2008_banner.png;
#BACKGROUND:Taboo_tears_you_up_2008.png;
#LYRICSPATH:;
#CDTITLE:;
#MUSIC:taboo tears you up 2008.ogg;
#OFFSET:-0.240000;
#SAMPLESTART:88.230003;
#SAMPLELENGTH:10.500000;
#LASTBEATHINT:325.966003;
#SELECTABLE:YES;
#BPMS:0.000000=180.000000
;
#STOPS:235.000000=0.167000,
242.500000=0.167000,
250.000000=0.167000,
258.500000=0.167000
;
#BGCHANGES:;
#KEYSOUNDS:;
#ATTACKS:;

//---------------dance-single - ----------------
#NOTES:
     dance-single:
     :
     Easy:
     7:
     0.323535,0.356610,0.114115,0.166784,0.000000,258.000000,245.000000,13.000000,19.000000,0.000000,0.000000,0.323535,0.356610,0.114115,0.166784,0.000000,258.000000,245.000000,13.000000,19.000000,0.000000,0.000000:
0000
0000
0000
0000
,
0000
0000
0000
0000
,
0000
0000
0000
0000
,
0000
0000
0000
0000
,
1000
0100
1000
0010
,
1000
0001
0010
0000
,
0001
0100
0010
1000
,
0220
0000
0000
0000
0000
0330
0000
0000
,
1000
0001
0010
0001
,
1000
0100
0010
0000
,
0100
1000
0010
0100
,
0001
0010
0001
0000
,
0100
0001
1000
0010
,
1000
0001
0010
0000
,
0100
1000
0010
0001
,
2002
0000
0000
0000
0000
3003
0000
0000
,
0010
0000
0010
0001
,
0010
0000
0100
1000
,
0100
0000
1000
0010
,
1000
0000
1001
0000
,
0001
0000
0100
0001
,
0100
0000
0010
1000
,
0010
0000
0100
0000
,
0001
0010
0100
1000
,
0002
0000
0103
0000
,
2000
0000
3010
0000
,
0010
0000
0100
0000
,
0010
0000
1000
0000
,
0011
0000
1000
0000
,
0110
0000
0001
0000
,
1010
0000
0100
0000
,
0011
0000
1001
0000
,
0220
0000
0000
0000
,
0330
0000
0000
0000
,
0001
0010
0001
1000
,
0100
0010
0100
0000
,
1000
0010
0100
0001
,
0010
0100
1000
0000
,
0010
0100
0001
1000
,
0100
0010
0001
0000
,
1000
0001
0010
0100
,
1000
0001
1001
0000
,
0010
0100
0001
0100
,
0010
1000
0100
0000
,
1000
0001
0010
0001
,
1000
0100
0010
0000
,
0001
0100
0010
0100
,
0001
1000
0100
0000
,
0010
0001
1000
0100
,
2002
0000
0000
0000
0000
3003
0000
0000
,
0010
0010
0010
0010
,
0200
0000
0310
0010
,
1000
1000
1000
1000
,
0002
0000
1003
1000
,
0010
0100
0010
0100
,
0001
0010
0001
0000
,
1000
0100
1000
0100
,
0020
0000
0031
0001
,
1000
0000
0010
0000
0100
0000
0020
1030
,
0000
0010
0000
0100
0000
0010
0000
1000
,
0000
0001
0000
0010
0000
0002
0013
0000
,
0100
0010
0001
1000
,
0010
0000
0100
0000
0002
1003
0000
0001
,
0000
0100
0000
0001
0000
0010
0000
0100
,
0000
1000
0000
0010
0000
0200
0000
0000
,
0010
0310
1000
0010
,
1000
0001
0100
0010
,
0100
0000
0001
0010
,
0001
1000
0010
1000
,
0100
0000
0010
0100
,
1000
0001
0010
0100
,
1000
0000
0010
1000
,
0001
0100
0220
0000
,
0000
0330
0000
0000
1000
0000
0010
0000
,
1000
0010
0100
0001
,
0100
0000
0001
0010
,
0001
0100
0010
1000
,
0100
0000
1000
0100
,
0010
0001
0100
0010
,
1000
0000
0001
0010
,
0100
1000
1001
0000
,
0000
0010
0010
0000
0000
0000
0000
0000
;

//---------------dance-single - ----------------
#NOTES:
     dance-single:
     :
     Medium:
     12:
     0.609450,0.641898,0.254565,0.105337,0.000000,486.000000,457.000000,29.000000,12.000000,0.000000,0.000000,0.609450,0.641898,0.254565,0.105337,0.000000,486.000000,457.000000,29.000000,12.000000,0.000000,0.000000:
0000
0000
0000
0000
,
0000
0000
0000
0000
,
0000
0000
0000
0000
,
0000
0000
0000
0000
,
0100
1000
0010
0000
0100
0001
0010
0000
,
0001
1000
0010
0100
0010
0000
1100
0000
,
1000
0001
0010
0000
0001
0010
0100
0000
,
1200
0000
0000
0010
0310
0000
0110
0000
,
1000
0001
0100
0001
0010
0001
1000
0000
,
0010
0100
0001
0100
0010
0100
1000
0000
,
0100
0001
0010
0100
1000
0001
1000
0000
,
0001
0010
0100
1000
0010
0100
0100
0000
,
0001
1000
0100
1000
0001
0010
0100
0000
,
0010
0100
1000
0001
1000
0010
0100
0000
,
0010
1000
0100
1000
0001
0010
0100
0000
,
0210
0000
0000
1000
2000
0000
3300
0000
,
0001
0100
1000
0100
,
0001
0100
1000
0100
,
0010
1000
0010
0001
,
0010
1000
0010
0001
,
0010
0000
1000
0001
0100
0000
0001
0010
,
0100
0000
0010
0100
1000
0000
0010
0000
,
1000
0001
0100
0000
0010
1000
0001
0000
,
1000
0010
0100
0001
0010
0100
1000
0000
,
0020
0100
0000
0130
0000
0001
0001
0000
,
2000
0100
0000
3100
0000
0010
0010
0000
,
0001
1000
0100
1000
0000
0010
0010
0000
,
1000
0001
0010
0100
0000
1000
1000
0000
,
0001
1000
0010
0000
0100
0010
1000
0000
,
1000
0010
0100
0000
0001
0010
0100
0000
,
1000
0010
0100
0001
0010
0100
1000
0001
,
1000
0010
0100
0001
1000
0100
0010
0000
,
2200
0000
0000
0000
,
0000
0000
3300
0000
,
0010
0100
0001
1000
0100
0010
0100
0000
,
0010
0001
1000
0010
0100
1000
0000
1000
,
0001
0000
0001
0010
0100
0001
1000
0000
,
0100
0010
0100
1000
0001
0000
1001
0000
,
0100
0010
1000
0100
0010
0001
0010
0000
,
0001
0100
0010
1000
0001
0010
0000
0010
,
1000
0000
1000
0010
0001
0100
0010
0000
,
1000
0100
0001
0100
1000
0000
1001
0000
,
0010
1000
0100
1000
0001
0010
0100
0000
,
1000
0001
0010
0100
0010
0001
1000
0000
,
1000
0010
0100
0001
0010
0100
1000
0000
,
0001
0010
1000
0010
0001
0000
1001
0000
,
1000
0001
0100
0010
0100
0001
1000
0000
,
0010
0100
0001
1000
0010
1000
0001
0000
,
0010
0100
1000
0001
1000
0100
0010
0000
,
0220
0000
0000
0330
,
1000
0001
0000
0001
0000
0001
0010
0001
,
1000
0010
0000
0010
1000
0100
1000
0000
,
0010
0100
0000
0100
0001
1000
0001
0010
,
0100
1000
0000
1000
0001
0010
0001
0000
,
0100
0010
0000
0010
0000
1000
0100
1000
,
0001
0010
0000
0010
0100
1000
0001
0000
,
1000
0100
0000
0100
0010
0100
1000
0001
,
0100
0010
0000
0010
0100
0001
1001
0000
,
0100
0010
0100
0001
0100
0010
1000
0001
,
0010
0001
1000
0001
0100
0001
0000
1000
,
0010
1000
0100
1000
0100
0010
0001
0100
,
0000
0100
0010
0100
0001
0000
0010
0100
,
0000
0100
1000
0001
1000
0001
0010
0000
,
0010
0001
1000
0010
0000
0100
0100
0000
,
0010
0010
0100
0001
0100
0010
0010
0010
,
0010
0000
0110
0000
1000
0100
1000
0010
,
1000
0100
0010
0000
0001
0010
0001
0100
,
0001
1000
0010
0000
0100
0001
1000
0100
,
1000
0010
0100
0000
0001
0010
0100
0010
,
0001
1000
1000
0000
0010
0100
0110
0000
,
0001
0011
0000
1000
1010
0000
0100
0010
,
1000
0001
1100
0000
0001
0100
0101
0000
,
1000
0001
1000
0100
0020
0000
0001
0001
,
0002
0000
0033
0000
0000
1100
0000
0101
,
0000
0110
0000
0101
0000
1010
0000
0100
,
0001
0010
0001
1000
0000
0110
0000
1010
,
0000
0011
0000
1001
0000
1100
0000
0010
,
1000
0001
0010
0100
1000
0001
0000
0101
,
0000
1000
0000
1010
0000
0110
0000
0100
,
0001
0010
1000
0000
1000
0010
0001
0000
,
1000
0001
0100
0010
2000
0000
0000
0000
,
0000
0100
3100
0000
0000
0000
0000
0000
;

//---------------dance-single - ----------------
#NOTES:
     dance-single:
     :
     Hard:
     15:
     0.820124,0.855864,0.596910,0.149228,0.215063,654.000000,586.000000,68.000000,17.000000,0.000000,0.000000,0.820124,0.855864,0.596910,0.149228,0.215063,654.000000,586.000000,68.000000,17.000000,0.000000,0.000000:
// measure 0
0000
0000
0000
0000
,  // measure 1
0000
0000
0000
0000
,  // measure 2
0000
0000
0000
0000
,  // measure 3
0000
0000
0000
0000
,  // measure 4
0001
0100
0010
1000
0100
0001
0100
1000
,  // measure 5
0010
0100
0001
1000
0010
0001
0011
0000
,  // measure 6
1000
0010
0100
0001
0010
1000
0010
0001
,  // measure 7
0200
0000
0010
0010
0320
0000
0031
0000
,  // measure 8
0001
0000
0010
0000
1000
0000
0001
1000
0001
0000
0010
0000
0100
0000
1000
0010
,  // measure 9
0100
0000
0001
0000
1000
0001
0100
0000
0010
0000
1000
0000
1100
0000
0000
0000
,  // measure 10
0001
0000
0100
0000
0010
0000
1000
0001
0100
0000
0010
0000
1000
0001
0010
0000
,  // measure 11
0001
0000
1000
0000
0100
1000
0001
0000
0100
0000
0010
0000
0101
0000
0000
0000
,  // measure 12
1000
0000
0001
0000
0010
0000
0001
1000
0100
0000
1000
0000
0010
0100
0001
0000
,  // measure 13
1000
0000
0001
0000
0010
0100
1000
0000
0010
0000
0100
0000
1010
0000
0000
0000
,  // measure 14
0100
0000
0001
0000
1000
0000
0001
0010
0001
0000
1000
0000
0010
0100
0001
0000
,  // measure 15
2000
0000
0100
0100
3100
0000
0010
0000
,  // measure 16
0001
0100
0001
0010
0001
1000
1000
1000
,  // measure 17
0010
0100
0001
1000
0100
0010
0010
0010
,  // measure 18
0100
1000
0001
0100
0010
1000
0001
1000
,  // measure 19
0010
0100
1000
0100
0001
0010
0100
0001
,  // measure 20
0100
0000
1000
0000
0010
0100
0010
0000
1000
0000
0001
0000
0010
0000
0001
0000
,  // measure 21
1000
0000
0001
0000
1000
0100
1000
0000
0001
0000
0010
0000
0100
0000
0010
0000
,  // measure 22
0100
0000
1000
0000
0001
1000
0001
0000
0100
0000
0010
0000
0010
0000
0010
0000
,  // measure 23
1000
0000
0010
0000
0100
0001
0100
0000
0001
0000
0010
0000
1000
0000
0010
0000
,  // measure 24
0002
0100
0000
0100
0000
0100
0100
0203
,  // measure 25
0010
0010
0000
0010
0000
0010
0010
0320
,  // measure 26
0001
0001
0000
0001
0000
1000
1000
2030
,  // measure 27
0100
0100
0000
0001
0000
0100
0100
3100
,  // measure 28
1000
0010
1000
0010
0100
0001
0100
0001
,  // measure 29
0010
0001
0100
0010
1000
0100
0001
0100
,  // measure 30
1000
0000
0010
0100
0001
0000
0010
0000
0001
0000
1000
0010
0100
0000
0001
0000
,  // measure 31
0010
0001
1000
0000
0100
1000
0001
0000
0100
0010
0100
0010
0100
0000
0010
0000
,  // measure 32
2002
0000
0000
0000
,  // measure 33
0000
0000
3003
0000
0000
0000
0100
0010
,  // measure 34
1000
0000
0010
0000
0100
0000
0001
0010
0100
0000
1000
0000
0010
0000
0100
0001
,  // measure 35
1000
0000
0010
0000
1000
0000
0010
0000
0100
0000
0001
0000
0000
0000
0001
0010
,  // measure 36
0001
0000
1000
0000
0100
0000
0010
0000
0100
0000
1000
0001
1000
0000
0010
0000
,  // measure 37
0100
1000
0100
0001
0100
0000
0110
0000
,  // measure 38
0001
0000
0010
0000
0001
0000
1000
0000
0010
0000
0100
0000
0010
0000
0100
0010
,  // measure 39
1000
0000
0001
0000
0010
0000
0100
0000
1000
0000
0010
0000
0000
0000
0010
1000
,  // measure 40
0001
0000
0100
0000
0001
0000
0010
0001
1000
0000
0010
0000
0100
0000
0010
0000
,  // measure 41
0100
1000
0010
0001
0100
0000
1001
0000
,  // measure 42
0010
0000
0100
0000
0001
0000
1000
0100
1000
0000
0010
0000
0100
0000
0001
0010
,  // measure 43
0100
0000
1000
0000
0001
0000
0010
0000
0001
0000
0100
0000
0000
0000
0100
0010
,  // measure 44
1000
0000
0100
0000
1000
0000
0001
0000
0010
0000
0001
1000
0100
0000
1000
0000
,  // measure 45
0010
0100
0010
0001
0010
0000
1010
0000
,  // measure 46
0100
0000
0001
0000
0010
0000
0100
0000
0010
0000
0001
0000
1000
0000
0010
0100
,  // measure 47
0001
0000
0010
0000
0001
0000
0100
0000
0010
0000
1000
0000
0000
0000
1000
0001
,  // measure 48
0010
0000
0001
0000
1000
0000
0010
0000
0100
0000
0001
0010
0100
0000
1000
0000
,  // measure 49
0002
0000
0010
0010
0023
0000
0130
0000
,  // measure 50
1000
1010
0000
0011
0000
0100
0110
0100
,  // measure 51
0001
1010
0000
0011
0001
0100
0110
0000
,  // measure 52
1000
1100
0000
0101
0000
0010
0110
0010
,  // measure 53
1000
1100
0000
0011
1000
0001
1001
0000
,  // measure 54
0001
0011
0000
1100
0000
0001
0101
0001
,  // measure 55
1000
0110
0000
1001
0010
0100
1010
0000
,  // measure 56
0100
0101
0000
1100
0000
0010
0110
0010
,  // measure 57
1000
0000
0001
0000
0010
0001
1000
0000
0010
0000
0100
0000
0101
0000
0000
0000
,  // measure 58
1000
0100
0010
0100
1000
0001
0011
0001
,  // measure 59
1000
0010
0100
0010
0010
1010
0000
0100
,  // measure 60
0010
0000
1000
0100
1000
0000
0001
0000
0100
0000
0110
0000
0010
0000
1000
0000
,  // measure 61
0001
0010
0100
0000
0010
0000
0100
0000
1000
0000
1000
0000
0001
0000
0010
0000
,  // measure 62
0100
1000
0100
0000
1000
0000
0001
0000
0101
0000
0010
0000
1000
0000
0001
1000
,  // measure 63
0010
0000
0100
0000
0010
0000
1010
0000
0010
0000
0100
0001
1000
0010
1000
0000
,  // measure 64
0001
0010
0100
1000
0010
0200
0010
0010
,  // measure 65
0320
0000
0000
0000
1030
0000
0001
0000
1000
0000
0010
1000
0010
0000
0100
0000
,  // measure 66
0001
0010
0001
0000
1000
0000
0001
0100
0001
0000
1000
0000
0010
0100
0010
0000
,  // measure 67
1000
0000
0100
0000
0020
0000
0000
0000
0031
0000
1000
0100
1000
0000
0001
0000
,  // measure 68
0010
0100
0010
0000
0001
0000
1000
0010
1000
0000
0001
0000
1000
0000
0100
0000
,  // measure 69
0001
0100
2000
0000
3010
0100
0101
0001
,  // measure 70
1000
1100
0001
0010
0011
1000
0001
1001
,  // measure 71
0010
0100
1001
0000
0010
0100
0101
0001
,  // measure 72
1000
1010
0010
0100
0201
0000
0010
0010
,  // measure 73
0010
0000
1300
0000
0100
0101
0000
1100
,  // measure 74
0000
1010
0000
1001
0000
0011
0000
0101
,  // measure 75
0001
1000
1001
0010
0100
0101
0000
1100
,  // measure 76
0000
1010
0000
0011
0000
1001
0000
1100
,  // measure 77
0100
1000
0010
0100
0001
0011
0010
0110
,  // measure 78
0100
1100
1000
1010
0010
0110
0100
0101
,  // measure 79
1000
0001
1001
0000
0110
0100
0101
0001
,  // measure 80
0011
0010
1010
1000
1020
0000
0000
0000
,  // measure 81
0000
0001
0031
0000
0000
0000
0000
0000
;
