#TITLE:ススススペースハリネズミ;
#SUBTITLE:;
#ARTIST:S-C-U;
#TITLETRANSLIT:sssspace harinezumi;
#SUBTITLETRANSLIT:;
#ARTISTTRANSLIT:;
#GENRE:;
#CREDIT:;
#BANNER:Sssspace_harinezumi_banner.png;
#BACKGROUND:Sssspace_harinezumi.png;
#LYRICSPATH:;
#CDTITLE:;
#MUSIC:sssspace harinezumi.ogg;
#OFFSET:-0.660000;
#SAMPLESTART:46.639999;
#SAMPLELENGTH:15.000000;
#LASTBEATHINT:320.000000;
#SELECTABLE:YES;
#BPMS:0.000000=182.000000
,132.000000=91.000000
,133.000000=182.000000
;
#STOPS:131.000000=0.330000,
131.500000=0.330000,
133.000000=0.989000,
234.000000=0.989000
;
#BGCHANGES:;
#KEYSOUNDS:;
#ATTACKS:;

//---------------dance-single - ----------------
#NOTES:
     dance-single:
     :
     Easy:
     6:
     0.277378,0.317586,0.116320,0.089477,0.000000,217.000000,204.000000,13.000000,10.000000,0.000000,0.000000,0.277378,0.317586,0.116320,0.089477,0.000000,217.000000,204.000000,13.000000,10.000000,0.000000,0.000000:
0000
0000
0000
0000
,
0000
0000
0000
0000
,
0000
0000
0000
0000
,
0000
0000
0000
0000
,
1000
0100
0010
0000
,
0001
0100
0010
0000
,
1000
0001
1000
0001
,
0010
0100
1000
0000
,
0001
0100
0010
1000
,
0100
0010
0001
0000
,
1000
0010
0100
0010
,
1000
0000
0100
0000
,
0010
0001
1000
0001
,
0100
0000
0010
0000
,
1000
0001
0010
0001
,
1000
0000
0001
0000
,
0010
0100
1000
0010
,
0100
0000
1001
0000
,
0010
0100
0001
0100
,
0010
0000
1000
0000
,
0100
1000
0010
0100
,
0001
0000
0010
0000
,
0001
0010
0100
1000
,
0010
0000
1100
0000
,
0001
0001
1000
1000
,
0010
0000
0101
0000
,
0010
0000
0001
0000
,
2000
0000
0000
3000
,
0010
0000
0100
0000
,
0002
0000
0000
0003
,
0010
0000
0100
0000
,
2000
0000
0000
3000
,
0001
0000
0000
0001
0000
0000
0200
0000
,
0300
0000
0010
0100
,
0010
0000
1000
0001
,
1000
0000
0001
0010
,
0100
0000
0010
0100
,
1000
0000
0010
0100
,
1000
0000
0100
0001
,
0010
0000
0000
1001
,
0000
0110
0020
0000
,
0000
0030
1000
0100
,
0010
0000
0100
0010
,
0001
0000
0100
0010
,
0001
0000
0010
1000
,
0100
0000
1000
0001
,
0010
0000
0001
1000
,
0100
0000
0110
0000
,
1001
0000
0220
0000
,
0000
0330
0000
0000
1000
0000
0000
0000
,
0010
0010
0010
0000
,
0100
0000
1000
1000
,
1000
0000
0001
0010
,
0001
0000
1000
0000
,
0100
0000
0010
1000
,
0010
0000
0100
0000
,
0001
0000
0010
0001
,
0010
0000
0001
0010
,
0100
1000
1001
0010
,
0100
0001
0000
1000
,
0100
0010
0000
0001
,
0010
0100
0000
0010
,
0100
1000
0000
0001
,
1000
0100
0000
1000
,
0001
0100
0000
0000
,
0110
0000
1001
0220
,
0000
0000
0000
0330
0000
0000
0001
0000
,
0010
0001
0000
1000
,
0100
1000
0000
0001
,
1000
0100
0000
0100
,
0010
0001
0000
1000
,
0100
0010
0100
1000
,
0000
0001
0000
0001
,
0100
0010
0100
0001
,
0000
1001
0000
0010
,
0100
0010
0100
0001
,
1000
0001
0000
1000
,
0000
0001
0000
0000
0010
0200
0000
0000
,
0000
0000
0000
0000
0000
0000
0000
0300
;

//---------------dance-single - ----------------
#NOTES:
     dance-single:
     :
     Medium:
     11:
     0.534303,0.535182,0.205796,0.170006,0.035791,418.000000,395.000000,23.000000,19.000000,0.000000,0.000000,0.534303,0.535182,0.205796,0.170006,0.035791,418.000000,395.000000,23.000000,19.000000,0.000000,0.000000:
0000
0000
0000
0000
,
0000
0000
0000
0000
,
0000
0000
0000
0000
,
0000
0000
0000
0000
,
0001
0000
0011
0000
1000
0010
0100
0010
,
0000
1000
0001
0010
0000
0001
1000
0100
,
0000
0010
0100
0000
1000
0001
1000
0000
,
0010
0100
0001
0000
1000
0001
0010
0100
,
0000
0100
0010
0000
0001
0010
0100
0000
,
0010
0001
1000
0010
0100
0100
0000
0000
,
0001
0000
0010
0100
0000
1000
0010
0000
,
1000
0001
0000
0100
0010
0100
0001
0000
,
1000
0000
0010
0100
0000
0001
0100
0000
,
0010
1000
0000
1000
0001
0010
0100
0000
,
1100
0000
0001
0100
0000
0001
0010
0000
,
0100
1000
0000
1000
0010
0100
0001
0000
,
1000
0000
0001
1000
0000
0010
0100
0000
,
0001
1000
0100
0010
0100
1000
0002
0000
,
0103
0000
0010
0100
0000
0001
0100
0000
,
0010
1000
0000
1000
0001
0100
0010
0000
,
1000
0000
0100
0010
0000
0100
1000
0000
,
0001
0010
0000
0010
0001
0100
0010
0000
,
1000
0000
0010
1000
0000
0001
1000
0000
,
0001
0010
0000
0010
0001
1000
0100
0000
,
1000
0010
2000
0000
3001
0010
0002
0000
,
0103
0010
0100
0010
0220
0000
0330
0000
,
1000
0000
0010
0100
0000
0001
0200
0000
,
0010
0010
0001
0301
,
0010
0000
0001
0010
0000
0010
0200
0000
,
1000
1000
0010
0310
,
0001
0000
1000
0010
0000
0010
0200
0000
,
0001
0001
0010
0310
,
1010
0000
0000
0011
0000
0000
1001
0110
,
2002
3003
0000
0000
0010
0000
1000
0100
,
0000
0000
0100
0000
1000
0000
0000
0000
0010
0000
0000
0010
0000
0000
0010
0000
,
0000
0100
0100
0000
0001
0000
0001
0010
,
0001
0000
0001
0000
1000
0100
0010
0000
,
0100
0010
0001
1000
0000
0010
0100
0000
,
0001
0000
0100
0000
0000
0000
0010
0000
1000
0000
0000
1000
0000
0000
1000
0000
,
0000
0001
0010
0000
0001
0000
1010
0000
,
1000
0000
0101
0000
0010
0010
0000
1100
,
0000
0001
0010
0000
0001
1000
0100
1000
,
0000
0000
0010
0000
0100
0000
0000
0000
0001
0000
0000
0001
0000
0000
0001
0000
,
0010
0100
1000
0000
0020
0000
0130
0001
,
1000
0000
1001
0000
1000
0010
0100
0000
,
0010
0100
0001
0000
0010
0001
0010
0000
,
0100
0000
1000
0000
0100
0000
0000
0000
1000
0000
0000
0010
0000
0000
1000
0000
,
0002
0000
0013
0000
0010
0000
0100
1000
,
0001
0000
0100
0000
0010
1000
0100
1000
,
0001
0010
0000
0000
0001
0000
1001
0000
,
0100
0010
0100
0010
0000
1000
0100
1000
,
0000
0010
0000
0010
0000
0100
0010
0100
,
0010
0000
0100
0001
0000
0010
0000
0202
,
0000
0303
0000
0000
0010
0000
1010
0000
,
1000
0100
0010
0100
0000
1000
0001
0100
,
0000
0010
0100
0001
0000
0000
1001
0000
,
1000
0001
0010
0000
0001
0100
0010
0000
,
1000
0100
0010
0000
0001
1000
0010
0100
,
0001
0000
0010
0000
0100
0000
0000
0000
2200
3300
0000
0000
0001
0000
0000
0000
,
0010
0000
0001
0000
0000
0000
0001
0000
1000
0000
0000
0000
0010
0000
0000
0010
,
0000
0010
0000
0100
0010
0000
1000
0000
,
0010
1000
0100
0000
1000
0000
0001
0010
,
0100
1000
0010
0100
0001
0000
2000
0000
,
3010
0000
0100
0001
0100
0000
0001
0010
,
0100
0020
0000
0001
0031
0000
1000
0000
,
1100
0000
0001
0000
0101
0000
0010
0010
,
0000
0100
0000
0010
1000
0000
1001
0000
,
0001
0000
0010
0000
0000
0000
0010
0000
0100
0000
0000
0000
1000
0000
0000
0001
,
0000
1000
0010
0100
0010
0000
1000
0000
,
1000
0010
0100
0000
0001
0000
0010
0100
,
1000
0100
0010
0000
0001
0000
1000
0001
,
0010
0000
0000
0000
0001
0000
1000
0000
0010
0000
0000
0000
0100
0000
0000
0100
,
0000
0001
0010
0000
0001
0000
1000
0010
,
0100
0010
1000
0100
0010
0000
0001
0100
,
0010
0100
0001
0010
0100
0000
1000
0100
,
1000
0000
0000
0000
0001
0000
0010
0000
0001
0000
0000
0000
1000
0000
0000
0001
,
0000
1000
0010
0000
0110
0000
1010
0000
,
0000
0101
0000
0000
0001
0020
0000
0000
,
0000
0000
0000
0000
,
0000
0000
0000
0030
;

//---------------dance-single - ----------------
#NOTES:
     dance-single:
     :
     Hard:
     15:
     0.800177,0.820613,0.402645,0.161058,0.353433,626.000000,581.000000,45.000000,18.000000,0.000000,0.000000,0.800177,0.820613,0.402645,0.161058,0.353433,626.000000,581.000000,45.000000,18.000000,0.000000,0.000000:
// measure 0
0000
0000
0000
0000
,  // measure 1
0000
0000
0000
0000
,  // measure 2
0000
0000
0000
0000
,  // measure 3
0000
0000
0000
0000
0000
0000
0000
0000
0000
0000
0000
0000
0000
0000
0001
0100
,  // measure 4
0010
0000
1010
0000
1000
0100
0010
0011
,  // measure 5
0000
0001
0100
0110
0000
1000
0100
0001
,  // measure 6
0100
1000
0010
1000
0001
0010
0100
0010
,  // measure 7
0001
0100
1000
0001
0010
1000
0001
1000
,  // measure 8
0010
0000
1000
0100
1000
0000
0100
0000
0010
0000
0001
0100
0001
0000
1000
0000
,  // measure 9
0010
0000
1000
0001
1000
0000
0001
0000
0010
0000
0220
0000
0330
0000
0000
0000
,  // measure 10
0001
0000
0100
0010
0100
0000
0001
0000
1000
0100
1000
0000
0010
0000
0100
0000
,  // measure 11
0001
0010
0100
1000
0010
0100
0002
0000
,  // measure 12
1003
0000
0100
0010
0100
0000
1000
0000
0001
0010
0001
0000
0100
0000
0010
0000
,  // measure 13
1000
0001
0010
0100
1000
0001
1001
0000
,  // measure 14
0010
0000
0001
0100
0001
0000
1000
0000
0010
0100
0010
0000
1000
0000
0100
0000
,  // measure 15
1000
0010
0001
1000
0100
0001
0020
0000
,  // measure 16
0130
0000
1000
0010
1000
0000
0001
0000
0100
0010
0100
0000
0001
0000
0010
0000
,  // measure 17
0001
1000
0010
0001
1000
0100
0110
0000
,  // measure 18
1000
0000
0001
0010
0001
0000
1000
0000
0001
0010
0001
0000
1000
0000
0100
0000
,  // measure 19
1000
0000
0010
1000
0010
0000
0100
0000
0001
0000
0010
0000
0200
0000
0000
0000
,  // measure 20
0310
0000
0001
0100
0001
0000
1000
0000
0001
0100
0001
0000
1000
0000
0010
0000
,  // measure 21
0100
0000
0010
1000
0010
0000
0100
0000
0001
0000
0010
0000
0011
0000
0000
0000
,  // measure 22
0100
0000
0010
1000
0100
0000
1000
0000
0001
0010
0100
0000
0010
0000
0001
0000
,  // measure 23
1000
0000
0010
0100
0001
0000
1000
0000
0100
0000
0001
0000
0100
0000
1000
0000
,  // measure 24
0001
0001
0011
0000
1000
1000
1010
0000
,  // measure 25
0100
0000
0010
0000
0100
0000
0010
0000
1000
0000
1000
0000
0001
0010
0100
1000
,  // measure 26
0001
0010
1000
0020
0000
0031
0002
0000
,  // measure 27
1000
0000
0100
0100
0000
0010
0023
0000
,  // measure 28
0100
0000
0130
0200
0000
1000
2300
0000
,  // measure 29
0010
0000
0001
0001
0000
0010
3020
0000
,  // measure 30
0100
0000
1000
1000
0000
0100
0100
0000
,  // measure 31
0001
0000
0001
0001
0000
1000
1030
0000
,  // measure 32
0100
0001
0010
0100
1000
0010
0110
1001
,  // measure 33
0220
0000
0000
0000
0330
0000
0001
1000
0100
0000
1000
0000
0010
0000
0100
0000
,  // measure 34
0001
0000
1000
0000
0000
0000
0010
0100
0001
0000
0000
0011
0000
0000
1100
0000
,  // measure 35
0000
0000
1000
0000
0001
0000
0010
0000
0001
0000
0100
0000
0010
0000
1000
0100
,  // measure 36
1000
0010
0100
0001
0010
0100
1000
0010
,  // measure 37
0100
0001
0100
0000
0010
0000
1000
0000
0000
0000
0001
0010
0001
0010
0001
0000
,  // measure 38
1000
0010
1000
0010
1000
0000
0001
0000
0100
0000
0000
0010
0000
0000
0101
0000
,  // measure 39
0000
0010
1000
0000
0010
0000
1000
0000
0100
0000
0010
0000
0011
0000
0000
0000
,  // measure 40
1000
0010
0110
0000
0001
0101
0000
1100
,  // measure 41
0000
0000
1010
0000
1000
0000
0001
0010
0100
0000
1000
0000
0010
0000
1000
0000
,  // measure 42
0001
0000
0010
0000
0000
0000
0010
0000
0001
0000
0000
1010
0000
0000
0100
0000
,  // measure 43
0001
0000
1000
0000
0100
0000
0010
0000
0001
0000
0100
0000
0010
0000
1000
0010
,  // measure 44
1000
0001
0010
0100
1000
0010
0100
0001
,  // measure 45
0010
0001
0010
0000
0100
0000
1000
0000
0000
0000
0001
0100
0001
0100
0001
0000
,  // measure 46
1000
0100
1000
0100
1000
0000
0010
0000
0100
0000
0000
0101
0000
0000
0010
0000
,  // measure 47
0100
0000
0000
1100
0000
0000
1000
0000
0001
0000
0010
0000
0001
0000
1000
0100
,  // measure 48
1000
0010
0200
0000
0301
0010
0001
1000
,  // measure 49
0010
0100
0110
0000
0001
0010
0100
1000
,  // measure 50
0010
0100
0001
0011
0000
1000
0010
1010
,  // measure 51
0000
0100
0001
0101
0000
0001
0010
0001
,  // measure 52
1000
0010
0100
0110
0000
1000
0001
1001
,  // measure 53
0000
0000
0110
0000
0000
0000
1000
0100
1000
0000
0010
0000
0100
0000
0001
0000
,  // measure 54
0010
1000
0010
0002
0000
1003
0100
0002
,  // measure 55
0000
0103
1000
0010
1000
0001
0010
1000
,  // measure 56
0001
0100
1000
0001
1000
0010
0001
1000
,  // measure 57
0100
0000
0001
0000
1000
0000
0001
0000
0010
0000
0100
0010
0100
0000
0001
0000
,  // measure 58
1000
0010
1000
0000
0001
0000
0010
0000
0110
0000
1000
0010
1000
0000
0001
0000
,  // measure 59
0010
0000
0001
0000
1000
0000
0010
0000
0000
0000
0100
0001
0100
0000
0000
0110
,  // measure 60
0000
1000
0010
0100
0001
0010
0100
1000
,  // measure 61
0001
0000
1000
0010
1000
0000
0100
0000
0010
0000
0100
0000
1000
0000
0001
0000
,  // measure 62
0010
0000
0001
0000
0100
0010
0100
0000
0001
0000
1000
0000
0000
0000
0001
0100
,  // measure 63
0001
0100
0001
0000
1000
0010
1000
0010
1000
0000
0001
0000
0010
0000
0000
1100
,  // measure 64
0000
0000
0001
0000
0000
0100
0010
0000
0100
0000
0001
0000
1000
0000
1000
0000
,  // measure 65
1100
0000
0001
0001
0011
0000
0100
0101
,  // measure 66
0000
0000
0011
0000
0000
0000
1000
0000
0100
0000
1000
0010
0100
0000
0001
0000
,  // measure 67
0010
0000
0001
0000
1000
0000
0010
0000
0000
0000
0010
0100
0010
0000
0000
1010
,  // measure 68
0000
0100
0001
0010
0100
1000
0010
0100
,  // measure 69
0010
0000
1000
0001
1000
0000
0100
0000
0010
0000
0001
0000
0100
0000
0010
0000
,  // measure 70
0100
0000
1000
0000
0100
0001
0100
0000
0001
0000
0010
0000
0000
0000
0001
1000
,  // measure 71
0010
1000
0001
0000
1000
0010
0100
0010
1000
0000
0001
0000
0100
0000
0000
1100
,  // measure 72
0000
0000
0010
0000
0100
0000
0000
0011
0000
0000
0100
0000
0010
0000
1000
0000
,  // measure 73
0001
0000
1000
0100
0010
0000
0001
0000
0010
0000
0100
0000
1000
0000
0001
0000
,  // measure 74
1000
0000
0010
0000
0100
0001
1000
0000
0010
0000
1000
0000
0000
0000
0010
0100
,  // measure 75
0010
0100
0010
0000
1000
0001
1000
0001
1000
0000
0010
0000
0100
0000
0000
0011
,  // measure 76
0000
0000
1000
0000
0001
0000
0000
1010
0000
0000
0100
0001
1000
0000
1100
0000
,  // measure 77
0000
0001
0101
0000
0010
2002
0000
0000
,  // measure 78
0000
0000
0000
0000
,  // measure 79
0000
0000
0000
3003
;
