#TITLE:satfinal;
#SUBTITLE:;
#ARTIST:RAM;
#TITLETRANSLIT:;
#SUBTITLETRANSLIT:;
#ARTISTTRANSLIT:;
#GENRE:RAVE;
#CREDIT:;
#BANNER:satfinal_banner.png;
#BACKGROUND:Satfinal.png;
#LYRICSPATH:;
#CDTITLE:;
#MUSIC:satfinal.ogg;
#OFFSET:-0.700000;
#SAMPLESTART:34.000000;
#SAMPLELENGTH:15.000000;
#LASTBEATHINT:325.000000;
#SELECTABLE:YES;
#BPMS:0.000000=180.000000
;
#STOPS:
;
#BGCHANGES:;
#KEYSOUNDS:;
#ATTACKS:;

//---------------dance-single - ----------------
#NOTES:
     dance-single:
     :
     Easy:
     7:
     0.290209,0.356166,0.043971,0.052765,0.000000,231.000000,226.000000,5.000000,6.000000,0.000000,0.000000,0.290209,0.356166,0.043971,0.052765,0.000000,231.000000,226.000000,5.000000,6.000000,0.000000,0.000000:
0000
0000
0000
0000
,
0000
0000
0000
0000
,
0000
0000
0000
0000
,
0000
0000
0000
0000
,
0000
0000
0000
0000
,
0010
0000
0000
0000
0000
0010
0000
0000
,
0100
0000
0000
0000
0000
0100
0000
0000
,
0001
0000
0000
0000
0000
0001
0000
0000
,
1000
0000
0000
0000
0000
1000
0000
0000
,
0001
0000
0010
0000
,
0001
0100
0001
0000
,
1000
0000
0010
0000
,
1000
0100
1000
0000
,
0010
0000
0100
0000
,
0001
1000
0001
0000
,
1000
0000
0010
0000
,
0220
0000
0000
0000
0000
0330
0000
0000
,
0001
0000
0010
0000
,
0001
0000
1000
0000
,
0100
0000
1000
0000
,
0010
0000
0100
0000
,
0001
0001
0001
0000
,
1000
1000
1000
0000
,
0010
0100
0010
0000
,
1000
0100
0010
0001
,
1000
0100
1000
0000
,
0001
0010
0001
0000
,
1000
0010
1000
0000
,
0001
0100
0001
0000
,
1000
0010
0100
0000
,
0001
0010
0100
0000
,
1000
0001
0100
0010
,
0220
0000
0000
0000
0000
0330
0000
0000
,
0001
0010
0001
0100
,
0010
1000
0100
0000
,
1000
0010
0100
0001
,
0010
0001
0100
0000
,
0010
1000
0100
0001
,
0100
1000
0010
0000
,
0100
0001
0100
1000
,
0100
0010
1000
0000
,
0001
0000
0000
0001
0000
0000
0000
0000
,
1000
0000
0000
1000
0000
0000
0000
0000
,
0010
0000
0000
0010
0000
0000
0000
0000
,
0100
0000
0000
0100
0000
0000
0000
0000
,
0010
0000
0000
1000
0000
0000
0010
0000
,
0100
0000
0000
0001
0000
0000
0100
0000
,
0001
1000
0100
0010
,
0002
0000
0000
0000
0000
1003
0000
0000
,
1000
0010
1000
0010
,
0100
0001
0100
0000
,
0010
1000
0100
0010
,
0001
0100
0001
0000
,
0010
0100
1000
0001
,
0010
0100
1000
0000
,
0001
0001
0001
0001
,
0200
0000
0000
0000
0000
0310
0000
0000
,
1000
0000
0000
0000
0000
1000
0000
0000
,
0001
0000
0000
0000
0000
0001
0000
0000
,
0010
0000
0000
0000
0000
0010
0000
0000
,
0100
0000
0000
0000
0000
0100
0000
0000
,
1000
0000
0001
0100
,
0001
0000
1000
0010
,
0100
0000
0001
0100
,
0010
1000
0001
0010
,
0100
0100
1000
0001
,
1000
0010
0100
0000
,
0010
1000
0001
0010
,
0001
0100
1000
0000
,
1000
0100
0001
0010
,
0001
1000
0010
0000
,
0100
0001
0100
1000
,
0100
0010
0010
0010
,
1000
0100
1000
0010
,
0100
0001
0010
0001
,
1000
0010
0001
0010
,
1000
0100
0001
0100
,
1000
1000
0001
0001
,
0100
0100
0010
0010
,
0110
0000
1001
0000
,
0001
0010
0100
1000
,
1001
0000
0000
0000
;

//---------------dance-single - ----------------
#NOTES:
     dance-single:
     :
     Medium:
     10:
     0.429661,0.497863,0.114325,0.079148,0.000000,342.000000,329.000000,13.000000,9.000000,0.000000,0.000000,0.429661,0.497863,0.114325,0.079148,0.000000,342.000000,329.000000,13.000000,9.000000,0.000000,0.000000:
0000
0000
0000
0000
,
0000
0000
0000
0000
,
0000
0000
0000
0000
,
0000
0000
0000
0000
,
0000
0000
0000
0000
,
1000
0000
0000
0000
0000
1000
0000
0000
,
0001
0000
0000
0000
0000
0001
0000
0000
,
0100
0000
0000
0000
0000
0100
0000
0000
,
0010
0000
0000
0000
0000
0010
0000
0000
,
0100
0000
0001
0010
0000
0010
0001
0000
,
1000
0000
0010
0100
0000
0100
0010
0000
,
1000
0000
0001
0010
0000
0010
0001
0000
,
0100
0000
0010
1000
0000
1000
0010
0000
,
1000
0000
0001
0010
0000
0100
1000
0000
,
0010
0000
0100
0001
0000
1000
0010
0000
,
0100
0000
0001
1000
0000
0100
0010
0000
,
0001
1000
0100
0010
0200
0000
1300
0000
,
0002
0000
0010
0000
0000
0013
0000
0000
,
2000
0000
0100
0000
0000
3100
0000
0000
,
0010
0000
0001
0000
0010
0001
0000
0000
,
1000
0000
0100
0000
1000
0100
0000
0100
,
1000
0000
0001
0010
0000
0100
1000
0000
,
0001
0000
1000
0100
0000
0010
0100
0000
,
1000
0000
0010
0100
0000
0001
0010
0000
,
0001
0000
1001
0000
1000
0001
1000
0000
,
0010
0000
0110
0000
0100
0001
0000
0001
,
1000
0000
0100
1000
0000
1000
0010
0000
,
0100
0000
0001
0010
0000
0010
0100
0000
,
1000
0000
1001
0000
0001
0010
0100
0000
,
1000
0000
0010
0100
0000
0100
0010
0000
,
1000
0000
0001
0010
0000
0010
0001
0000
,
0100
0000
0110
0000
0010
1000
0100
0000
,
1000
0001
1000
0010
0200
0000
0310
0000
,
1010
0000
1000
0000
0001
0010
0000
0010
,
0001
0000
0100
0000
0010
1000
0010
0000
,
1000
0000
1001
0000
0001
0100
0001
0000
,
1000
0100
1000
0000
0010
0000
0010
0000
,
0100
0000
0010
1000
0000
1000
0010
0000
,
0100
0000
0001
0010
0000
0010
0001
0000
,
0001
0000
0100
0000
0100
0010
0000
0010
,
1000
1000
1000
1000
,
1001
0000
0000
0001
0000
0000
0001
0000
,
0100
0000
0000
0100
0000
0000
0100
0000
,
0010
0000
0000
0010
0000
0000
0010
0000
,
1000
0000
0000
1000
0000
0000
1000
0000
,
0001
0000
0000
0010
0000
0000
0001
0000
,
1000
0000
0000
0100
0000
0000
1000
0000
,
0010
0000
0000
0100
0000
0000
0010
0000
,
0220
0000
0000
0000
0000
0330
0000
0000
,
1001
0000
0001
0000
0010
0100
0000
0100
,
0010
0000
0001
1000
0000
0100
0000
0010
,
0001
1000
0010
0100
,
0010
0000
1000
0001
0000
0010
0000
0100
,
1000
0000
0001
0000
0100
0010
0100
0000
,
0001
0000
1000
0010
0000
0100
0000
0001
,
0000
0100
0010
0000
0100
0000
0010
0000
,
2002
0000
0000
0000
0000
3003
0000
0000
,
0010
0000
0100
0000
0010
0100
0000
0000
,
0001
0000
1000
0000
0001
1000
0000
0000
,
0100
0000
1000
0000
0100
1000
0000
0000
,
0001
0000
0010
0000
0001
0010
0000
0000
,
0001
0000
1000
0000
0010
0100
0000
0000
,
0010
0000
1000
0000
0100
1000
0000
0000
,
0001
0000
0010
0000
0001
1000
0000
0000
,
0010
0000
0100
0000
0010
1000
0100
0000
,
1001
0000
0001
0000
0100
0010
0000
0010
,
1000
0000
0100
0000
0010
0001
0010
0000
,
0001
0000
1000
0000
0100
0010
0100
0000
,
1000
0001
0100
0010
,
0100
0000
0001
1000
0000
1000
0001
0000
,
0100
0000
0010
1000
0000
1000
0010
0000
,
0100
0000
0001
0000
0010
0001
0000
1000
,
0200
0010
0000
0310
,
1000
0000
0001
0000
0010
0100
1000
0000
,
0001
0000
0100
0000
0010
1000
0100
0000
,
1000
0000
0010
0000
0100
0001
1000
0000
,
0010
0000
0100
0000
0001
0010
0100
0000
,
1000
0000
0001
0000
1000
0100
1000
0000
,
0010
0000
0100
0000
0001
0010
0001
0000
,
1001
0000
0110
0000
,
1000
0010
0100
0000
0001
1000
0100
0010
;

//---------------dance-single - ----------------
#NOTES:
     dance-single:
     :
     Hard:
     12:
     0.636953,0.604548,0.334181,0.070354,0.000000,507.000000,469.000000,38.000000,8.000000,0.000000,0.000000,0.636953,0.604548,0.334181,0.070354,0.000000,507.000000,469.000000,38.000000,8.000000,0.000000,0.000000:
0000
0000
0000
0000
,
0000
0000
0000
0000
,
0000
0000
0000
0000
,
0000
0000
0000
0000
,
0000
0000
0000
0000
,
1001
0000
0001
0000
0000
0110
0000
0100
,
0010
0000
1010
0000
0000
1100
0000
1000
,
0001
0000
0011
0000
0000
0110
0000
0010
,
0001
1000
0100
0010
0001
0100
0010
0000
,
1000
0000
0010
1000
0000
0010
1000
0100
,
1000
0000
0001
0010
0000
0001
0100
0010
,
0100
0000
0001
0010
0000
0001
1000
0100
,
0010
0000
0100
1000
0000
0001
0100
0010
,
1000
0000
0010
0100
0000
0001
0010
0100
,
1000
0000
0010
0100
0001
1000
0100
0010
,
0001
0100
0001
0100
0010
1000
0100
0010
,
0001
1000
0010
0001
0010
1000
0001
0000
,
0010
0000
0011
0000
0001
1000
0001
0000
,
1000
0000
1100
0000
1000
0010
1000
0000
,
0010
0000
0110
0000
0100
0001
0100
0000
,
0001
0000
1001
0000
1000
0010
1000
0000
,
0010
0000
0110
0000
0100
0001
0100
0000
,
0001
0000
0011
0000
0010
0100
0010
0000
,
0001
0000
1001
0000
1000
0010
0100
0000
,
0001
0010
1000
0010
0001
0100
0010
0000
,
1010
0000
1010
0000
0001
0100
0010
0100
,
0001
1000
0100
1000
0100
0010
0100
0000
,
0110
0000
0110
0000
1000
0001
0010
0001
,
0100
0010
1000
0100
0001
0100
1000
0000
,
1001
0000
0100
0010
0001
0010
0100
0000
,
1100
0000
1000
0010
0001
0010
0100
0000
,
0001
0010
0001
0010
0100
1000
0100
1000
,
0001
0100
0010
1000
0100
0010
0001
0000
,
0101
0000
1010
0000
1000
0010
0000
0100
,
0001
0010
1000
0010
0001
0100
0010
0000
,
1010
0000
0101
0000
0010
0100
0001
0010
,
0001
1000
0100
0001
0100
1000
0010
0000
,
0100
0010
1000
0010
0100
0001
0010
0000
,
0001
1000
0100
0010
0001
0100
0010
0000
,
1000
0000
1010
0000
0001
0100
0000
0100
,
0010
1000
0001
0010
0100
1000
0100
0000
,
0020
0000
0031
0100
0010
2000
0000
3010
,
0100
0010
0000
0010
1000
0001
1000
0000
,
0110
0000
0100
0001
0000
0001
0100
0010
,
1000
0100
0010
0100
1000
0001
0100
0000
,
0010
1000
0001
1000
0000
1001
0000
0010
,
0100
0001
0010
0001
1000
0100
0010
0000
,
0001
0100
0010
1000
0100
0010
0001
0000
,
0200
0000
0010
0310
0000
0010
1000
0000
,
1100
0000
0010
0100
0000
0110
0000
0001
,
1000
0010
0100
0010
0000
0110
0000
1000
,
0001
0100
0010
0100
0001
0010
0100
1000
,
0010
0100
0001
0010
0000
1010
0000
0001
,
0100
0000
0110
0000
0010
1000
0100
0000
,
1000
0001
0100
0010
0100
0001
0010
0000
,
0001
0010
0001
0010
0100
0100
0100
0000
,
2000
0000
0010
0000
0000
3001
0000
0000
,
0210
0000
0001
0000
0000
0301
0000
0001
,
0002
0000
1000
0000
0000
1003
0000
1000
,
2000
0000
0010
0000
0000
3100
0000
0010
,
0002
0000
0010
0000
0000
1003
0000
0010
,
0100
0000
0010
1000
0000
0001
0100
0001
,
1000
0000
0010
0100
0001
0010
0100
0000
,
1000
0010
1000
0010
0100
0001
0100
0001
,
1000
0001
0100
0010
1000
0100
0010
0001
,
1000
0000
0110
0000
0001
1000
0000
0010
,
0100
0001
0100
0010
1000
0100
0010
0000
,
0011
0000
1100
0000
1000
0010
0001
0010
,
0100
1000
0100
0010
0100
0001
0010
0000
,
1001
0000
0110
0000
0010
1000
0010
0100
,
0001
0100
0010
0100
0001
1000
0100
0000
,
0010
0000
0011
0000
0001
1000
0000
0010
,
0100
0010
1000
0100
0001
0100
1000
0000
,
0001
0010
0001
0100
0010
1000
0100
1000
,
0010
0100
0001
0100
0010
1000
0001
0100
,
0010
0001
0010
0100
1000
0100
0010
0100
,
0001
1000
0010
0001
1000
0100
0001
1000
,
0010
0100
0010
0100
0001
1000
0001
1000
,
0001
0010
0001
0010
0100
1000
0100
1000
,
0010
0001
0000
0100
1000
0000
0001
0010
,
0000
1000
0100
0010
0100
1000
0010
0001
;

//---------------dance-single - ----------------
#NOTES:
     dance-single:
     :
     Challenge:
     15:
     0.814094,0.853480,0.378152,0.096736,0.338578,648.000000,605.000000,43.000000,11.000000,0.000000,0.000000,0.814094,0.853480,0.378152,0.096736,0.338578,648.000000,605.000000,43.000000,11.000000,0.000000,0.000000:
// measure 0
0000
0000
0000
0000
,  // measure 1
0000
0000
0000
0000
,  // measure 2
0000
0000
0000
0000
,  // measure 3
0000
0000
0000
0000
,  // measure 4
0000
0000
0000
0000
,  // measure 5
0012
0000
1000
1000
0000
0100
0003
0100
,  // measure 6
0120
0000
1000
1000
0000
0100
0030
1000
,  // measure 7
2001
0000
0010
0010
0000
0001
3000
0001
,  // measure 8
0100
0000
0010
0000
1000
0000
0001
0000
0010
0001
0010
0000
0100
1000
0100
0000
,  // measure 9
1000
0010
0001
0010
0000
0100
0001
0100
,  // measure 10
0010
1000
0010
0001
0000
0010
1000
0001
,  // measure 11
0010
0100
1000
0001
0000
0010
1000
0001
,  // measure 12
0100
0000
1000
0000
0001
0000
0100
0000
0010
0100
0010
0000
1000
0000
0001
0000
,  // measure 13
0010
0000
0001
0000
1000
0010
0000
0010
0100
0000
0001
0000
0010
0000
0100
0000
,  // measure 14
1000
0000
0001
0000
0010
0100
0000
0100
0010
0000
0001
0000
1000
0000
0010
0000
,  // measure 15
0100
0000
0001
0000
1000
0100
1000
0000
0001
0000
0010
0000
0001
0100
0001
0000
,  // measure 16
1000
0100
0010
0000
0001
0100
0010
0000
0100
0000
0001
0000
1000
0000
0001
0000
,  // measure 17
1010
0000
1010
0000
0100
0001
0010
0001
,  // measure 18
0101
0000
0101
0000
0010
1000
0100
0010
,  // measure 19
0110
0000
0110
0000
1000
0001
1000
0010
,  // measure 20
0110
0000
0110
0000
0100
0001
0010
0001
,  // measure 21
1000
0000
0010
0000
0100
0001
0000
0001
1000
0000
0100
0000
0001
0000
0100
0000
,  // measure 22
1000
0000
0010
0000
0100
0010
0000
0010
1000
0000
0010
0000
0001
0000
0010
0000
,  // measure 23
1000
0000
0001
0000
0010
0100
0000
0100
0010
0000
0001
0000
1000
0000
0001
0000
,  // measure 24
0100
0000
0010
0000
1000
0010
1000
0000
0001
0000
0100
0000
0001
0010
0001
0000
,  // measure 25
1000
0000
0100
0000
1100
0000
0000
0000
0001
0000
0010
0000
0001
0100
0001
0000
,  // measure 26
1000
0000
0010
0000
0100
0010
0100
0000
0001
0000
0010
0000
0100
0000
1000
0000
,  // measure 27
0001
0000
0100
0000
0101
0000
0000
0000
0010
0000
0100
0000
0001
1000
0001
0000
,  // measure 28
1000
0100
0010
0000
0100
0000
1000
0000
0001
0000
0100
0000
0010
0100
0010
0000
,  // measure 29
1000
0000
0001
0100
0000
0100
0001
0000
1000
0000
0010
0000
0100
0010
0100
0000
,  // measure 30
0001
0000
0010
0100
0000
0100
1000
0000
0100
0000
0010
0000
0100
1000
0100
0000
,  // measure 31
1000
0000
0001
0000
0010
0001
0010
0000
0001
0000
0100
0000
0010
1000
0010
0000
,  // measure 32
0100
0000
0100
0000
0100
0000
0100
0000
0010
1000
0001
0100
0010
1000
0001
0100
,  // measure 33
0001
0000
0010
0000
0011
0000
0000
0000
1000
0000
0010
0000
0100
0010
0100
0000
,  // measure 34
0001
0000
1000
0000
0100
0000
0010
0000
0100
1000
0001
0000
0100
0000
0010
0000
,  // measure 35
1000
0000
0010
0000
1010
0000
0000
0000
0001
0000
0010
0000
0001
0100
0010
0000
,  // measure 36
1000
0000
0010
0000
0100
0010
0100
0000
0001
0000
0010
0000
0001
0000
1000
0000
,  // measure 37
0001
0000
0100
0010
0000
0010
0100
0000
0001
0000
1000
0000
0100
0000
0010
0000
,  // measure 38
0100
0000
1000
0010
0000
0010
1000
0000
0001
0000
0100
0000
0010
0000
0100
0000
,  // measure 39
0110
0000
0110
0000
1000
0001
0000
1001
,  // measure 40
0001
0000
0010
0000
0100
0000
1000
0000
0010
0100
0010
0000
1000
0001
1000
0000
,  // measure 41
0010
0100
1000
0200
0000
0301
0010
0001
,  // measure 42
1000
0010
0001
1000
0100
0001
1001
0000
,  // measure 43
0010
0001
0100
2000
0000
3100
0001
0010
,  // measure 44
0001
1000
0100
0001
0100
1000
0010
0000
,  // measure 45
1000
0100
0001
0020
0000
0031
0100
1000
,  // measure 46
0010
0110
0000
1001
0000
0100
0010
1000
,  // measure 47
0001
0010
0001
0100
0010
1000
0001
0010
,  // measure 48
0100
1000
0001
1001
0000
0100
0010
0010
,  // measure 49
1010
0000
0100
0101
0000
0011
0000
1010
,  // measure 50
1000
0001
0010
0101
0000
1100
0000
0101
,  // measure 51
0010
1000
0100
1000
0001
0010
0100
0010
,  // measure 52
0001
0010
1000
1100
0000
0011
0000
1100
,  // measure 53
0100
0000
0010
0000
0100
0000
1000
0000
0001
0100
0010
0000
0100
0000
0001
0000
,  // measure 54
1000
0010
0100
1010
1000
0011
0001
1010
,  // measure 55
0000
0100
0100
0100
0100
0100
0100
0100
,  // measure 56
0200
0000
0001
0000
0010
0010
0310
0000
,  // measure 57
0001
1000
0001
0000
0010
0010
0000
0010
,  // measure 58
0001
0100
2000
0000
0100
3100
0000
0010
,  // measure 59
0100
0001
2000
0000
0100
3100
0000
0010
,  // measure 60
0001
0000
0010
0000
0100
0000
1000
0000
0100
0010
0100
0000
1000
0000
0001
0000
,  // measure 61
0200
0000
0010
0010
0000
0001
0300
1000
,  // measure 62
0200
0000
0001
0001
0001
0000
1300
0000
,  // measure 63
0010
1000
0010
0100
0001
0010
1000
0010
,  // measure 64
0100
0000
1000
0000
0001
0000
0100
0000
0010
0100
0010
0100
0001
0000
0010
0000
,  // measure 65
0011
0000
0000
0000
1100
0000
0000
0000
1000
0000
0010
0100
0010
0000
0010
0000
,  // measure 66
1000
0000
0100
0000
0010
0000
0100
0000
1000
0001
1000
0000
0001
0000
0010
0000
,  // measure 67
0110
0000
0000
0000
1001
0000
0000
0000
0100
0000
0010
1000
0001
0000
0010
0000
,  // measure 68
0100
0000
1000
0000
0010
0000
0100
0000
0001
0010
0100
0000
1000
0000
0001
0000
,  // measure 69
0100
0000
0010
0100
0000
0100
0010
0000
1000
0000
0001
0000
0010
0000
0001
0000
,  // measure 70
1000
0000
0100
0010
0000
0010
0100
0000
1000
0000
0010
0000
0001
0000
0010
0000
,  // measure 71
0100
0001
0101
0000
0010
1010
0000
1100
,  // measure 72
1000
0000
0100
0000
0010
0000
0001
0000
1000
0010
0100
0001
1000
0010
0100
0001
,  // measure 73
0100
0000
0010
0000
1000
0001
0000
0001
0010
0000
0001
0000
0100
0000
0010
0000
,  // measure 74
1000
0000
0100
0000
0010
0100
0000
0100
0010
0000
0001
0000
0010
0100
0010
0000
,  // measure 75
1000
0000
0001
0000
0010
0000
0001
0100
0000
0010
1000
0000
0010
0000
0100
0000
,  // measure 76
0010
0000
1000
0000
0010
0000
0100
0001
1000
0000
1000
0000
0001
0000
0001
0000
,  // measure 77
0010
0000
0100
0000
0001
0000
0100
1000
0000
1000
0001
0000
0010
0000
0100
0000
,  // measure 78
1000
0000
0010
0000
0100
0000
0001
0100
0000
0100
0010
0000
1000
0000
0001
0000
,  // measure 79
0010
0000
0001
0100
0010
0000
1000
0000
0100
1000
0010
0000
0100
0000
0001
0000
,  // measure 80
1000
0000
0010
0000
0001
0010
0001
0000
0010
0000
0100
0000
0001
0000
1001
0000
;
