#TITLE:pure;
#SUBTITLE:;
#ARTIST:Des-ROW+1;
#TITLETRANSLIT:;
#SUBTITLETRANSLIT:;
#ARTISTTRANSLIT:;
#GENRE:MELO PUNK;
#CREDIT:;
#BANNER:pure_banner.png;
#BACKGROUND:pure.png;
#LYRICSPATH:;
#CDTITLE:;
#MUSIC:pure.ogg;
#OFFSET:0.920000;
#SAMPLESTART:0.400000;
#SAMPLELENGTH:12.000000;
#SELECTABLE:YES;
#BPMS:0.000000=158.000000
,68.000000=168.000000
,228.000000=148.000000
;
#STOPS:
;
#BGCHANGES:;
#KEYSOUNDS:;
#ATTACKS:;

//---------------dance-single - ----------------
#NOTES:
     dance-single:
     :
     Easy:
     5:
     0.182713,0.257285,0.079317,0.099146,0.000000,129.000000,121.000000,8.000000,10.000000,0.000000,0.000000,0.182713,0.257285,0.079317,0.099146,0.000000,129.000000,121.000000,8.000000,10.000000,0.000000,0.000000:
// measure 0
0000
0000
0000
0000
,  // measure 1
0000
0000
0000
0000
,  // measure 2
0000
0000
0000
0000
,  // measure 3
0000
0000
0000
0000
,  // measure 4
0000
0000
0000
0000
,  // measure 5
0001
0000
0010
0000
,  // measure 6
0001
0000
0000
0000
,  // measure 7
1000
0000
0100
0000
,  // measure 8
1000
0000
0000
0000
,  // measure 9
0010
0000
0100
0000
,  // measure 10
0001
0000
1000
0000
,  // measure 11
0001
0000
0010
0000
,  // measure 12
0100
0000
0000
0000
,  // measure 13
1000
0000
0010
0000
,  // measure 14
0100
0000
0001
0000
,  // measure 15
0010
0000
0100
0000
,  // measure 16
2002
0000
3003
0000
,  // measure 17
0010
0000
0100
0010
,  // measure 18
0100
0000
0001
0000
,  // measure 19
1000
0000
0100
0010
,  // measure 20
0100
0000
1000
0000
,  // measure 21
1001
0000
0010
0100
,  // measure 22
0010
0000
1000
0000
,  // measure 23
0001
0000
0010
0001
,  // measure 24
0010
0000
0100
0000
,  // measure 25
1000
0000
0010
0000
,  // measure 26
0100
0000
0001
0000
,  // measure 27
0010
0000
0100
0000
,  // measure 28
2000
0000
0000
3000
0000
0000
0000
0000
,  // measure 29
0010
0000
0100
0000
,  // measure 30
0001
0000
0010
0000
,  // measure 31
0001
0000
1000
0000
,  // measure 32
0220
0000
0000
0330
0000
0000
0000
0000
,  // measure 33
0001
0000
0010
0000
,  // measure 34
0100
0000
1000
0000
,  // measure 35
0010
0000
0100
0000
,  // measure 36
0001
0000
1000
0000
,  // measure 37
0100
0000
1000
0000
,  // measure 38
0010
0000
0100
0000
,  // measure 39
0001
0000
0010
0000
,  // measure 40
2002
0000
0000
3003
0000
0000
0000
0000
,  // measure 41
0100
0000
0010
0100
,  // measure 42
0010
0000
0100
0000
,  // measure 43
0010
0000
0100
0010
,  // measure 44
0200
0000
0000
0300
0000
0000
0000
0000
,  // measure 45
0001
0000
1000
0001
,  // measure 46
1000
0000
0001
0000
,  // measure 47
1000
0100
1000
0000
,  // measure 48
0001
0100
0001
0000
,  // measure 49
0110
0000
1000
0000
,  // measure 50
0100
1000
0100
0000
,  // measure 51
0010
0000
0001
1000
,  // measure 52
0001
0000
1001
0000
,  // measure 53
0100
0000
0010
0100
,  // measure 54
0001
0000
0010
0000
,  // measure 55
0001
0000
1000
0010
,  // measure 56
0100
0000
0110
0000
,  // measure 57
1000
0000
0000
0000
,  // measure 58
0001
0000
0000
0000
,  // measure 59
0010
0000
0100
0000
,  // measure 60
0010
0000
0000
0000
,  // measure 61
1000
0000
0001
0000
,  // measure 62
0100
0000
0010
0000
,  // measure 63
1000
0000
0000
0000
,  // measure 64
0001
0000
0000
0000
0220
0000
0000
0330
;

//---------------dance-single - ----------------
#NOTES:
     dance-single:
     :
     Medium:
     10:
     0.396585,0.425338,0.138805,0.178463,0.000000,280.000000,266.000000,14.000000,18.000000,0.000000,0.000000,0.396585,0.425338,0.138805,0.178463,0.000000,280.000000,266.000000,14.000000,18.000000,0.000000,0.000000:
// measure 0
0000
0000
0000
0000
,  // measure 1
0000
0000
0000
0000
,  // measure 2
0000
0000
0000
0000
,  // measure 3
0000
0000
0000
0000
,  // measure 4
0000
0000
0000
0000
,  // measure 5
0010
0000
0100
0010
1000
0000
0000
0000
,  // measure 6
0001
0000
2002
0000
0000
3003
0000
0000
,  // measure 7
0100
0000
0001
0010
0100
0000
0000
0000
,  // measure 8
0010
0001
0100
0010
,  // measure 9
1000
0000
0100
0000
1000
0010
0000
0010
,  // measure 10
0100
0001
0010
0001
,  // measure 11
0200
0000
0310
1000
,  // measure 12
0001
0000
2002
0000
0000
3003
0000
0000
,  // measure 13
0100
0000
0010
0100
0001
0000
0000
0000
,  // measure 14
1000
0000
0100
0010
0001
0000
0000
0000
,  // measure 15
0100
0000
0010
1000
0010
0000
0100
0000
,  // measure 16
0001
0010
0100
0000
2002
0000
3003
0000
,  // measure 17
0110
0000
1000
0010
0000
1000
0000
0001
,  // measure 18
0100
0000
0010
0100
0000
0001
0010
0000
,  // measure 19
0001
0000
1000
0100
0000
1000
0000
0010
,  // measure 20
0100
0000
0001
0010
0001
0000
1000
0000
,  // measure 21
0010
0000
1000
0001
0000
0010
0000
0100
,  // measure 22
1000
0000
0010
0100
0000
0001
0010
0000
,  // measure 23
0001
0000
1000
0010
1000
0000
0001
0000
,  // measure 24
1000
0100
0010
0000
0022
0000
0033
0000
,  // measure 25
1100
0000
0010
0000
0100
0010
0000
0010
,  // measure 26
0100
0000
0001
0010
0000
0000
0001
0000
,  // measure 27
1000
0000
0010
1000
0010
0000
0100
0000
,  // measure 28
0001
0010
0100
0000
1000
0000
0000
0000
,  // measure 29
1010
0000
0100
0010
0000
0010
1000
0000
,  // measure 30
0100
0000
0010
0001
0000
0001
1000
0000
,  // measure 31
0010
0000
0100
0001
1000
0000
0100
0000
,  // measure 32
0010
0001
1000
0000
2002
0000
3003
0000
,  // measure 33
0010
0000
0100
0001
0000
0010
0001
0000
,  // measure 34
1000
0000
0010
1000
0000
0100
1000
0000
,  // measure 35
0010
0000
1000
0100
0000
0010
0001
0000
,  // measure 36
0100
0000
0001
0010
0000
0100
1000
0000
,  // measure 37
0010
0000
0100
0010
0100
0010
0100
0000
,  // measure 38
0001
0000
1000
0100
1000
0100
1000
0000
,  // measure 39
0010
0000
0100
0001
0100
0000
0010
0000
,  // measure 40
1000
0100
1000
0000
2002
0000
3003
0000
,  // measure 41
0100
0000
0001
0010
0100
0000
0010
0000
,  // measure 42
0001
0000
1000
0010
0100
0000
0010
0000
,  // measure 43
1000
0000
0100
1000
0001
0000
0100
0000
,  // measure 44
0001
1000
0100
0000
2020
0000
3030
0000
,  // measure 45
0100
0000
0001
0010
0000
0010
0001
0000
,  // measure 46
1000
0000
0010
0100
0000
0100
0010
0000
,  // measure 47
1000
0100
0010
0000
0100
0010
0001
0000
,  // measure 48
0100
0001
0010
0100
2000
0000
3010
0000
,  // measure 49
0100
0000
0001
0010
0000
0100
0000
1000
,  // measure 50
0000
0010
0000
1000
0000
0001
0100
0000
,  // measure 51
0001
0000
0010
0001
0000
0100
0000
0010
,  // measure 52
0000
1000
0000
0010
0000
0100
0001
0000
,  // measure 53
1000
0000
0100
1000
0000
0010
0000
0100
,  // measure 54
0000
0001
0000
0010
0000
0001
1000
0000
,  // measure 55
0001
0100
0001
0000
1000
0010
1000
0000
,  // measure 56
0001
1000
0100
0010
0001
0000
0000
0000
,  // measure 57
1001
0000
0010
0000
,  // measure 58
0100
0010
1000
0000
,  // measure 59
0011
0000
0100
0000
,  // measure 60
0001
1000
1000
0000
,  // measure 61
1010
0100
0001
0000
,  // measure 62
0011
0100
1000
0000
,  // measure 63
0010
0100
0001
1000
,  // measure 64
0100
0000
0010
0000
0001
0000
2000
0002
,  // measure 65
0000
0000
0000
0000
,  // measure 66
3003
0000
0000
0000
;

//---------------dance-single - ----------------
#NOTES:
     dance-single:
     :
     Hard:
     13:
     0.691192,0.725256,0.287524,0.158634,0.183421,488.000000,459.000000,29.000000,16.000000,0.000000,0.000000,0.691192,0.725256,0.287524,0.158634,0.183421,488.000000,459.000000,29.000000,16.000000,0.000000,0.000000:
0000
0000
0000
0000
,
0000
0000
0000
0000
,
0000
0000
0000
0000
,
0000
0000
0000
0000
,
0000
0000
0000
0000
0000
0000
0000
0001
,
0100
1000
0100
0001
1000
0010
0100
0001
,
0000
2100
0000
3010
0100
0000
0001
1000
,
0100
0001
0100
1000
0010
0100
0001
1000
,
0000
0012
0000
1003
0010
0100
0001
0000
,
0011
0000
0100
1000
0010
2000
0000
3100
,
0010
0100
1000
0000
0010
0100
0001
0000
,
1000
1010
0000
0010
0100
0010
1000
0001
,
0010
0001
0100
0010
1000
0000
0001
1000
,
0010
0100
0010
1000
0200
0000
0000
0310
,
0001
1000
0010
0100
0001
1000
0000
1000
,
0010
0100
0010
0100
0001
0010
0100
1000
,
0100
0000
0010
0000
0100
0000
0010
0000
0001
1000
0001
1000
0001
0000
0000
0000
,
0110
0000
1000
0010
0100
0001
0001
0001
,
1000
0010
0100
0010
1000
0100
0100
0100
,
0010
0001
1000
0010
0100
0010
0010
0010
,
1000
0000
0100
0000
1000
0001
0000
0001
0100
0000
0010
0000
0100
0000
0001
0000
,
0011
0000
0001
1000
0100
0010
0010
0010
,
0100
0000
1000
0000
0010
0000
0100
0000
0001
0000
0010
0000
0001
0000
1000
0100
,
1000
0010
0100
0001
1000
0100
0100
0100
,
0010
0000
0100
0000
1000
0000
0010
0100
0010
0100
0010
0000
1000
0000
0000
0000
,
1001
0000
0010
0100
0001
0010
0100
0010
,
0001
0000
1000
0000
0010
0000
0100
0000
0010
0000
1000
0000
0001
0000
0100
0010
,
1000
0000
0100
0000
0010
0000
0001
0000
0100
0000
0010
0000
1000
0000
0001
0100
,
0010
0100
0001
0010
0000
0010
0110
0000
,
1100
0000
0000
0000
1000
0000
0001
0000
0010
0001
0000
0001
1000
0000
0010
0000
,
0100
0000
0001
0000
0010
0000
0100
0000
1000
0000
0010
0000
0100
0000
0010
1000
,
0001
0100
0010
0100
0001
1000
0100
1000
,
0010
0000
0100
0000
0001
1000
0001
1000
0001
0000
0100
0000
0110
0000
0000
0000
,
1000
0100
0001
0200
0000
1300
0001
0100
,
1000
0000
0100
0000
0001
0000
0010
0100
0000
0100
0010
0000
0001
0000
1000
0000
,
0010
0000
0001
0000
0010
0000
2000
0000
0000
0000
3010
0000
0001
0000
0010
0100
,
0001
0000
0010
0000
0100
0000
1000
0100
1000
0000
0001
0000
0100
0000
0000
0000
,
0001
0000
0010
0000
1000
0000
0010
0000
0100
0000
1000
0000
0010
0000
0100
0010
,
1000
0001
1000
0100
0010
0001
0100
0010
,
0100
0000
0001
0000
0010
0000
0100
1000
0001
0000
0100
0000
0010
0000
1000
0001
,
0100
0000
0001
0000
0010
0000
0100
0000
1000
0010
1000
0000
0001
0000
0000
0000
,
1100
0000
0000
0000
0010
0000
1000
0000
0100
0000
1000
0000
0010
0000
1000
0100
,
0010
0100
1000
0010
0100
0001
0101
0000
,
0011
0000
0000
0000
0001
0000
0100
0000
0010
0000
0100
0000
0001
0000
0010
0001
,
0100
0000
0010
0000
0100
0001
0100
0001
0100
0000
0010
0000
0110
0000
0000
0000
,
1000
0100
0010
0012
0000
1000
1003
0000
,
0001
0100
0010
1020
0000
0100
0130
0001
,
1000
0000
0100
0000
1000
0000
0010
0000
0100
0000
0001
0000
0010
0000
0001
1000
,
0100
0000
1000
0000
0001
0000
0010
0000
0100
0000
1000
0010
0100
0010
0100
0010
,
0100
0001
0100
0010
1010
0000
1000
1100
,
0000
0000
0001
0000
0011
0000
1000
0000
0100
0000
1000
0000
0001
0000
0100
0010
,
0100
0001
0010
0100
1100
0000
0010
0110
,
0000
0000
1000
0000
1100
0000
0001
0000
1000
0000
0010
0100
0001
0000
0010
0100
,
1000
0001
0010
0100
1100
0000
1000
1010
,
0000
0000
0001
0000
0011
0000
1000
0000
0001
0000
1000
0010
0100
0000
0001
0010
,
0100
0000
0010
0000
0001
0000
0100
0000
0010
0000
1000
0000
0100
0000
1000
0010
,
0100
0000
0001
0000
0010
0000
0100
0000
1000
0001
1000
0000
1001
0000
0000
0000
,
0220
0030
0302
0013
,
1200
0001
1000
0310
,
1010
0000
0100
0010
0100
0001
0010
0100
,
0020
0100
0000
0001
0001
0000
0130
0000
,
1000
0100
0001
0100
1000
0001
0100
0010
,
0100
1000
0100
0001
0020
0000
0130
1000
,
0001
0100
0010
1000
0001
0010
0100
1000
,
0010
0100
1000
0001
0010
1000
0200
0002
,
0000
0000
0000
0000
,
0000
0000
0303
0000
;
