#TITLE:polygon;
#SUBTITLE:;
#ARTIST:Sota Fujimori;
#TITLETRANSLIT:;
#SUBTITLETRANSLIT:;
#ARTISTTRANSLIT:;
#GENRE:;
#CREDIT:;
#BANNER:Polygon_banner.png;
#BACKGROUND:Polygon.png;
#LYRICSPATH:;
#CDTITLE:;
#MUSIC:polygon.ogg;
#OFFSET:-0.470000;
#SAMPLESTART:80.470001;
#SAMPLELENGTH:15.000000;
#SELECTABLE:YES;
#BPMS:0.000000=174.000000
;
#STOPS:198.000000=0.086000,
198.250000=0.086000,
198.500000=0.172000
;
#BGCHANGES:;
#KEYSOUNDS:;
#ATTACKS:;

//---------------dance-single - ----------------
#NOTES:
     dance-single:
     :
     Easy:
     7:
     0.341952,0.350870,0.120544,0.051662,0.021526,278.000000,264.000000,14.000000,6.000000,0.000000,0.000000,0.341952,0.350870,0.120544,0.051662,0.021526,278.000000,264.000000,14.000000,6.000000,0.000000,0.000000:
0000
0000
0000
0000
,
0000
0000
0000
0000
,
1000
0010
0100
0001
,
0010
0001
1000
0000
,
0001
0010
0100
1000
,
0010
0100
0001
0000
,
1000
0100
1000
0001
,
0010
0001
1000
1001
,
0010
0100
0001
1000
,
0100
0000
0000
0100
0000
0000
0100
0000
0000
0000
0000
0000
0000
0000
0000
0000
,
0001
0100
0010
0000
,
1000
0010
0100
0000
,
1000
0100
0010
0000
,
0100
0010
0001
0000
,
0010
1000
0001
1000
,
0100
0010
0001
0000
,
0110
0000
1001
0000
,
0010
0100
0001
1000
,
0100
1000
0100
0001
,
0100
1000
0100
0000
,
1000
0010
0001
0010
,
1000
0010
0001
0000
,
0010
0100
0001
1000
,
0010
0100
0001
0000
,
1000
0100
0010
0100
,
2000
0000
0000
3001
0000
0000
0000
0000
,
0010
0100
0001
1000
,
0100
1000
0001
0000
,
0100
0010
1000
0001
,
0100
0001
0010
0000
,
0001
0100
0010
1000
,
0100
0010
0001
0000
,
0100
0001
1000
0100
,
0010
0000
0000
0010
0000
0000
0010
0000
0000
0000
0000
0000
1001
0000
0000
0000
,
0100
0010
0001
0000
,
1000
0100
0010
0000
,
0001
0010
0100
0000
,
0010
0100
1000
0000
,
1000
0001
0100
0000
,
0010
1000
0001
0000
,
1000
0001
0010
0100
,
1000
0000
0000
0001
0000
0000
1000
0000
0000
0000
0000
0000
0010
0000
0000
0000
,
0010
0100
0001
0100
,
0010
0001
0010
0000
,
1000
0010
0100
1000
,
0100
0010
1000
0000
,
0100
0010
0001
1000
,
0100
0010
0001
0000
,
1000
0000
0000
0010
0000
0000
0000
0000
0001
0000
0000
0100
0000
0000
0000
0000
,
0002
0000
1003
0100
,
0000
0000
0000
1000
,
0000
0000
0000
0001
,
0000
0000
0000
0100
,
0000
0000
0000
0010
,
1000
0100
0000
0010
,
0001
0100
0000
0010
,
1000
0001
1000
0100
,
0010
0022
0033
1000
,
0100
0110
0000
0001
,
0100
0010
1000
0010
,
0100
1001
0000
1000
,
0010
0001
0010
0100
,
0001
1100
0000
0001
,
1000
0100
0010
1000
,
0010
0101
0000
0010
,
1000
0100
0100
1000
,
0001
1100
0000
0010
,
0100
0001
1000
0100
,
1000
0011
0000
0100
,
0010
1000
0001
0010
,
0001
1010
0000
0100
,
0001
1000
0100
0010
,
1000
1001
0000
0010
,
0001
2000
0000
3010
,
0100
0001
1000
0100
,
1000
0001
0000
0100
,
0010
1000
0100
0010
,
0100
1000
0000
0010
,
0100
0001
0100
0010
,
0001
0010
0000
1000
,
0100
1000
0001
0020
,
0000
0100
0130
0000
0011
0000
0000
0000
;

//---------------dance-single - ----------------
#NOTES:
     dance-single:
     :
     Medium:
     12:
     0.653153,0.633503,0.301360,0.060272,0.111934,531.000000,496.000000,35.000000,7.000000,0.000000,0.000000,0.653153,0.633503,0.301360,0.060272,0.111934,531.000000,496.000000,35.000000,7.000000,0.000000,0.000000:
0000
0000
0000
0000
,
0000
0000
0000
0000
,
0001
0000
0000
1000
0000
0000
1010
0000
0000
0100
0000
0000
0010
0000
1000
0000
,
0001
0000
0000
0010
0000
0000
0101
0000
0000
0000
0000
0000
0100
0000
0010
0000
,
1000
0000
0000
0001
0000
0000
1100
0000
0000
0001
0000
0000
0010
0000
0001
0000
,
0100
0000
0000
0001
0000
0000
0110
0000
0000
0000
1000
0000
0010
0000
1000
0000
,
0001
0000
0000
0010
0000
0000
0110
0000
0000
1000
0000
0000
0001
0000
0100
0000
,
0010
0000
0000
1000
0000
0000
1100
0000
0000
0000
0001
0000
0011
0000
0000
0000
,
1001
0000
0000
0010
0000
0000
0100
0000
0001
0000
0010
0000
0100
0000
1000
0000
,
0010
0000
0000
0110
0000
0000
1001
0000
0000
0000
1000
0000
0100
0000
0010
0000
,
0100
1000
0001
0000
0100
0010
0100
0001
,
0010
0100
1000
0001
0000
0000
0110
0000
,
0001
0010
0100
0000
0010
0100
1000
0010
,
0100
0001
0010
0100
0000
0100
0010
0000
,
0001
0100
1000
0000
1000
0100
0001
0010
,
0100
1000
0010
0200
0000
0010
0310
0000
,
1010
0000
0100
0000
0001
0010
0100
0000
,
1000
0010
0100
0001
0010
0100
0110
0000
,
1000
0100
1000
0010
0100
0010
1000
0000
,
0001
0010
0100
0010
0001
0100
0010
0000
,
0100
0001
0010
0100
1000
0001
1000
0000
,
0010
0100
0001
0010
0100
1000
0010
0000
,
0100
0001
0010
0001
0100
0010
1000
0000
,
1000
0010
0100
0010
1000
0001
0010
0000
,
0001
0100
0010
0100
0001
1000
0100
0010
,
0001
0000
0000
1001
0000
0000
2100
0000
0000
0000
0000
0000
3010
0000
0000
0000
,
0100
0000
0000
0001
0010
0000
0001
0000
1000
0000
0100
0000
1000
0000
0000
0000
,
0010
0000
0000
0100
0010
0000
1000
0000
0100
0000
0010
0000
0001
0000
0000
0000
,
1000
0000
0000
0010
1000
0000
0001
0000
0100
0000
0010
0000
1000
0000
0000
0000
,
0001
0000
0000
0010
0001
0000
0100
0000
0010
0000
1000
0000
0100
0000
0000
0000
,
1000
0000
0000
1000
0010
0000
0100
0000
0010
0000
1000
0000
0000
0000
1000
0000
,
0001
0000
0000
0001
0010
0000
0100
0000
0010
0000
0001
0000
1000
0000
0000
0000
,
0010
0000
0000
0100
0010
0000
0100
0000
0010
0000
0100
0000
0001
0000
0000
0000
,
1010
0000
0000
0101
0000
0000
2020
0000
0000
0000
0000
0000
3030
0000
0000
0000
,
0001
0100
0010
0000
0010
1000
0100
0000
,
1000
0010
0100
0000
0010
0100
0001
0000
,
0010
0001
1000
0000
0010
1000
0001
0000
,
0100
0001
1000
0000
0100
1000
0001
1000
,
0010
0100
0001
0000
0010
0001
1000
0000
,
0100
1000
0010
0000
0100
0010
0001
0000
,
0010
1000
0001
0000
1000
0100
0010
0001
,
0010
0000
0000
1100
0000
0000
0201
0000
0000
0000
0000
0000
0310
0000
0000
0000
,
0010
1000
0100
0000
0100
1000
0010
0000
,
0100
0001
0010
0000
0010
0001
0100
0000
,
0001
0010
0100
1000
0010
0100
0001
0000
,
1000
0100
0010
0001
0100
0010
0001
0000
,
0010
1000
0001
0000
1000
0100
0010
0000
,
0010
0100
1000
0000
0001
0100
0010
0000
,
1010
0000
0000
1100
0000
0000
0000
0000
0101
0000
0000
0011
0000
0000
0000
0000
,
0001
0000
0100
0000
1000
0000
0100
0000
0010
0010
0010
0000
1000
0000
0000
0000
,
0000
0001
0010
0100
,
0000
0100
1000
0010
,
0000
0010
0100
0001
,
0000
0001
0100
1000
,
0000
1000
0100
0001
,
0000
0000
1000
0000
0001
0000
0010
0001
,
0000
0001
1000
0010
0100
0001
0010
0100
,
1000
0001
1000
0100
0110
0000
1000
0100
,
1000
0010
0100
0010
1000
0000
0001
0010
,
0100
0010
0001
1000
0010
0000
0100
0001
,
0010
0001
1000
0100
0010
0000
0001
0100
,
0010
0001
0010
0100
0001
0000
1010
0000
,
0100
1000
0010
0100
0001
0000
1000
0100
,
0010
0100
0010
0001
0100
0000
0110
0000
,
0001
0010
0100
1000
0010
0000
1000
0010
,
0100
1000
0100
0010
1000
0000
0101
0000
,
0010
1000
0100
1000
0010
0000
0100
0001
,
0010
0001
1000
0100
0010
0100
1000
0001
,
0010
0001
1000
0010
0100
0000
0001
1000
,
0100
0010
0100
1000
0001
0001
0100
0010
,
1010
0000
1100
0000
0001
0010
0001
1000
,
0100
0001
0100
1000
0010
0000
0101
0000
,
0011
0000
0000
0000
1001
0000
1000
0000
0010
0000
0100
0000
0001
0000
0000
0010
,
0001
1000
0020
0000
0100
0130
0001
1000
,
0100
1000
0010
0100
0001
0000
0010
0100
,
1000
0010
0100
0001
0010
0000
0001
0100
,
0010
1000
0100
1000
0010
0000
1000
0100
,
1000
0010
0100
0001
0010
0000
0001
0100
,
0010
1000
0100
0010
0001
0000
1000
0010
,
0100
0001
0010
0100
1000
0010
1000
0100
,
1000
0000
0000
0000
0001
0000
0010
0000
0001
0000
0000
0000
0110
0000
0000
0101
,
0000
0010
1000
0001
0020
0000
0030
0000
;

//---------------dance-single - ----------------
#NOTES:
     dance-single:
     :
     Hard:
     16:
     0.904081,0.842087,0.318581,0.198037,0.736180,735.000000,698.000000,37.000000,23.000000,0.000000,0.000000,0.904081,0.842087,0.318581,0.198037,0.736180,735.000000,698.000000,37.000000,23.000000,0.000000,0.000000:
// measure 0
0000
0000
0000
0000
,  // measure 1
0000
0000
0000
0000
,  // measure 2
1000
0000
0010
0100
0000
0001
0010
0000
0001
0010
0100
0000
1000
0000
0010
0000
,  // measure 3
0100
0000
0001
0100
0000
0100
0010
0000
0100
0000
0001
0000
1000
0000
0100
0000
,  // measure 4
0010
0000
0100
1000
0000
0001
0010
0000
0001
1000
0010
0000
0100
0000
0001
0000
,  // measure 5
0010
0000
0001
0010
0000
0010
0001
0000
0100
0010
1000
0000
0001
0000
1000
0000
,  // measure 6
0010
0000
0100
1000
0000
0100
1000
0000
0100
0001
0010
0000
0001
0000
0010
0000
,  // measure 7
0100
0000
1000
0010
0000
1000
0010
0000
0100
0000
0001
0000
0011
0000
0000
0000
,  // measure 8
1000
0000
0010
0100
0000
1000
0001
0000
0010
0001
0010
0000
0100
0000
1000
0000
,  // measure 9
1010
0000
0000
0101
0000
0000
0011
0000
0001
0000
1000
0001
0010
0100
1000
0000
,  // measure 10
0010
0100
0201
0000
0310
1000
1100
0100
,  // measure 11
1000
0001
0101
0010
0000
0000
0110
0000
,  // measure 12
1000
0001
0021
0000
0031
1000
1010
0100
,  // measure 13
0001
0010
0110
1000
0000
0010
0110
0000
,  // measure 14
0001
1000
1010
0000
0001
1000
1100
0100
,  // measure 15
1000
0010
0110
0100
0000
0001
1001
0000
,  // measure 16
0012
0000
1003
0000
2010
0000
3001
0100
,  // measure 17
0010
0000
0100
0010
0000
0010
0100
0000
0001
0010
0100
0000
1000
0000
0001
0000
,  // measure 18
0010
0001
0010
0000
0100
0000
1000
0000
0010
1000
0010
0000
0100
0000
0001
0000
,  // measure 19
0010
0100
0010
0000
0001
0000
1000
0000
0010
0100
0010
0000
1000
0000
0001
0000
,  // measure 20
1000
0010
1000
0000
0010
0000
0100
0000
0001
0010
0001
0000
0010
0000
0100
0000
,  // measure 21
1000
0001
1000
0000
0010
0000
0100
0000
0001
1000
0001
0000
0010
0000
0100
0000
,  // measure 22
1000
0100
1000
0000
0010
0000
0100
0000
0001
0010
0001
0000
0010
0000
0100
0000
,  // measure 23
1000
0010
1000
0000
0001
0000
0010
0000
0001
0100
0001
0000
1000
0000
0010
0000
,  // measure 24
0100
0000
0100
0001
0100
0010
0100
0001
,  // measure 25
0011
0000
0000
1100
0000
0000
1001
0000
0000
0000
0100
0010
1000
0100
0010
0000
,  // measure 26
0001
0000
0000
0100
0001
0000
0010
0000
0001
1000
0001
0000
1000
0000
0001
0000
,  // measure 27
0010
0000
0000
1000
0010
0000
0001
0000
1000
0010
0100
0000
0001
0000
0010
0000
,  // measure 28
0100
0000
0000
1000
0100
0000
1000
0000
0010
0100
0010
0000
1000
0000
0001
0000
,  // measure 29
0100
0000
0000
0010
0100
0000
0001
0000
0010
0100
1000
0000
0010
0000
0100
0000
,  // measure 30
0010
0000
0000
0010
1000
0000
0001
0000
1000
0100
0010
0000
0100
0000
1000
0000
,  // measure 31
0001
0000
0000
0001
0100
0000
0010
0000
0100
0001
0010
0000
0001
0000
1000
0000
,  // measure 32
0010
0000
0100
0001
0000
1000
0010
0000
1000
0000
0100
0000
0001
0000
0100
0000
,  // measure 33
1100
0000
0000
0101
0000
0000
0110
0000
0000
0000
0001
1000
0100
0010
0100
0000
,  // measure 34
1000
0000
0010
0000
1000
0100
0000
0100
1000
0000
0001
0000
0010
0000
0001
0000
,  // measure 35
0100
0000
0010
0000
0100
0010
0000
0010
0100
0000
0001
0000
0010
0000
0001
0000
,  // measure 36
1000
0000
0001
0000
0100
0001
0000
0001
0010
0000
0100
0000
1000
0000
0001
0000
,  // measure 37
0100
0000
0010
0000
1000
0100
0000
0100
1000
0000
0001
0000
0010
0000
0001
1000
,  // measure 38
0010
0000
0100
0000
0001
0010
0000
0010
0001
0000
1000
0000
0010
0000
0100
0000
,  // measure 39
0001
0000
1000
0000
0100
0010
0000
0010
0100
0000
1000
0000
0010
0000
0100
0000
,  // measure 40
0001
0000
1000
0000
0010
1000
0000
0001
0100
0000
0001
0000
1000
0000
0100
0000
,  // measure 41
0011
0000
0000
1100
0000
0000
0101
0000
0000
0000
0010
0100
0010
0000
0000
0000
,  // measure 42
1000
0100
1000
0000
0010
0000
0100
0001
0010
0000
0001
0000
1000
0000
0010
0000
,  // measure 43
0100
0000
0001
0010
0001
0000
1000
0000
0010
1000
0100
0000
0020
0000
0000
0000
,  // measure 44
0031
0000
0100
0001
0100
0000
0010
0000
1000
0100
1000
0000
0010
0000
0100
0000
,  // measure 45
0001
0000
1000
0010
1000
0000
0001
0000
0010
0001
0010
0000
0001
0000
1000
0000
,  // measure 46
0100
0000
1000
0010
1000
0000
0001
0000
0010
0001
0010
0000
0001
0000
1000
0010
,  // measure 47
1000
0000
0100
0000
1000
0010
1000
0000
0010
0000
0100
0010
0100
0000
0001
0000
,  // measure 48
0011
0000
0000
0101
0000
0000
1010
0000
1001
0000
0000
1100
0000
0000
1001
0000
,  // measure 49
0100
0000
0100
0000
0100
0000
0100
0010
0100
0100
0100
0000
0002
0000
0000
0000
,  // measure 50
0000
0023
0000
0032
,  // measure 51
0000
0203
0000
2300
,  // measure 52
0000
3200
0000
0302
,  // measure 53
0000
0023
0000
0230
,  // measure 54
2300
3020
0032
0023
,  // measure 55
0230
0000
0000
0000
0302
0000
0000
0000
1003
0000
0000
0000
0010
0000
1000
0010
,  // measure 56
1000
0000
0001
0000
0010
0000
0001
0100
0000
0001
0010
0100
1000
0010
0000
0100
,  // measure 57
0001
0000
1000
0001
0100
0000
0010
0100
0001
0000
0000
0000
1000
0010
1000
0000
,  // measure 58
0001
0010
0001
0000
0100
0010
0100
0010
1000
0000
0001
0000
0010
0000
0001
0100
,  // measure 59
0000
0100
0010
0000
1000
0010
1000
0000
0001
0000
0010
0000
0001
0100
0001
0000
,  // measure 60
1000
0100
1000
0000
0010
0100
0010
0100
0001
0000
0010
0000
0001
0000
1000
0100
,  // measure 61
0000
0100
0010
0000
0001
1000
0001
0000
0100
0000
0010
0000
1000
0001
0100
0000
,  // measure 62
0001
1000
0100
0000
0010
0100
0010
0100
0001
0000
0010
0000
0001
0000
1000
0010
,  // measure 63
0000
0010
0100
0000
0001
0010
0100
0000
1000
0000
0001
0000
1000
0001
0010
0000
,  // measure 64
0001
1000
0010
0000
0100
0010
0100
0010
1000
0000
0100
0000
1000
0000
0001
0010
,  // measure 65
0000
0010
0001
0000
1000
0010
0100
0000
0002
0000
0000
0000
0013
0100
1000
0000
,  // measure 66
0010
0100
0001
0000
0010
0001
0010
0001
1000
0000
0010
0000
0100
0000
0001
0100
,  // measure 67
0000
0100
0010
0000
1000
0100
1000
0000
0010
0000
1000
0000
0100
1000
0001
0000
,  // measure 68
0010
0001
1000
0000
0010
0100
0010
0100
0001
0000
0010
0000
0100
0000
1000
0010
,  // measure 69
0000
0010
1000
0000
0001
0010
0100
0000
1000
0000
0001
0000
0010
0001
0100
0000
,  // measure 70
0100
0001
0010
0000
0001
1000
0001
1000
0100
0000
0010
0000
0100
0000
1000
0001
,  // measure 71
0000
0001
1000
0000
0010
0100
0010
0000
1000
0000
0100
0000
1000
0010
0100
0000
,  // measure 72
0100
0010
1000
0000
0001
0010
0001
0010
0100
0000
1000
0000
0010
0000
0100
0001
,  // measure 73
0000
0001
1000
0000
2002
0000
0000
0000
3003
0000
0000
0000
0010
0000
0100
0000
,  // measure 74
0001
0010
0000
0010
0001
0000
1000
0000
0100
0000
1000
0000
0010
0000
0100
0000
,  // measure 75
0001
1000
0000
1000
0010
0000
0100
0000
0001
0000
0010
0000
0100
0000
1000
0000
,  // measure 76
0010
0100
0000
0100
0010
0000
1000
0000
0100
0000
0010
0000
0001
0000
1000
0000
,  // measure 77
0100
0010
0000
0010
0100
0000
1000
0000
0010
0000
0100
0001
0100
0000
0010
0000
,  // measure 78
1000
0001
0000
0001
0010
0000
0100
0000
1000
0000
0010
0000
0100
0000
0001
0000
,  // measure 79
1000
0010
0000
0010
1000
0000
0100
0000
0010
0000
0001
0000
0100
0000
0010
0000
,  // measure 80
1000
0001
0000
0001
1000
0000
0001
0000
0010
0000
0100
0000
1100
0000
0000
0101
,  // measure 81
0000
0000
0010
0100
0001
0000
0010
0000
0110
0000
0000
0000
0000
0000
0000
0000
;
